<?xml version="1.0" standalone="no"?>
<!DOCTYPE svg PUBLIC "-//W3C//DTD SVG 1.1//EN" "http://www.w3.org/Graphics/SVG/1.1/DTD/svg11.dtd" >
<svg xmlns="http://www.w3.org/2000/svg" xmlns:xlink="http://www.w3.org/1999/xlink" version="1.1">
<metadata>
Created by FontForge 20230101 at Tue May  1 17:01:31 2007
 By Unknown
URW Software, Copyright 1994 by URW
</metadata>
<defs>
<font id="AlternateGotNo3D" horiz-adv-x="410" >
  <font-face 
    font-family="Alternate Gothic No3 D"
    font-weight="500"
    font-stretch="normal"
    units-per-em="1000"
    panose-1="0 0 0 0 0 0 0 0 0 0"
    ascent="800"
    descent="-200"
    x-height="497"
    cap-height="667"
    bbox="-93 -177 740 846"
    underline-thickness="64"
    underline-position="-130"
    stemh="83"
    stemv="94"
    unicode-range="U+0020-FB02"
  />
<missing-glyph horiz-adv-x="153" 
 />
    <glyph glyph-name=".notdef" horiz-adv-x="153" 
 />
    <glyph glyph-name="space" unicode=" " horiz-adv-x="153" 
 />
    <glyph glyph-name="exclam" unicode="!" horiz-adv-x="217" 
d="M139 201h-62l-24 466h110zM157 107v-107h-97v107h97z" />
    <glyph glyph-name="quotedbl" unicode="&#x22;" horiz-adv-x="362" 
d="M134 400h-75l-17 267h109zM302 400h-75l-17 267h109z" />
    <glyph glyph-name="numbersign" unicode="#" horiz-adv-x="441" 
d="M290 477l36 190h66l-36 -190h55l-12 -68h-56l-29 -159h60l-13 -68h-60l-34 -182h-66l34 182h-84l-34 -182h-66l34 182h-55l14 68h53l30 159h-58l15 67h56l35 191h66l-35 -190h84zM278 409h-85l-30 -159h85z" />
    <glyph glyph-name="dollar" unicode="$" 
d="M177 737h53v-62c52 -6 96 -30 135 -74l-69 -68c-27 37 -54 52 -90 52c-45 0 -73 -29 -73 -76c0 -26 9 -50 26 -68c15 -16 22 -21 79 -60c107 -75 140 -126 140 -215c0 -99 -54 -163 -148 -175v-76h-53v76c-57 7 -109 40 -150 95l69 65c43 -53 70 -70 112 -70
c43 0 70 31 70 80c0 27 -10 53 -27 73c-17 19 -27 27 -86 69c-98 70 -129 118 -129 199c0 92 55 160 141 173v62z" />
    <glyph glyph-name="percent" unicode="%" horiz-adv-x="537" 
d="M215 557v-124c0 -78 -30 -116 -92 -116s-93 38 -93 116v124c0 79 30 117 93 117c62 0 92 -38 92 -117zM90 568v-145c0 -40 8 -53 33 -53c24 0 32 13 32 53v145c0 40 -8 53 -32 53c-25 0 -33 -13 -33 -53zM379 667h55l-276 -667h-55zM507 234v-124
c0 -79 -30 -117 -92 -117c-63 0 -93 38 -93 117v124c0 78 30 116 93 116c62 0 92 -38 92 -116zM382 244v-145c0 -40 8 -53 33 -53c24 0 32 13 32 53v145c0 40 -8 53 -32 53c-25 0 -33 -13 -33 -53z" />
    <glyph glyph-name="ampersand" unicode="&#x26;" horiz-adv-x="469" 
d="M337 309l90 -11c-4 -61 -22 -118 -53 -166c13 -18 38 -34 68 -42v-100c-42 2 -89 27 -126 66c-46 -46 -82 -63 -131 -63c-85 0 -152 72 -152 164c0 61 26 117 89 191c-32 66 -44 110 -44 161c0 97 57 165 139 165c72 0 124 -57 124 -137c0 -39 -14 -78 -40 -115
c-16 -23 -20 -28 -67 -86c17 -42 52 -101 76 -130c16 31 23 57 27 103zM191 423c37 43 57 88 57 130c0 34 -14 54 -39 54c-27 0 -44 -26 -44 -68c0 -38 8 -74 26 -116zM167 259c-23 -34 -32 -59 -32 -89c0 -43 27 -79 60 -79c21 0 41 10 62 34c-35 37 -67 84 -90 134z" />
    <glyph glyph-name="quoteright" unicode="&#x2019;" horiz-adv-x="177" 
d="M137 667v-107l-59 -138h-38l44 138h-44v107h97z" />
    <glyph glyph-name="parenleft" unicode="(" horiz-adv-x="262" 
d="M175 708l59 -40c-71 -111 -110 -242 -110 -370s39 -259 110 -370l-59 -40c-92 124 -144 271 -144 410s52 286 144 410z" />
    <glyph glyph-name="parenright" unicode=")" horiz-adv-x="262" 
d="M86 -112l-58 40c71 112 110 242 110 370s-39 258 -110 370l58 40c93 -123 145 -271 145 -410s-52 -287 -145 -410z" />
    <glyph glyph-name="asterisk" unicode="*" horiz-adv-x="306" 
d="M103 540l-66 16l23 69l63 -26l-6 68h73l-6 -68l63 26l23 -69l-66 -16l44 -51l-59 -44l-35 59l-36 -59l-59 44z" />
    <glyph glyph-name="plus" unicode="+" 
d="M373 381v-79h-127v-125h-81v125h-127v79h127v122h81v-122h127z" />
    <glyph glyph-name="comma" unicode="," horiz-adv-x="173" 
d="M135 107v-107l-59 -138h-38l44 138h-44v107h97z" />
    <glyph glyph-name="hyphen" unicode="-" horiz-adv-x="143" 
d="M143 295v-83h-143v83h143z" />
    <glyph glyph-name="period" unicode="." horiz-adv-x="173" 
d="M135 107v-107h-97v107h97z" />
    <glyph glyph-name="slash" unicode="/" horiz-adv-x="371" 
d="M264 667h84l-247 -734h-84z" />
    <glyph glyph-name="zero" unicode="0" 
d="M373 455v-243c0 -76 -10 -120 -35 -158c-28 -41 -75 -64 -132 -64c-58 0 -105 23 -133 64c-25 38 -35 83 -35 158v243c0 75 10 120 35 158c28 41 75 64 133 64c57 0 104 -23 132 -64c25 -38 35 -82 35 -158zM135 476v-285c0 -46 2 -59 12 -78c11 -20 32 -31 59 -31
c26 0 47 11 58 31c10 19 12 31 12 78v285c0 47 -2 59 -12 78c-11 20 -32 31 -58 31c-27 0 -48 -11 -59 -31c-10 -19 -12 -31 -12 -78z" />
    <glyph glyph-name="one" unicode="1" 
d="M275 667v-667h-97v510h-96v61c54 23 112 65 136 96h57z" />
    <glyph glyph-name="two" unicode="2" 
d="M358 90v-90h-325v90c212 278 238 322 238 411c0 55 -22 84 -64 84c-28 0 -50 -15 -61 -41c-7 -14 -9 -31 -9 -71h-97c0 75 7 108 30 139c31 42 81 65 139 65c101 0 162 -66 162 -176c0 -55 -13 -103 -42 -154c-32 -54 -32 -54 -149 -211c-12 -15 -23 -31 -34 -46h212z
" />
    <glyph glyph-name="three" unicode="3" 
d="M177 304v93c42 1 56 6 69 23c12 16 18 38 18 70c0 64 -20 95 -61 95c-39 0 -62 -29 -63 -78v-10h-97v9c0 103 65 171 163 171c99 0 155 -67 155 -185c0 -80 -21 -117 -80 -139c67 -20 91 -61 91 -157c0 -70 -14 -116 -45 -152s-74 -54 -126 -54c-102 0 -167 71 -167 181
v19h100v-14c0 -60 25 -94 68 -94c46 0 70 38 70 112c0 80 -24 108 -95 110z" />
    <glyph glyph-name="four" unicode="4" 
d="M220 169h-206v104l197 394h106v-408h75v-90h-75v-169h-97v169zM220 259v245l-116 -245h116z" />
    <glyph glyph-name="five" unicode="5" 
d="M346 667v-90h-207l-3 -152c33 29 62 41 101 41c46 0 83 -20 105 -55c22 -37 29 -79 29 -172c0 -101 -8 -144 -35 -187c-26 -41 -72 -62 -133 -62c-101 0 -158 63 -158 175c0 4 0 13 1 23h96v-17c0 -61 19 -89 62 -89c29 0 50 15 58 42c7 23 9 46 9 112
c0 111 -17 148 -67 148c-29 0 -46 -13 -68 -53h-89l7 336h292z" />
    <glyph glyph-name="six" unicode="6" 
d="M366 494h-97v15c0 51 -20 76 -61 76c-26 0 -47 -11 -56 -31c-11 -22 -14 -47 -14 -110v-83c29 38 57 53 101 53c91 0 135 -66 135 -199c0 -149 -56 -225 -167 -225c-53 0 -96 20 -123 56c-30 40 -43 93 -43 178v238c0 75 12 120 40 157c29 37 74 58 127 58
c96 0 158 -65 158 -166v-17zM138 281v-91c0 -73 22 -108 68 -108c49 0 68 35 68 123c0 84 -18 117 -66 117c-28 0 -46 -11 -70 -41z" />
    <glyph glyph-name="seven" unicode="7" 
d="M358 667v-71l-149 -596h-101l147 577h-217v90h320z" />
    <glyph glyph-name="eight" unicode="8" 
d="M293 351c59 -24 81 -69 81 -161c0 -70 -13 -115 -44 -150c-29 -32 -72 -50 -125 -50s-96 18 -125 50c-31 35 -44 80 -44 150c0 92 22 137 81 161c-54 27 -73 64 -73 147c0 116 57 179 161 179s161 -63 161 -179c0 -83 -19 -120 -73 -147zM204 585c-42 0 -63 -32 -63 -94
s22 -94 64 -94s64 31 64 93c0 64 -21 95 -65 95zM204 302c-46 0 -68 -36 -68 -110s22 -110 69 -110c46 0 69 36 69 109c0 76 -22 111 -70 111z" />
    <glyph glyph-name="nine" unicode="9" 
d="M45 173h97v-15c0 -51 20 -76 61 -76c26 0 47 11 56 31c11 22 14 47 14 110v83c-29 -38 -57 -53 -101 -53c-91 0 -135 66 -135 199c0 149 56 225 167 225c53 0 96 -20 123 -56c30 -40 43 -93 43 -178v-238c0 -75 -12 -120 -40 -157c-29 -37 -74 -58 -127 -58
c-96 0 -158 65 -158 166v17zM273 386v91c0 73 -22 108 -68 108c-49 0 -68 -35 -68 -123c0 -84 18 -117 66 -117c28 0 46 11 70 41z" />
    <glyph glyph-name="colon" unicode=":" horiz-adv-x="173" 
d="M135 107v-107h-97v107h97zM135 497v-107h-97v107h97z" />
    <glyph glyph-name="semicolon" unicode=";" horiz-adv-x="173" 
d="M135 497v-107h-97v107h97zM135 107v-107l-59 -138h-38l44 138h-44v107h97z" />
    <glyph glyph-name="less" unicode="&#x3c;" horiz-adv-x="500" 
d="M466 591v-101l-325 -154l325 -155v-100l-433 212v86z" />
    <glyph glyph-name="equal" unicode="=" 
d="M373 296v-79h-335v79h335zM373 463v-79h-335v79h335z" />
    <glyph glyph-name="greater" unicode="&#x3e;" horiz-adv-x="500" 
d="M34 81v101l325 154l-325 155v100l433 -212v-87z" />
    <glyph glyph-name="question" unicode="?" horiz-adv-x="355" 
d="M216 203h-84c-1 16 -1 29 -1 35c0 90 13 135 68 233c21 39 27 54 27 75c0 26 -17 43 -43 43c-31 0 -50 -23 -70 -80l-93 27c30 96 80 138 167 138c84 0 141 -52 141 -130c0 -38 -11 -65 -50 -122c-53 -80 -62 -107 -62 -186v-33zM224 107v-107h-97v107h97z" />
    <glyph glyph-name="at" unicode="@" horiz-adv-x="471" 
d="M430 177h-63l-12 28c-24 -28 -44 -38 -74 -38c-55 0 -81 26 -81 84v188c0 57 32 91 87 91c23 0 38 -6 60 -26v21c0 48 -41 79 -104 79c-30 0 -59 -9 -79 -26c-23 -18 -29 -36 -29 -83v-311c0 -39 6 -62 19 -80c21 -25 54 -40 94 -40c36 0 70 11 99 31l50 -46
c-38 -40 -87 -59 -150 -59c-53 0 -108 16 -139 41c-34 28 -56 79 -56 131v349c0 107 68 166 190 166c118 0 188 -60 188 -161v-339zM283 424v-151c0 -28 8 -38 32 -38s32 10 32 38v151c0 29 -8 38 -32 38s-32 -9 -32 -38z" />
    <glyph glyph-name="A" unicode="A" horiz-adv-x="451" 
d="M297 145h-142l-27 -145h-101l128 667h141l135 -667h-106zM280 240l-55 299l-54 -299h109z" />
    <glyph glyph-name="B" unicode="B" horiz-adv-x="456" 
d="M51 0v667h154c125 0 195 -61 195 -169c0 -79 -35 -126 -110 -149c90 -26 126 -72 126 -160c0 -118 -74 -189 -198 -189h-167zM154 395h37c63 0 104 37 104 94c0 25 -9 47 -25 62c-17 15 -38 21 -77 21h-39v-177zM154 95h52c66 0 103 34 103 94c0 67 -46 111 -118 111h-37
v-205z" />
    <glyph glyph-name="C" unicode="C" horiz-adv-x="444" 
d="M405 450h-103v17c0 73 -27 113 -78 113c-28 0 -50 -12 -61 -33c-13 -22 -16 -42 -16 -96v-222c0 -51 3 -77 11 -99c10 -27 36 -43 67 -43c38 0 63 23 73 69c4 16 5 32 6 78h104v-22c0 -146 -63 -222 -183 -222c-67 0 -120 26 -149 74c-25 41 -32 80 -32 179v187
c0 106 8 143 39 185c29 40 79 62 141 62c116 0 181 -76 181 -212v-15z" />
    <glyph glyph-name="D" unicode="D" horiz-adv-x="450" 
d="M51 0v667h163c131 0 193 -67 193 -209v-249c0 -142 -62 -209 -193 -209h-163zM154 95h51c73 0 99 38 99 142v193c0 105 -26 142 -99 142h-51v-477z" />
    <glyph glyph-name="E" unicode="E" horiz-adv-x="373" 
d="M353 667v-95h-199v-176h147v-95h-147v-206h199v-95h-302v667h302z" />
    <glyph glyph-name="F" unicode="F" horiz-adv-x="367" 
d="M154 297v-297h-103v667h305v-95h-202v-180h150v-95h-150z" />
    <glyph glyph-name="G" unicode="G" horiz-adv-x="448" 
d="M220 331h188v-331h-53l-19 57c-34 -48 -71 -67 -125 -67c-61 0 -112 29 -138 78c-22 43 -29 86 -29 178v184c0 106 8 144 39 185c29 40 80 62 141 62c75 0 131 -33 159 -94c16 -32 22 -72 22 -133h-103c0 92 -23 130 -79 130c-27 0 -50 -12 -61 -34
c-12 -22 -15 -41 -15 -96v-204c0 -55 3 -84 11 -109c11 -31 37 -50 70 -50c54 0 77 40 77 132v27h-85v85z" />
    <glyph glyph-name="H" unicode="H" horiz-adv-x="454" 
d="M301 294h-147v-294h-103v667h103v-278h147v278h103v-667h-103v294z" />
    <glyph glyph-name="I" unicode="I" horiz-adv-x="205" 
d="M154 667v-667h-103v667h103z" />
    <glyph glyph-name="J" unicode="J" horiz-adv-x="259" 
d="M105 667h103v-504c0 -70 -7 -99 -29 -126c-21 -26 -53 -37 -104 -37h-62v97h24c50 0 68 19 68 74v496z" />
    <glyph glyph-name="K" unicode="K" horiz-adv-x="444" 
d="M154 667v-276l149 276h111l-141 -242l161 -425h-113l-112 315l-55 -93v-222h-103v667h103z" />
    <glyph glyph-name="L" unicode="L" horiz-adv-x="372" 
d="M154 667v-572h205v-95h-308v667h103z" />
    <glyph glyph-name="M" unicode="M" horiz-adv-x="587" 
d="M536 667v-667h-98v491l-116 -491h-58l-115 491v-491h-98v667h151l92 -419l93 419h149z" />
    <glyph glyph-name="N" unicode="N" horiz-adv-x="471" 
d="M421 667v-667h-92l-180 444v-444h-98v667h104l168 -415v415h98z" />
    <glyph glyph-name="O" unicode="O" horiz-adv-x="452" 
d="M408 455v-243c0 -75 -11 -120 -38 -158c-30 -42 -80 -64 -144 -64s-114 22 -144 64c-27 38 -38 83 -38 158v243c0 75 11 120 38 158c30 42 80 64 144 64s114 -22 144 -64c27 -38 38 -83 38 -158zM147 453v-239c0 -53 3 -70 13 -91c12 -22 37 -36 66 -36s54 14 66 36
c11 21 13 37 13 91v239c0 54 -2 70 -13 91c-12 22 -37 36 -66 36s-54 -14 -66 -36c-10 -20 -13 -38 -13 -91z" />
    <glyph glyph-name="P" unicode="P" horiz-adv-x="435" 
d="M154 270v-270h-103v667h171c67 0 109 -13 140 -43c36 -34 53 -84 53 -156c0 -71 -17 -121 -53 -155c-31 -30 -73 -43 -140 -43h-68zM154 365h45c83 0 109 25 109 104c0 78 -26 103 -109 103h-45v-207z" />
    <glyph glyph-name="Q" unicode="Q" horiz-adv-x="452" 
d="M438 47v-96c-56 0 -103 20 -125 56c-31 -12 -57 -17 -89 -17c-62 0 -112 23 -142 64c-27 37 -38 83 -38 158v243c0 75 11 120 38 158c30 42 80 64 144 64s114 -22 144 -64c27 -38 38 -83 38 -158v-243c0 -63 -7 -104 -25 -137c11 -17 29 -26 55 -28zM147 453v-239
c0 -53 3 -70 13 -91c12 -22 37 -36 66 -36s54 14 66 36c11 21 13 37 13 91v239c0 54 -2 70 -13 91c-12 22 -37 36 -66 36s-54 -14 -66 -36c-10 -20 -13 -38 -13 -91z" />
    <glyph glyph-name="R" unicode="R" horiz-adv-x="439" 
d="M154 274v-274h-103v667h161c61 0 100 -12 132 -40c40 -34 60 -85 60 -151c0 -84 -30 -142 -90 -173l98 -303h-108l-88 274h-62zM154 369h38c44 0 64 5 80 21c17 17 25 44 25 81c0 36 -8 63 -25 80c-16 16 -36 21 -80 21h-38v-203z" />
    <glyph glyph-name="S" unicode="S" horiz-adv-x="426" 
d="M401 510l-99 -29c-16 66 -46 99 -88 99c-38 0 -67 -29 -67 -68c0 -23 10 -48 28 -67c17 -19 17 -19 88 -73c56 -44 77 -63 99 -90c27 -33 43 -77 43 -122c0 -101 -74 -170 -183 -170c-114 0 -181 61 -202 188l99 29c13 -80 48 -120 103 -120c45 0 76 31 76 76
c0 42 -21 69 -99 130c-93 73 -97 77 -122 109c-24 31 -37 70 -37 111c0 96 72 164 174 164c95 0 159 -57 187 -167z" />
    <glyph glyph-name="T" unicode="T" horiz-adv-x="375" 
d="M239 572v-572h-103v572h-129v95h362v-95h-130z" />
    <glyph glyph-name="U" unicode="U" horiz-adv-x="454" 
d="M301 667h103v-452c0 -84 -10 -127 -38 -165c-29 -39 -78 -60 -138 -60c-61 0 -110 21 -139 60c-28 38 -38 81 -38 165v452h103v-469c0 -79 21 -111 73 -111c53 0 74 32 74 111v469z" />
    <glyph glyph-name="V" unicode="V" horiz-adv-x="433" 
d="M288 0h-128l-143 667h107l100 -507l88 507h105z" />
    <glyph glyph-name="W" unicode="W" horiz-adv-x="637" 
d="M504 0h-96l-86 452l-81 -452h-96l-125 667h100l76 -430l80 430h89l88 -430l67 430h97z" />
    <glyph glyph-name="X" unicode="X" horiz-adv-x="450" 
d="M280 348l156 -348h-114l-102 243l-94 -243h-113l149 348l-143 319h114l89 -214l83 214h112z" />
    <glyph glyph-name="Y" unicode="Y" horiz-adv-x="440" 
d="M270 260v-260h-103v260l-150 407h114l89 -282l92 282h112z" />
    <glyph glyph-name="Z" unicode="Z" horiz-adv-x="389" 
d="M369 95v-95h-349v97l233 475h-211v95h324v-95l-232 -477h235z" />
    <glyph glyph-name="bracketleft" unicode="[" horiz-adv-x="262" 
d="M222 667v-87h-78v-588h78v-87h-173v762h173z" />
    <glyph glyph-name="backslash" unicode="\" horiz-adv-x="371" 
d="M107 667l247 -734h-84l-247 734h84z" />
    <glyph glyph-name="bracketright" unicode="]" horiz-adv-x="262" 
d="M39 -95v87h79v588h-79v87h174v-762h-174z" />
    <glyph glyph-name="asciicircum" unicode="^" horiz-adv-x="500" 
d="M119 366h-93l167 303h114l167 -303h-93l-132 234z" />
    <glyph glyph-name="underscore" unicode="_" horiz-adv-x="500" 
d="M0 -66h500v-64h-500v64z" />
    <glyph glyph-name="quoteleft" unicode="&#x2018;" horiz-adv-x="177" 
d="M40 422v107l59 138h38l-44 -138h44v-107h-97z" />
    <glyph glyph-name="a" unicode="a" horiz-adv-x="396" 
d="M354 0h-96c-5 14 -8 34 -8 58c-45 -49 -72 -65 -112 -65c-63 0 -101 50 -101 132c0 64 24 103 86 140c22 14 48 26 127 60v26c0 51 -14 71 -49 71s-51 -21 -55 -71h-98c8 100 66 153 166 153c46 0 79 -12 102 -38c21 -26 27 -49 27 -110v-221c0 -75 2 -98 11 -135z
M250 120v136c-82 -44 -115 -79 -115 -125c0 -33 20 -56 47 -56c26 0 50 15 68 45z" />
    <glyph glyph-name="b" unicode="b" horiz-adv-x="387" 
d="M43 0v667h93v-219c41 39 74 56 110 56s64 -18 80 -51c15 -34 20 -68 20 -145v-119c0 -76 -5 -111 -20 -145c-16 -33 -44 -51 -80 -51s-69 17 -110 56v-49h-93zM136 397v-297c25 -18 44 -25 65 -25c19 0 36 10 43 26c8 17 9 30 9 82v131c0 52 -1 65 -9 82
c-7 16 -24 26 -43 26c-21 0 -40 -7 -65 -25z" />
    <glyph glyph-name="c" unicode="c" horiz-adv-x="377" 
d="M349 325h-93v16c0 55 -20 81 -60 81c-48 0 -63 -27 -63 -114v-120c0 -47 3 -69 12 -86s28 -27 51 -27c41 0 60 27 60 85v16h93v-18c0 -60 -10 -94 -35 -122c-27 -30 -67 -46 -118 -46c-56 0 -100 18 -125 52c-23 31 -31 66 -31 134v144c0 68 8 104 31 135
c25 34 68 52 125 52c51 0 91 -15 118 -45c25 -27 35 -60 35 -120v-17z" />
    <glyph glyph-name="d" unicode="d" horiz-adv-x="387" 
d="M343 0h-93v49c-41 -39 -74 -56 -110 -56s-64 18 -80 51c-15 34 -20 69 -20 145v119c0 77 5 111 20 145c16 33 44 51 80 51s69 -17 110 -56v219h93v-667zM250 100v297c-25 18 -44 25 -65 25c-19 0 -36 -10 -43 -26c-8 -17 -9 -30 -9 -82v-131c0 -52 1 -65 9 -82
c7 -16 24 -26 43 -26c21 0 40 7 65 25z" />
    <glyph glyph-name="e" unicode="e" horiz-adv-x="389" 
d="M348 233h-215v-44c0 -87 15 -114 63 -114c29 0 49 15 56 44c3 10 4 19 4 53h93c-1 -71 -4 -93 -21 -119c-25 -41 -71 -63 -132 -63c-57 0 -100 18 -125 52c-22 31 -31 68 -31 135v148c0 79 9 112 40 142c27 26 66 40 113 40c51 0 91 -16 117 -46c29 -32 38 -68 38 -146
v-82zM255 315v27c0 59 -18 83 -61 83s-61 -24 -61 -83v-27h122z" />
    <glyph glyph-name="f" unicode="f" horiz-adv-x="245" 
d="M244 497v-83h-78v-414h-93v414h-67v83h67v47c0 60 7 85 31 105c20 17 47 25 85 25c22 0 37 -2 63 -7v-87c-26 8 -29 9 -41 9c-34 0 -45 -16 -45 -65v-27h78z" />
    <glyph glyph-name="g" unicode="g" horiz-adv-x="404" 
d="M398 502v-99c-11 10 -19 13 -32 13c-16 0 -26 -5 -37 -19c7 -26 10 -47 10 -81c0 -126 -52 -192 -150 -192c-12 0 -19 1 -35 3c-14 -7 -22 -17 -22 -29c0 -13 10 -21 29 -23c16 -2 24 -3 67 -5c63 -4 90 -10 118 -27c30 -19 47 -54 47 -96c0 -85 -63 -124 -198 -124
c-115 0 -172 30 -172 90c0 39 23 63 78 82c-42 17 -58 35 -58 65c0 38 20 58 77 77c-58 31 -83 84 -83 177c0 124 53 190 153 190c56 0 90 -18 121 -63c12 45 37 63 87 61zM132 341v-55c0 -54 18 -80 56 -80s56 26 56 80v55c0 55 -18 81 -56 81s-56 -26 -56 -81zM143 -13
c-16 -14 -25 -30 -25 -44c0 -30 26 -41 91 -41s95 13 95 42c0 19 -12 30 -40 34c-13 2 -21 2 -72 4c-13 1 -26 2 -49 5z" />
    <glyph glyph-name="h" unicode="h" horiz-adv-x="385" 
d="M136 667v-234c43 50 80 71 124 71c55 0 81 -37 81 -116v-388h-93v364c0 43 -9 58 -35 58s-53 -18 -77 -50v-372h-93v667h93z" />
    <glyph glyph-name="i" unicode="i" horiz-adv-x="180" 
d="M136 497v-497h-93v497h93zM136 667v-97h-93v97h93z" />
    <glyph glyph-name="j" unicode="j" horiz-adv-x="193" 
d="M57 497h93v-504c0 -67 -6 -93 -28 -118c-23 -27 -60 -42 -106 -42c-15 0 -24 1 -40 5v90c13 -2 19 -3 29 -3c38 0 52 23 52 88v484zM150 667v-97h-93v97h93z" />
    <glyph glyph-name="k" unicode="k" horiz-adv-x="374" 
d="M136 667v-369l112 199h106l-101 -162l110 -335h-104l-70 232l-53 -84v-148h-93v667h93z" />
    <glyph glyph-name="l" unicode="l" horiz-adv-x="180" 
d="M136 667v-667h-93v667h93z" />
    <glyph glyph-name="m" unicode="m" horiz-adv-x="589" 
d="M136 497v-64c43 50 80 71 124 71c43 0 69 -24 78 -71c44 50 82 71 126 71c56 0 82 -37 82 -116v-388h-93v364c0 43 -9 58 -35 58s-53 -18 -77 -50v-372h-93v364c0 43 -9 58 -35 58s-53 -18 -77 -50v-372h-93v497h93z" />
    <glyph glyph-name="n" unicode="n" horiz-adv-x="385" 
d="M136 497v-64c43 50 80 71 124 71c55 0 81 -37 81 -116v-388h-93v364c0 43 -9 58 -35 58s-53 -18 -77 -50v-372h-93v497h93z" />
    <glyph glyph-name="o" unicode="o" horiz-adv-x="385" 
d="M345 325v-153c0 -78 -9 -112 -39 -142c-27 -26 -66 -40 -113 -40c-48 0 -87 14 -114 40c-29 30 -39 64 -39 142v153c0 78 10 112 39 142c27 26 66 40 114 40c47 0 86 -14 113 -40c30 -30 39 -64 39 -142zM133 331v-165c0 -63 18 -91 59 -91c42 0 60 28 60 91v165
c0 64 -18 91 -60 91c-41 0 -59 -28 -59 -91z" />
    <glyph glyph-name="p" unicode="p" horiz-adv-x="387" 
d="M43 497h93v-49c41 39 74 56 110 56s64 -18 80 -51c15 -34 20 -69 20 -145v-119c0 -77 -5 -111 -20 -145c-16 -33 -44 -51 -80 -51s-69 17 -110 56v-219h-93v667zM136 397v-297c25 -18 44 -25 65 -25c19 0 36 10 43 26c8 17 9 30 9 82v131c0 52 -1 65 -9 82
c-7 16 -24 26 -43 26c-21 0 -41 -8 -65 -25z" />
    <glyph glyph-name="q" unicode="q" horiz-adv-x="387" 
d="M343 497v-667h-93v219c-41 -39 -74 -56 -110 -56s-64 18 -80 51c-15 34 -20 68 -20 145v119c0 76 5 111 20 145c16 33 44 51 80 51s69 -17 110 -56v49h93zM250 100v297c-24 17 -44 25 -65 25c-19 0 -36 -10 -43 -26c-8 -17 -9 -30 -9 -82v-131c0 -52 1 -65 9 -82
c7 -16 24 -26 43 -26c21 0 40 7 65 25z" />
    <glyph glyph-name="r" unicode="r" horiz-adv-x="255" 
d="M43 497h93v-86c25 66 61 93 119 93v-108c-18 7 -30 9 -45 9c-25 0 -45 -9 -58 -26s-16 -33 -16 -80v-299h-93v497z" />
    <glyph glyph-name="s" unicode="s" horiz-adv-x="362" 
d="M334 387l-85 -37c-20 52 -41 72 -77 72c-29 0 -49 -18 -49 -44c0 -27 14 -41 84 -79c56 -31 81 -47 101 -68c22 -23 35 -57 35 -94c0 -88 -61 -147 -153 -147c-85 0 -138 44 -170 140l87 30c20 -61 44 -85 83 -85c31 0 53 21 53 50c0 28 -16 46 -70 75
c-68 38 -87 51 -109 74c-23 24 -36 58 -36 94c0 81 61 139 145 139c79 0 130 -38 161 -120z" />
    <glyph glyph-name="t" unicode="t" horiz-adv-x="273" 
d="M261 497v-83h-85v-265c0 -50 17 -71 58 -71c12 0 20 1 36 6v-84c-26 -5 -42 -7 -64 -7c-46 0 -80 12 -100 37c-18 22 -23 46 -23 109v275h-72v83h72v136h93v-136h85z" />
    <glyph glyph-name="u" unicode="u" horiz-adv-x="385" 
d="M341 497v-497h-93v64c-43 -50 -80 -71 -124 -71c-55 0 -81 37 -81 116v388h93v-364c0 -43 9 -58 35 -58s53 18 77 50v372h93z" />
    <glyph glyph-name="v" unicode="v" horiz-adv-x="351" 
d="M230 0h-98l-122 497h99l71 -316l63 316h98z" />
    <glyph glyph-name="w" unicode="w" horiz-adv-x="540" 
d="M422 0h-88l-64 305l-63 -305h-88l-106 497h95l60 -310l61 310h85l63 -310l56 310h94z" />
    <glyph glyph-name="x" unicode="x" horiz-adv-x="368" 
d="M238 260l117 -260h-102l-71 176l-70 -176h-99l115 260l-107 237h101l61 -153l58 153h100z" />
    <glyph glyph-name="y" unicode="y" horiz-adv-x="354" 
d="M248 497h96l-108 -476c-34 -163 -71 -198 -211 -198v96c7 -1 14 -1 17 -1c50 0 84 33 84 82c0 11 -2 22 -7 43l-109 454h98l73 -339z" />
    <glyph glyph-name="z" unicode="z" horiz-adv-x="341" 
d="M318 90v-90h-295v93l188 314h-172v90h279v-93l-188 -314h188z" />
    <glyph glyph-name="braceleft" unicode="{" horiz-adv-x="293" 
d="M175 487v-86c0 -64 -14 -92 -56 -115c42 -24 56 -54 56 -118v-84c0 -73 19 -91 96 -92v-86c-114 0 -130 4 -158 32c-24 24 -34 58 -34 115v101c0 58 -15 83 -57 94v79c41 11 57 37 57 90v113c0 52 11 84 36 107c28 26 47 30 156 30v-92c-77 -1 -96 -19 -96 -88z" />
    <glyph glyph-name="bar" unicode="|" horiz-adv-x="500" 
d="M199 667h102v-834h-102v834z" />
    <glyph glyph-name="braceright" unicode="}" horiz-adv-x="293" 
d="M119 84v84c0 64 14 94 56 118c-42 23 -56 51 -56 115v86c0 69 -19 87 -96 88v92c109 0 128 -4 156 -30c25 -23 36 -55 36 -107v-113c0 -53 16 -79 57 -90v-79c-42 -11 -57 -36 -57 -94v-101c0 -57 -10 -91 -34 -115c-28 -28 -44 -32 -158 -32v86c77 1 96 19 96 92z" />
    <glyph glyph-name="asciitilde" unicode="~" horiz-adv-x="667" 
d="M146 571l-52 42c35 80 82 120 140 120c26 0 57 -10 115 -37c55 -27 67 -31 87 -31c34 0 59 21 86 71l52 -42c-35 -82 -82 -119 -149 -119c-25 0 -40 5 -116 42c-37 18 -60 25 -81 25c-30 0 -54 -21 -82 -71z" />
    <glyph glyph-name="exclamdown" unicode="&#xa1;" horiz-adv-x="217" 
d="M77 295h62l24 -465h-110zM60 390v107h97v-107h-97z" />
    <glyph glyph-name="cent" unicode="&#xa2;" 
d="M179 690h53v-100c86 -9 127 -61 127 -160v-20h-94c1 7 1 14 1 17c0 53 -20 80 -60 80c-23 0 -42 -10 -51 -27s-12 -39 -12 -87v-120c0 -48 3 -69 12 -86s28 -27 50 -27c41 0 61 27 61 83c0 4 0 10 -1 18h94v-21c0 -102 -38 -151 -127 -163v-108h-53v108
c-95 14 -129 62 -129 184v144c0 92 18 136 65 165c18 11 38 17 64 20v100z" />
    <glyph glyph-name="sterling" unicode="&#xa3;" 
d="M305 353v-61h-96c12 -33 16 -56 16 -84c0 -35 -8 -58 -31 -91c52 -19 57 -21 69 -21c27 0 44 30 44 79h88c0 -112 -44 -182 -113 -182c-27 0 -49 7 -102 32c-22 11 -30 13 -40 13c-20 0 -41 -15 -65 -48l-63 64c27 49 60 75 96 79c18 26 25 45 25 72s-6 47 -25 87h-85v61
h63c-34 95 -40 117 -40 158c0 102 64 166 165 166c68 0 121 -31 146 -86c12 -27 17 -57 17 -105h-96c-2 70 -21 99 -67 99c-40 0 -66 -28 -66 -70c0 -35 5 -55 38 -144l6 -18h116z" />
    <glyph glyph-name="fraction" unicode="&#x2044;" horiz-adv-x="120" 
d="M-93 -33l250 733h56l-254 -733h-52z" />
    <glyph glyph-name="yen" unicode="&#xa5;" 
d="M252 285v-285h-98v285h-99v61h77l-114 321h102l84 -283l88 283h99l-117 -321h76v-61h-98z" />
    <glyph glyph-name="florin" unicode="&#x192;" 
d="M349 475l-12 -61h-90l-114 -584h-93l113 584h-80l12 61h80l27 136c11 59 24 84 52 104c23 17 51 25 90 25c22 0 36 -2 60 -6l-17 -87c-19 6 -27 8 -39 8c-33 0 -47 -16 -57 -64l-22 -116h90z" />
    <glyph glyph-name="section" unicode="&#xa7;" 
d="M337 517h-91v22c0 37 -13 55 -40 55c-19 0 -33 -13 -33 -30c0 -12 3 -18 25 -41l140 -161c27 -30 39 -59 39 -93c0 -57 -29 -95 -87 -118l11 -12c19 -24 29 -52 29 -81c0 -69 -51 -115 -128 -115c-84 0 -135 50 -135 132c0 7 0 11 2 21h92c-1 -9 -2 -13 -2 -18
c0 -31 17 -50 44 -50c19 0 32 13 32 33c0 10 -7 24 -17 36l-119 132c-53 60 -66 84 -66 121c0 51 32 86 100 109l-10 13c-37 43 -45 61 -45 94c0 65 53 111 129 111c80 0 132 -51 132 -128c0 -10 0 -17 -2 -32zM255 317l-82 92c-32 -15 -45 -30 -45 -52c0 -14 8 -30 20 -44
l96 -106c27 12 38 28 38 55c0 18 -7 33 -27 55z" />
    <glyph glyph-name="currency" unicode="&#xa4;" horiz-adv-x="416" 
d="M337 268l42 -43l-57 -57l-41 41c-24 -13 -45 -19 -72 -19s-45 5 -72 19l-43 -42l-56 56l44 44c-13 26 -17 41 -17 66c0 26 5 46 19 72l-42 42l58 58l43 -44c27 12 43 16 66 16c25 0 42 -4 67 -16l47 47l56 -56l-46 -46c14 -25 19 -45 19 -72c0 -25 -4 -43 -15 -66z
M207 409c-40 0 -75 -36 -75 -75c0 -42 35 -77 76 -77c42 0 77 35 77 75c0 43 -35 77 -78 77z" />
    <glyph glyph-name="quotesingle" unicode="'" horiz-adv-x="197" 
d="M137 400h-78l-17 267h112z" />
    <glyph glyph-name="quotedblleft" unicode="&#x201c;" horiz-adv-x="323" 
d="M186 422v107l59 138h38l-44 -138h44v-107h-97zM40 422v107l59 138h38l-44 -138h44v-107h-97z" />
    <glyph glyph-name="guillemotleft" unicode="&#xab;" horiz-adv-x="309" 
d="M276 93l-103 85v144l103 85v-120l-38 -37l38 -37v-120zM136 93l-103 85v144l103 85v-120l-38 -37l38 -37v-120z" />
    <glyph glyph-name="guilsinglleft" unicode="&#x2039;" horiz-adv-x="169" 
d="M136 93l-103 85v144l103 85v-120l-38 -37l38 -37v-120z" />
    <glyph glyph-name="guilsinglright" unicode="&#x203a;" horiz-adv-x="169" 
d="M33 407l103 -85v-144l-103 -85v120l38 37l-38 37v120z" />
    <glyph glyph-name="fi" unicode="&#xfb01;" horiz-adv-x="415" 
d="M73 0v414h-67v83h67v47c0 60 7 85 31 105c21 18 47 25 91 25c28 0 53 -2 103 -7v-87c-37 6 -65 9 -84 9c-37 0 -48 -14 -48 -65v-27h205v-497h-93v414h-112v-414h-93z" />
    <glyph glyph-name="fl" unicode="&#xfb02;" horiz-adv-x="415" 
d="M237 497v-83h-71v-414h-93v414h-67v83h67v47c0 60 8 86 31 105c20 16 48 25 80 25c16 0 38 -2 60 -4c15 -2 27 -3 34 -3h93v-667h-93v581c-26 5 -50 8 -68 8c-33 0 -44 -16 -44 -65v-27h71z" />
    <glyph glyph-name="endash" unicode="&#x2013;" 
d="M373 295v-83h-335v83h335z" />
    <glyph glyph-name="dagger" unicode="&#x2020;" 
d="M252 667v-165h126v-83h-126v-419h-93v419h-126v83h126v165h93z" />
    <glyph glyph-name="daggerdbl" unicode="&#x2021;" 
d="M252 667v-165h126v-83h-126v-171h126v-83h-126v-165h-93v165h-126v83h126v171h-126v83h126v165h93z" />
    <glyph glyph-name="periodcentered" unicode="&#xb7;" horiz-adv-x="173" 
d="M135 307v-107h-97v107h97z" />
    <glyph glyph-name="paragraph" unicode="&#xb6;" horiz-adv-x="418" 
d="M189 -100v420c-84 3 -149 78 -149 172c0 102 70 175 169 175h172v-30h-40v-737h-48v737h-55v-737h-49z" />
    <glyph glyph-name="bullet" unicode="&#x2022;" horiz-adv-x="667" 
d="M337 478c74 0 136 -63 136 -138c0 -77 -62 -139 -138 -139s-139 62 -139 138c0 78 62 139 141 139z" />
    <glyph glyph-name="quotesinglbase" unicode="&#x201a;" horiz-adv-x="177" 
d="M137 107v-107l-59 -138h-38l44 138h-44v107h97z" />
    <glyph glyph-name="quotedblbase" unicode="&#x201e;" horiz-adv-x="323" 
d="M137 107v-107l-59 -138h-38l44 138h-44v107h97zM283 107v-107l-59 -138h-38l44 138h-44v107h97z" />
    <glyph glyph-name="quotedblright" unicode="&#x201d;" horiz-adv-x="323" 
d="M137 667v-107l-59 -138h-38l44 138h-44v107h97zM283 667v-107l-59 -138h-38l44 138h-44v107h97z" />
    <glyph glyph-name="guillemotright" unicode="&#xbb;" horiz-adv-x="309" 
d="M33 407l103 -85v-144l-103 -85v120l38 37l-38 37v120zM173 407l103 -85v-144l-103 -85v120l38 37l-38 37v120z" />
    <glyph glyph-name="ellipsis" unicode="&#x2026;" horiz-adv-x="520" 
d="M135 107v-107h-97v107h97zM308 107v-107h-97v107h97zM481 107v-107h-97v107h97z" />
    <glyph glyph-name="perthousand" unicode="&#x2030;" horiz-adv-x="770" 
d="M215 557v-124c0 -78 -30 -116 -92 -116s-93 38 -93 116v124c0 79 30 117 93 117c62 0 92 -38 92 -117zM90 568v-145c0 -40 8 -53 33 -53c24 0 32 13 32 53v145c0 40 -8 53 -32 53c-25 0 -33 -13 -33 -53zM379 667h55l-276 -667h-55zM507 234v-124
c0 -78 -30 -117 -92 -117s-92 39 -92 117v124c0 77 30 116 92 116s92 -38 92 -116zM383 244v-145c0 -40 8 -53 32 -53s32 13 32 53v145c0 40 -8 53 -32 53s-32 -13 -32 -53zM740 234v-124c0 -78 -30 -117 -92 -117s-92 39 -92 117v124c0 77 30 116 92 116s92 -38 92 -116z
M616 244v-145c0 -40 8 -53 32 -53s32 13 32 53v145c0 40 -8 53 -32 53s-32 -13 -32 -53z" />
    <glyph glyph-name="questiondown" unicode="&#xbf;" horiz-adv-x="355" 
d="M139 294h85v-31c0 -95 -12 -138 -68 -237c-21 -39 -27 -54 -27 -75c0 -26 17 -43 43 -43c31 0 51 23 70 80l93 -27c-29 -96 -80 -138 -167 -138c-84 0 -141 52 -141 130c0 38 11 65 50 122c58 88 63 105 62 219zM131 390v107h97v-107h-97z" />
    <glyph glyph-name="grave" unicode="`" horiz-adv-x="500" 
d="M291 578h-70l-72 89h97z" />
    <glyph glyph-name="acute" unicode="&#xb4;" horiz-adv-x="500" 
d="M202 578l46 89h96l-72 -89h-70z" />
    <glyph glyph-name="circumflex" unicode="&#x2c6;" horiz-adv-x="500" 
d="M198 667h104l63 -89h-84l-31 34l-31 -34h-84z" />
    <glyph glyph-name="tilde" unicode="&#x2dc;" horiz-adv-x="500" 
d="M150 583v69c20 11 35 15 58 15c15 0 26 -2 44 -8c29 -10 35 -11 50 -11s23 3 48 17v-69c-24 -14 -33 -17 -48 -17c-16 0 -21 1 -50 11c-18 6 -29 8 -44 8c-23 0 -38 -4 -58 -15z" />
    <glyph glyph-name="macron" unicode="&#xaf;" horiz-adv-x="500" 
d="M148 589v67h205v-67h-205z" />
    <glyph glyph-name="breve" unicode="&#x2d8;" horiz-adv-x="500" 
d="M304 665l60 -34c-24 -32 -65 -50 -114 -50c-50 0 -91 18 -115 50l60 34c21 -13 35 -18 55 -18c19 0 34 5 54 18z" />
    <glyph glyph-name="dotaccent" unicode="&#x2d9;" horiz-adv-x="500" 
d="M294 667v-89h-87v89h87z" />
    <glyph glyph-name="dieresis" unicode="&#xa8;" horiz-adv-x="500" 
d="M217 667v-89h-87v89h87zM370 667v-89h-87v89h87z" />
    <glyph glyph-name="ring" unicode="&#x2da;" horiz-adv-x="500" 
d="M251 692c40 0 73 -32 73 -69c0 -40 -33 -71 -73 -71c-41 0 -74 32 -74 70c0 39 33 70 74 70zM250 657c-20 0 -36 -16 -36 -35s16 -35 37 -35c20 0 36 16 36 35c0 20 -16 35 -37 35z" />
    <glyph glyph-name="cedilla" unicode="&#xb8;" horiz-adv-x="500" 
d="M290 -46v-68l-22 -56h-47l17 56h-28v68h80z" />
    <glyph glyph-name="hungarumlaut" unicode="&#x2dd;" horiz-adv-x="500" 
d="M139 578l46 89h96l-72 -89h-70zM279 578l46 89h96l-72 -89h-70z" />
    <glyph glyph-name="ogonek" unicode="&#x2db;" horiz-adv-x="500" 
d="M258 0h52c-34 -28 -49 -52 -49 -76s17 -37 48 -37c11 0 18 1 30 6l-8 -57c-15 -5 -23 -7 -39 -7c-55 0 -91 29 -91 73c0 34 17 63 57 98z" />
    <glyph glyph-name="caron" unicode="&#x2c7;" horiz-adv-x="500" 
d="M302 578h-104l-63 89h84l31 -34l31 34h84z" />
    <glyph glyph-name="emdash" unicode="&#x2014;" horiz-adv-x="503" 
d="M503 295v-83h-503v83h503z" />
    <glyph glyph-name="AE" unicode="&#xc6;" horiz-adv-x="635" 
d="M313 145h-143l-55 -145h-111l254 667h357v-95h-199v-176h146v-95h-146v-206h199v-95h-302v145zM313 240v299l-108 -299h108z" />
    <glyph glyph-name="ordfeminine" unicode="&#xaa;" horiz-adv-x="263" 
d="M233 267h-68c-4 10 -4 13 -6 29c-24 -25 -42 -33 -66 -33c-41 0 -66 31 -66 81c0 39 16 63 55 86c14 8 32 16 77 34v13c0 29 -7 39 -26 39c-20 0 -29 -11 -31 -42h-69c5 64 42 97 108 97c29 0 51 -8 66 -23c14 -16 18 -30 18 -68v-130c0 -46 1 -59 8 -83zM159 342v73
c-45 -23 -63 -43 -63 -68c0 -17 10 -29 25 -29c14 0 28 9 38 24z" />
    <glyph glyph-name="Lslash" unicode="&#x141;" horiz-adv-x="352" 
d="M133 446l73 57v-101l-73 -57v-250h205v-95h-308v279l-27 -20v101l27 20v287h103v-221z" />
    <glyph glyph-name="Oslash" unicode="&#xd8;" horiz-adv-x="452" 
d="M324 688h53l-20 -59c37 -40 51 -88 51 -174v-243c0 -75 -11 -120 -38 -158c-30 -41 -81 -64 -143 -64c-34 0 -59 5 -89 18l-10 -30h-53l21 60c-39 42 -52 88 -52 174v243c0 75 11 120 38 158c30 42 80 64 144 64c34 0 60 -5 88 -18zM147 185l132 376
c-14 13 -31 20 -54 20c-28 0 -53 -14 -65 -37c-10 -20 -13 -37 -13 -91v-268zM305 481l-132 -374c15 -14 32 -20 53 -20c29 0 54 14 66 36c11 21 13 37 13 91v267z" />
    <glyph glyph-name="OE" unicode="&#x152;" horiz-adv-x="619" 
d="M599 667v-95h-200v-176h147v-95h-147v-206h200v-95h-362c-131 0 -193 67 -193 208v250c0 142 62 209 193 209h362zM296 572h-50c-73 0 -99 -38 -99 -142v-193c0 -104 26 -142 99 -142h50v477z" />
    <glyph glyph-name="ordmasculine" unicode="&#xba;" horiz-adv-x="256" 
d="M226 462v-91c0 -47 -6 -67 -26 -86c-17 -16 -42 -24 -72 -24c-31 0 -56 8 -73 25c-20 18 -26 39 -26 85v91c0 47 6 68 26 86c17 17 42 25 73 25c30 0 55 -8 72 -25c20 -18 26 -38 26 -86zM95 465v-97c0 -35 10 -50 33 -50c22 0 32 15 32 50v97c0 36 -10 51 -32 51
c-23 0 -33 -15 -33 -51z" />
    <glyph glyph-name="ae" unicode="&#xe6;" horiz-adv-x="599" 
d="M558 233h-215v-44c0 -87 15 -114 63 -114c29 0 49 15 56 44c3 10 4 19 4 53h93c-1 -70 -4 -91 -21 -118c-25 -40 -71 -61 -132 -61c-62 0 -104 19 -130 57c-48 -42 -82 -57 -127 -57c-71 0 -112 49 -112 133c0 63 24 102 86 139c23 14 51 28 127 60v26
c0 51 -14 71 -49 71s-51 -21 -55 -71h-98c8 99 66 153 165 153c39 0 69 -8 91 -26c27 18 59 26 99 26c51 0 91 -15 117 -45c28 -32 38 -68 38 -144v-82zM250 120v136c-83 -44 -115 -79 -115 -125c0 -33 20 -56 47 -56c26 0 50 16 68 45zM465 315v27c0 59 -18 84 -61 84
s-61 -25 -61 -84v-27h122z" />
    <glyph glyph-name="dotlessi" unicode="&#x131;" horiz-adv-x="180" 
d="M136 497v-497h-93v497h93z" />
    <glyph glyph-name="lslash" unicode="&#x142;" horiz-adv-x="218" 
d="M158 449l45 35v-95l-45 -34v-355h-93v293l-45 -34v94l45 35v279h93v-218z" />
    <glyph glyph-name="oslash" unicode="&#xf8;" horiz-adv-x="385" 
d="M265 537h46l-19 -58c42 -34 53 -66 53 -154v-153c0 -78 -9 -112 -39 -142c-27 -26 -66 -40 -113 -40c-24 0 -41 3 -62 9l-13 -39h-47l20 60c-40 33 -51 66 -51 152v153c0 78 9 111 39 142c27 26 66 40 115 40c23 0 40 -2 58 -9zM133 146l90 268c-11 6 -18 8 -30 8
c-42 0 -60 -27 -60 -91v-185zM252 359l-92 -274c11 -8 19 -10 33 -10c41 0 59 28 59 91v193z" />
    <glyph glyph-name="oe" unicode="&#x153;" horiz-adv-x="601" 
d="M560 233h-215v-34c0 -48 2 -70 7 -86c9 -25 27 -38 56 -38s48 15 55 44c3 10 4 20 4 53h94c-1 -71 -4 -93 -21 -119c-25 -41 -72 -63 -132 -63c-46 0 -81 11 -109 34c-29 -23 -62 -34 -106 -34c-48 0 -87 14 -114 40c-29 30 -39 64 -39 142v153c0 78 10 112 39 142
c27 26 66 40 113 40c45 0 80 -11 107 -34c28 23 62 34 106 34c49 0 90 -16 117 -46c28 -31 38 -68 38 -146v-82zM133 331v-165c0 -63 18 -91 59 -91c42 0 60 28 60 91v165c0 64 -18 91 -60 91c-41 0 -59 -28 -59 -91zM466 315v27c0 59 -18 83 -60 83c-43 0 -61 -24 -61 -83
v-27h121z" />
    <glyph glyph-name="germandbls" unicode="&#xdf;" horiz-adv-x="386" 
d="M136 0h-93v491c0 70 9 105 34 136s61 47 105 47c78 0 131 -53 131 -130c0 -40 -14 -67 -48 -90c64 -23 80 -64 80 -204c0 -113 -9 -170 -34 -206c-23 -33 -50 -46 -97 -46c-10 0 -17 0 -29 2v91c5 -1 9 -1 12 -1c40 0 50 31 50 155c0 135 -13 160 -82 162v90
c38 0 55 15 55 48c0 26 -16 44 -40 44c-30 0 -44 -24 -44 -76v-513z" />
    <glyph glyph-name="Adieresis" unicode="&#xc4;" horiz-adv-x="451" 
d="M297 145h-142l-27 -145h-101l128 667h141l135 -667h-106zM280 240l-55 299l-54 -299h109zM196 809v-89h-87v89h87zM349 809v-89h-87v89h87z" />
    <glyph glyph-name="Aacute" unicode="&#xc1;" horiz-adv-x="451" 
d="M297 145h-142l-27 -145h-101l128 667h141l135 -667h-106zM280 240l-55 299l-54 -299h109zM178 720l46 89h96l-72 -89h-70z" />
    <glyph glyph-name="Agrave" unicode="&#xc0;" horiz-adv-x="451" 
d="M297 145h-142l-27 -145h-101l128 667h141l135 -667h-106zM280 240l-55 299l-54 -299h109zM267 720h-70l-72 89h97z" />
    <glyph glyph-name="Acircumflex" unicode="&#xc2;" horiz-adv-x="451" 
d="M297 145h-142l-27 -145h-101l128 667h141l135 -667h-106zM280 240l-55 299l-54 -299h109zM174 809h104l63 -89h-84l-31 34l-31 -34h-84z" />
    <glyph glyph-name="Atilde" unicode="&#xc3;" horiz-adv-x="451" 
d="M297 145h-142l-27 -145h-101l128 667h141l135 -667h-106zM280 240l-55 299l-54 -299h109zM126 725v69c20 11 35 15 57 15c16 0 27 -2 45 -8c29 -11 35 -12 50 -12s23 3 48 18v-70c-25 -14 -33 -17 -48 -17s-21 1 -50 12c-18 6 -29 8 -45 8c-22 0 -37 -4 -57 -15z" />
    <glyph glyph-name="Aring" unicode="&#xc5;" horiz-adv-x="451" 
d="M297 145h-142l-27 -145h-101l128 667h141l135 -667h-106zM280 240l-55 299l-54 -299h109zM228 846c40 0 73 -31 73 -69c0 -39 -33 -70 -73 -70c-41 0 -74 31 -74 70c0 38 33 69 74 69zM227 811c-19 0 -36 -16 -36 -34c0 -19 16 -35 37 -35c20 0 36 16 36 35
s-16 34 -37 34z" />
    <glyph glyph-name="Edieresis" unicode="&#xcb;" horiz-adv-x="373" 
d="M353 667v-95h-199v-176h147v-95h-147v-206h199v-95h-302v667h302zM154 809v-89h-87v89h87zM307 809v-89h-87v89h87z" />
    <glyph glyph-name="Eacute" unicode="&#xc9;" horiz-adv-x="373" 
d="M353 667v-95h-199v-176h147v-95h-147v-206h199v-95h-302v667h302zM139 720l46 89h96l-72 -89h-70z" />
    <glyph glyph-name="Egrave" unicode="&#xc8;" horiz-adv-x="373" 
d="M353 667v-95h-199v-176h147v-95h-147v-206h199v-95h-302v667h302zM228 720h-70l-72 89h97z" />
    <glyph glyph-name="Ecircumflex" unicode="&#xca;" horiz-adv-x="373" 
d="M353 667v-95h-199v-176h147v-95h-147v-206h199v-95h-302v667h302zM135 809h104l63 -89h-84l-31 34l-31 -34h-84z" />
    <glyph glyph-name="Idieresis" unicode="&#xcf;" horiz-adv-x="205" 
d="M154 667v-667h-103v667h103zM76 809v-89h-87v89h87zM216 809v-89h-87v89h87z" />
    <glyph glyph-name="Iacute" unicode="&#xcd;" horiz-adv-x="205" 
d="M154 667v-667h-103v667h103zM55 720l46 89h96l-72 -89h-70z" />
    <glyph glyph-name="Igrave" unicode="&#xcc;" horiz-adv-x="205" 
d="M154 667v-667h-103v667h103zM143 720h-70l-72 89h97z" />
    <glyph glyph-name="Icircumflex" unicode="&#xce;" horiz-adv-x="205" 
d="M153 667v-667h-103v667h103zM50 809h104l63 -89h-84l-31 34l-31 -34h-84z" />
    <glyph glyph-name="Ntilde" unicode="&#xd1;" horiz-adv-x="471" 
d="M421 667v-667h-92l-180 444v-444h-98v667h104l168 -415v415h98zM136 725v69c20 11 35 15 57 15c16 0 27 -2 45 -8c29 -11 35 -12 50 -12s23 3 48 18v-70c-25 -14 -33 -17 -48 -17s-21 1 -50 12c-18 6 -29 8 -45 8c-22 0 -37 -4 -57 -15z" />
    <glyph glyph-name="Odieresis" unicode="&#xd6;" horiz-adv-x="452" 
d="M408 455v-243c0 -75 -11 -120 -38 -158c-30 -42 -80 -64 -144 -64s-114 22 -144 64c-27 38 -38 83 -38 158v243c0 75 11 120 38 158c30 42 80 64 144 64s114 -22 144 -64c27 -38 38 -83 38 -158zM147 453v-239c0 -53 3 -70 13 -91c12 -22 37 -36 66 -36s54 14 66 36
c11 21 13 37 13 91v239c0 54 -2 70 -13 91c-12 22 -37 36 -66 36s-54 -14 -66 -36c-10 -20 -13 -38 -13 -91zM193 809v-89h-87v89h87zM346 809v-89h-87v89h87z" />
    <glyph glyph-name="Oacute" unicode="&#xd3;" horiz-adv-x="452" 
d="M408 455v-243c0 -75 -11 -120 -38 -158c-30 -42 -80 -64 -144 -64s-114 22 -144 64c-27 38 -38 83 -38 158v243c0 75 11 120 38 158c30 42 80 64 144 64s114 -22 144 -64c27 -38 38 -83 38 -158zM147 453v-239c0 -53 3 -70 13 -91c12 -22 37 -36 66 -36s54 14 66 36
c11 21 13 37 13 91v239c0 54 -2 70 -13 91c-12 22 -37 36 -66 36s-54 -14 -66 -36c-10 -20 -13 -38 -13 -91zM178 720l46 89h96l-72 -89h-70z" />
    <glyph glyph-name="Ograve" unicode="&#xd2;" horiz-adv-x="452" 
d="M408 455v-243c0 -75 -11 -120 -38 -158c-30 -42 -80 -64 -144 -64s-114 22 -144 64c-27 38 -38 83 -38 158v243c0 75 11 120 38 158c30 42 80 64 144 64s114 -22 144 -64c27 -38 38 -83 38 -158zM147 453v-239c0 -53 3 -70 13 -91c12 -22 37 -36 66 -36s54 14 66 36
c11 21 13 37 13 91v239c0 54 -2 70 -13 91c-12 22 -37 36 -66 36s-54 -14 -66 -36c-10 -20 -13 -38 -13 -91zM267 720h-70l-72 89h97z" />
    <glyph glyph-name="Ocircumflex" unicode="&#xd4;" horiz-adv-x="452" 
d="M408 455v-243c0 -75 -11 -120 -38 -158c-30 -42 -80 -64 -144 -64s-114 22 -144 64c-27 38 -38 83 -38 158v243c0 75 11 120 38 158c30 42 80 64 144 64s114 -22 144 -64c27 -38 38 -83 38 -158zM147 453v-239c0 -53 3 -70 13 -91c12 -22 37 -36 66 -36s54 14 66 36
c11 21 13 37 13 91v239c0 54 -2 70 -13 91c-12 22 -37 36 -66 36s-54 -14 -66 -36c-10 -20 -13 -38 -13 -91zM174 809h104l63 -89h-84l-31 34l-31 -34h-84z" />
    <glyph glyph-name="Otilde" unicode="&#xd5;" horiz-adv-x="452" 
d="M408 455v-243c0 -75 -11 -120 -38 -158c-30 -42 -80 -64 -144 -64s-114 22 -144 64c-27 38 -38 83 -38 158v243c0 75 11 120 38 158c30 42 80 64 144 64s114 -22 144 -64c27 -38 38 -83 38 -158zM147 453v-239c0 -53 3 -70 13 -91c12 -22 37 -36 66 -36s54 14 66 36
c11 21 13 37 13 91v239c0 54 -2 70 -13 91c-12 22 -37 36 -66 36s-54 -14 -66 -36c-10 -20 -13 -38 -13 -91zM126 725v69c20 11 35 15 57 15c16 0 27 -2 45 -8c29 -11 35 -12 50 -12s23 3 48 18v-70c-25 -14 -33 -17 -48 -17s-21 1 -50 12c-18 6 -29 8 -45 8
c-22 0 -37 -4 -57 -15z" />
    <glyph glyph-name="Scaron" unicode="&#x160;" horiz-adv-x="426" 
d="M401 510l-99 -29c-16 66 -46 99 -88 99c-38 0 -67 -29 -67 -68c0 -23 10 -48 28 -67c17 -19 17 -19 88 -73c56 -44 77 -63 99 -90c27 -33 43 -77 43 -122c0 -101 -74 -170 -183 -170c-114 0 -181 61 -202 188l99 29c13 -80 48 -120 103 -120c45 0 76 31 76 76
c0 42 -21 69 -99 130c-93 73 -97 77 -122 109c-24 31 -37 70 -37 111c0 96 72 164 174 164c95 0 159 -57 187 -167zM265 720h-104l-63 89h84l31 -34l31 34h84z" />
    <glyph glyph-name="Udieresis" unicode="&#xdc;" horiz-adv-x="454" 
d="M301 667h103v-452c0 -84 -10 -127 -38 -165c-29 -39 -78 -60 -138 -60c-61 0 -110 21 -139 60c-28 38 -38 81 -38 165v452h103v-469c0 -79 21 -111 73 -111c53 0 74 32 74 111v469zM194 809v-89h-87v89h87zM347 809v-89h-87v89h87z" />
    <glyph glyph-name="Uacute" unicode="&#xda;" horiz-adv-x="454" 
d="M301 667h103v-452c0 -84 -10 -127 -38 -165c-29 -39 -78 -60 -138 -60c-61 0 -110 21 -139 60c-28 38 -38 81 -38 165v452h103v-469c0 -79 21 -111 73 -111c53 0 74 32 74 111v469zM179 720l46 89h96l-72 -89h-70z" />
    <glyph glyph-name="Ugrave" unicode="&#xd9;" horiz-adv-x="454" 
d="M301 667h103v-452c0 -84 -10 -127 -38 -165c-29 -39 -78 -60 -138 -60c-61 0 -110 21 -139 60c-28 38 -38 81 -38 165v452h103v-469c0 -79 21 -111 73 -111c53 0 74 32 74 111v469zM268 720h-70l-72 89h97z" />
    <glyph glyph-name="Ucircumflex" unicode="&#xdb;" horiz-adv-x="454" 
d="M301 667h103v-452c0 -84 -10 -127 -38 -165c-29 -39 -78 -60 -138 -60c-61 0 -110 21 -139 60c-28 38 -38 81 -38 165v452h103v-469c0 -79 21 -111 73 -111c53 0 74 32 74 111v469zM175 809h104l63 -89h-84l-31 34l-31 -34h-84z" />
    <glyph glyph-name="Yacute" unicode="&#xdd;" horiz-adv-x="440" 
d="M270 260v-260h-103v260l-150 407h114l89 -282l92 282h112zM173 720l46 89h96l-72 -89h-70z" />
    <glyph glyph-name="Zcaron" unicode="&#x17d;" horiz-adv-x="389" 
d="M369 95v-95h-349v97l233 475h-211v95h324v-95l-232 -477h235zM246 720h-104l-63 89h84l31 -34l31 34h84z" />
    <glyph glyph-name="Ydieresis" unicode="&#x178;" horiz-adv-x="440" 
d="M270 260v-260h-103v260l-150 407h114l89 -282l92 282h112zM187 809v-89h-87v89h87zM340 809v-89h-87v89h87z" />
    <glyph glyph-name="adieresis" unicode="&#xe4;" horiz-adv-x="396" 
d="M354 0h-96c-5 14 -8 34 -8 58c-45 -49 -72 -65 -112 -65c-63 0 -101 50 -101 132c0 64 24 103 86 140c22 14 48 26 127 60v26c0 51 -14 71 -49 71s-51 -21 -55 -71h-98c8 100 66 153 166 153c46 0 79 -12 102 -38c21 -26 27 -49 27 -110v-221c0 -75 2 -98 11 -135z
M250 120v136c-82 -44 -115 -79 -115 -125c0 -33 20 -56 47 -56c26 0 50 15 68 45zM169 667v-89h-87v89h87zM322 667v-89h-87v89h87z" />
    <glyph glyph-name="aacute" unicode="&#xe1;" horiz-adv-x="396" 
d="M354 0h-96c-5 14 -8 34 -8 58c-45 -49 -72 -65 -112 -65c-63 0 -101 50 -101 132c0 64 24 103 86 140c22 14 48 26 127 60v26c0 51 -14 71 -49 71s-51 -21 -55 -71h-98c8 100 66 153 166 153c46 0 79 -12 102 -38c21 -26 27 -49 27 -110v-221c0 -75 2 -98 11 -135z
M250 120v136c-82 -44 -115 -79 -115 -125c0 -33 20 -56 47 -56c26 0 50 15 68 45zM150 578l46 89h96l-72 -89h-70z" />
    <glyph glyph-name="agrave" unicode="&#xe0;" horiz-adv-x="396" 
d="M354 0h-96c-5 14 -8 34 -8 58c-45 -49 -72 -65 -112 -65c-63 0 -101 50 -101 132c0 64 24 103 86 140c22 14 48 26 127 60v26c0 51 -14 71 -49 71s-51 -21 -55 -71h-98c8 100 66 153 166 153c46 0 79 -12 102 -38c21 -26 27 -49 27 -110v-221c0 -75 2 -98 11 -135z
M250 120v136c-82 -44 -115 -79 -115 -125c0 -33 20 -56 47 -56c26 0 50 15 68 45zM239 578h-70l-72 89h97z" />
    <glyph glyph-name="acircumflex" unicode="&#xe2;" horiz-adv-x="396" 
d="M354 0h-96c-5 14 -8 34 -8 58c-45 -49 -72 -65 -112 -65c-63 0 -101 50 -101 132c0 64 24 103 86 140c22 14 48 26 127 60v26c0 51 -14 71 -49 71s-51 -21 -55 -71h-98c8 100 66 153 166 153c46 0 79 -12 102 -38c21 -26 27 -49 27 -110v-221c0 -75 2 -98 11 -135z
M250 120v136c-82 -44 -115 -79 -115 -125c0 -33 20 -56 47 -56c26 0 50 15 68 45zM146 667h104l63 -89h-84l-31 34l-31 -34h-84z" />
    <glyph glyph-name="atilde" unicode="&#xe3;" horiz-adv-x="396" 
d="M354 0h-96c-5 14 -8 34 -8 58c-45 -49 -72 -65 -112 -65c-63 0 -101 50 -101 132c0 64 24 103 86 140c22 14 48 26 127 60v26c0 51 -14 71 -49 71s-51 -21 -55 -71h-98c8 100 66 153 166 153c46 0 79 -12 102 -38c21 -26 27 -49 27 -110v-221c0 -75 2 -98 11 -135z
M250 120v136c-82 -44 -115 -79 -115 -125c0 -33 20 -56 47 -56c26 0 50 15 68 45zM98 583v69c20 11 35 15 58 15c15 0 26 -2 44 -8c29 -10 35 -11 50 -11s23 3 48 17v-69c-24 -14 -33 -17 -48 -17c-16 0 -21 1 -50 11c-18 6 -29 8 -44 8c-23 0 -38 -4 -58 -15z" />
    <glyph glyph-name="aring" unicode="&#xe5;" horiz-adv-x="396" 
d="M354 0h-96c-5 14 -8 34 -8 58c-45 -49 -72 -65 -112 -65c-63 0 -101 50 -101 132c0 64 24 103 86 140c22 14 48 26 127 60v26c0 51 -14 71 -49 71s-51 -21 -55 -71h-98c8 100 66 153 166 153c46 0 79 -12 102 -38c21 -26 27 -49 27 -110v-221c0 -75 2 -98 11 -135z
M250 120v136c-82 -44 -115 -79 -115 -125c0 -33 20 -56 47 -56c26 0 50 15 68 45zM203 692c40 0 73 -32 73 -69c0 -40 -33 -71 -73 -71c-41 0 -74 32 -74 70c0 39 33 70 74 70zM202 657c-20 0 -36 -16 -36 -35s16 -35 37 -35c20 0 36 16 36 35c0 20 -16 35 -37 35z" />
    <glyph glyph-name="edieresis" unicode="&#xeb;" horiz-adv-x="389" 
d="M348 233h-215v-44c0 -87 15 -114 63 -114c29 0 49 15 56 44c3 10 4 19 4 53h93c-1 -71 -4 -93 -21 -119c-25 -41 -71 -63 -132 -63c-57 0 -100 18 -125 52c-22 31 -31 68 -31 135v148c0 79 9 112 40 142c27 26 66 40 113 40c51 0 91 -16 117 -46c29 -32 38 -68 38 -146
v-82zM255 315v27c0 59 -18 83 -61 83s-61 -24 -61 -83v-27h122zM162 667v-89h-87v89h87zM315 667v-89h-87v89h87z" />
    <glyph glyph-name="eacute" unicode="&#xe9;" horiz-adv-x="389" 
d="M348 233h-215v-44c0 -87 15 -114 63 -114c29 0 49 15 56 44c3 10 4 19 4 53h93c-1 -71 -4 -93 -21 -119c-25 -41 -71 -63 -132 -63c-57 0 -100 18 -125 52c-22 31 -31 68 -31 135v148c0 79 9 112 40 142c27 26 66 40 113 40c51 0 91 -16 117 -46c29 -32 38 -68 38 -146
v-82zM255 315v27c0 59 -18 83 -61 83s-61 -24 -61 -83v-27h122zM147 578l46 89h96l-72 -89h-70z" />
    <glyph glyph-name="egrave" unicode="&#xe8;" horiz-adv-x="389" 
d="M348 233h-215v-44c0 -87 15 -114 63 -114c29 0 49 15 56 44c3 10 4 19 4 53h93c-1 -71 -4 -93 -21 -119c-25 -41 -71 -63 -132 -63c-57 0 -100 18 -125 52c-22 31 -31 68 -31 135v148c0 79 9 112 40 142c27 26 66 40 113 40c51 0 91 -16 117 -46c29 -32 38 -68 38 -146
v-82zM255 315v27c0 59 -18 83 -61 83s-61 -24 -61 -83v-27h122zM236 578h-70l-72 89h97z" />
    <glyph glyph-name="ecircumflex" unicode="&#xea;" horiz-adv-x="389" 
d="M348 233h-215v-44c0 -87 15 -114 63 -114c29 0 49 15 56 44c3 10 4 19 4 53h93c-1 -71 -4 -93 -21 -119c-25 -41 -71 -63 -132 -63c-57 0 -100 18 -125 52c-22 31 -31 68 -31 135v148c0 79 9 112 40 142c27 26 66 40 113 40c51 0 91 -16 117 -46c29 -32 38 -68 38 -146
v-82zM255 315v27c0 59 -18 83 -61 83s-61 -24 -61 -83v-27h122zM143 667h104l63 -89h-84l-31 34l-31 -34h-84z" />
    <glyph glyph-name="idieresis" unicode="&#xef;" horiz-adv-x="180" 
d="M137 497v-497h-93v497h93zM64 667v-89h-87v89h87zM204 667v-89h-87v89h87z" />
    <glyph glyph-name="iacute" unicode="&#xed;" horiz-adv-x="180" 
d="M136 497v-497h-93v497h93zM42 578l46 89h96l-72 -89h-70z" />
    <glyph glyph-name="igrave" unicode="&#xec;" horiz-adv-x="180" 
d="M137 497v-497h-93v497h93zM131 578h-70l-72 89h97z" />
    <glyph glyph-name="icircumflex" unicode="&#xee;" horiz-adv-x="180" 
d="M136 497v-497h-93v497h93zM38 667h104l63 -89h-84l-31 34l-31 -34h-84z" />
    <glyph glyph-name="ntilde" unicode="&#xf1;" horiz-adv-x="385" 
d="M136 497v-64c43 50 80 71 124 71c55 0 81 -37 81 -116v-388h-93v364c0 43 -9 58 -35 58s-53 -18 -77 -50v-372h-93v497h93zM92 583v69c20 11 35 15 58 15c15 0 26 -2 44 -8c29 -10 35 -11 50 -11s23 3 48 17v-69c-24 -14 -33 -17 -48 -17c-16 0 -21 1 -50 11
c-18 6 -29 8 -44 8c-23 0 -38 -4 -58 -15z" />
    <glyph glyph-name="odieresis" unicode="&#xf6;" horiz-adv-x="385" 
d="M345 325v-153c0 -78 -9 -112 -39 -142c-27 -26 -66 -40 -113 -40c-48 0 -87 14 -114 40c-29 30 -39 64 -39 142v153c0 78 10 112 39 142c27 26 66 40 114 40c47 0 86 -14 113 -40c30 -30 39 -64 39 -142zM133 331v-165c0 -63 18 -91 59 -91c42 0 60 28 60 91v165
c0 64 -18 91 -60 91c-41 0 -59 -28 -59 -91zM159 667v-89h-87v89h87zM312 667v-89h-87v89h87z" />
    <glyph glyph-name="oacute" unicode="&#xf3;" horiz-adv-x="385" 
d="M345 325v-153c0 -78 -9 -112 -39 -142c-27 -26 -66 -40 -113 -40c-48 0 -87 14 -114 40c-29 30 -39 64 -39 142v153c0 78 10 112 39 142c27 26 66 40 114 40c47 0 86 -14 113 -40c30 -30 39 -64 39 -142zM133 331v-165c0 -63 18 -91 59 -91c42 0 60 28 60 91v165
c0 64 -18 91 -60 91c-41 0 -59 -28 -59 -91zM145 578l46 89h96l-72 -89h-70z" />
    <glyph glyph-name="ograve" unicode="&#xf2;" horiz-adv-x="385" 
d="M345 325v-153c0 -78 -9 -112 -39 -142c-27 -26 -66 -40 -113 -40c-48 0 -87 14 -114 40c-29 30 -39 64 -39 142v153c0 78 10 112 39 142c27 26 66 40 114 40c47 0 86 -14 113 -40c30 -30 39 -64 39 -142zM133 331v-165c0 -63 18 -91 59 -91c42 0 60 28 60 91v165
c0 64 -18 91 -60 91c-41 0 -59 -28 -59 -91zM233 578h-70l-72 89h97z" />
    <glyph glyph-name="ocircumflex" unicode="&#xf4;" horiz-adv-x="385" 
d="M345 325v-153c0 -78 -9 -112 -39 -142c-27 -26 -66 -40 -113 -40c-48 0 -87 14 -114 40c-29 30 -39 64 -39 142v153c0 78 10 112 39 142c27 26 66 40 114 40c47 0 86 -14 113 -40c30 -30 39 -64 39 -142zM133 331v-165c0 -63 18 -91 59 -91c42 0 60 28 60 91v165
c0 64 -18 91 -60 91c-41 0 -59 -28 -59 -91zM140 667h104l63 -89h-84l-31 34l-31 -34h-84z" />
    <glyph glyph-name="otilde" unicode="&#xf5;" horiz-adv-x="385" 
d="M345 325v-153c0 -78 -9 -112 -39 -142c-27 -26 -66 -40 -113 -40c-48 0 -87 14 -114 40c-29 30 -39 64 -39 142v153c0 78 10 112 39 142c27 26 66 40 114 40c47 0 86 -14 113 -40c30 -30 39 -64 39 -142zM133 331v-165c0 -63 18 -91 59 -91c42 0 60 28 60 91v165
c0 64 -18 91 -60 91c-41 0 -59 -28 -59 -91zM92 583v69c20 11 35 15 58 15c15 0 26 -2 44 -8c29 -10 35 -11 50 -11s23 3 48 17v-69c-24 -14 -33 -17 -48 -17c-16 0 -21 1 -50 11c-18 6 -29 8 -44 8c-23 0 -38 -4 -58 -15z" />
    <glyph glyph-name="scaron" unicode="&#x161;" horiz-adv-x="362" 
d="M334 387l-85 -37c-20 52 -41 72 -77 72c-29 0 -49 -18 -49 -44c0 -27 14 -41 84 -79c56 -31 81 -47 101 -68c22 -23 35 -57 35 -94c0 -88 -61 -147 -153 -147c-85 0 -138 44 -170 140l87 30c20 -61 44 -85 83 -85c31 0 53 21 53 50c0 28 -16 46 -70 75
c-68 38 -87 51 -109 74c-23 24 -36 58 -36 94c0 81 61 139 145 139c79 0 130 -38 161 -120zM233 578h-104l-63 89h84l31 -34l31 34h84z" />
    <glyph glyph-name="udieresis" unicode="&#xfc;" horiz-adv-x="385" 
d="M341 497v-497h-93v64c-43 -50 -80 -71 -124 -71c-55 0 -81 37 -81 116v388h93v-364c0 -43 9 -58 35 -58s53 18 77 50v372h93zM159 667v-89h-87v89h87zM312 667v-89h-87v89h87z" />
    <glyph glyph-name="uacute" unicode="&#xfa;" horiz-adv-x="385" 
d="M341 497v-497h-93v64c-43 -50 -80 -71 -124 -71c-55 0 -81 37 -81 116v388h93v-364c0 -43 9 -58 35 -58s53 18 77 50v372h93zM144 578l46 89h96l-72 -89h-70z" />
    <glyph glyph-name="ugrave" unicode="&#xf9;" horiz-adv-x="385" 
d="M341 497v-497h-93v64c-43 -50 -80 -71 -124 -71c-55 0 -81 37 -81 116v388h93v-364c0 -43 9 -58 35 -58s53 18 77 50v372h93zM233 578h-70l-72 89h97z" />
    <glyph glyph-name="ucircumflex" unicode="&#xfb;" horiz-adv-x="385" 
d="M341 497v-497h-93v64c-43 -50 -80 -71 -124 -71c-55 0 -81 37 -81 116v388h93v-364c0 -43 9 -58 35 -58s53 18 77 50v372h93zM140 667h104l63 -89h-84l-31 34l-31 -34h-84z" />
    <glyph glyph-name="yacute" unicode="&#xfd;" horiz-adv-x="354" 
d="M248 497h96l-108 -476c-34 -163 -71 -198 -211 -198v96c7 -1 14 -1 17 -1c50 0 84 33 84 82c0 11 -2 22 -7 43l-109 454h98l73 -339zM129 578l46 89h96l-72 -89h-70z" />
    <glyph glyph-name="zcaron" unicode="&#x17e;" horiz-adv-x="341" 
d="M318 90v-90h-295v93l188 314h-172v90h279v-93l-188 -314h188zM222 578h-104l-63 89h84l31 -34l31 34h84z" />
    <glyph glyph-name="ydieresis" unicode="&#xff;" horiz-adv-x="354" 
d="M248 497h96l-108 -476c-34 -163 -71 -198 -211 -198v96c7 -1 14 -1 17 -1c50 0 84 33 84 82c0 11 -2 22 -7 43l-109 454h98l73 -339zM144 667v-89h-87v89h87zM297 667v-89h-87v89h87z" />
    <glyph glyph-name="Ccedilla" unicode="&#xc7;" horiz-adv-x="444" 
d="M405 450h-103v17c0 73 -27 113 -78 113c-28 0 -50 -12 -61 -33c-13 -22 -16 -42 -16 -96v-222c0 -51 3 -77 11 -99c10 -27 36 -43 67 -43c38 0 63 23 73 69c4 16 5 32 6 78h104v-22c0 -146 -63 -222 -183 -222c-67 0 -120 26 -149 74c-25 41 -32 80 -32 179v187
c0 106 8 143 39 185c29 40 79 62 141 62c116 0 181 -76 181 -212v-15zM266 -46v-68l-22 -56h-47l17 56h-28v68h80z" />
    <glyph glyph-name="Eth" unicode="&#xd0;" horiz-adv-x="454" 
d="M54 0v301h-23v95h23v271h163c131 0 193 -67 193 -209v-250c0 -141 -62 -208 -193 -208h-163zM157 95h50c74 0 100 38 100 142v193c0 104 -26 142 -100 142h-50v-176h77v-95h-77v-206z" />
    <glyph glyph-name="Thorn" unicode="&#xde;" horiz-adv-x="435" 
d="M154 167v-167h-103v667h103v-104h68c67 0 109 -13 140 -43c36 -34 53 -84 53 -155s-17 -121 -53 -155c-31 -30 -73 -43 -140 -43h-68zM154 262h45c83 0 109 25 109 103s-26 103 -109 103h-45v-206z" />
    <glyph glyph-name="ccedilla" unicode="&#xe7;" horiz-adv-x="377" 
d="M349 325h-93v16c0 55 -20 81 -60 81c-48 0 -63 -27 -63 -114v-120c0 -47 3 -69 12 -86s28 -27 51 -27c41 0 60 27 60 85v16h93v-18c0 -60 -10 -94 -35 -122c-27 -30 -67 -46 -118 -46c-56 0 -100 18 -125 52c-23 31 -31 66 -31 134v144c0 68 8 104 31 135
c25 34 68 52 125 52c51 0 91 -15 118 -45c25 -27 35 -60 35 -120v-17zM235 -46v-68l-22 -56h-47l17 56h-28v68h80z" />
    <glyph glyph-name="eth" unicode="&#xf0;" horiz-adv-x="385" 
d="M233 653l53 48l29 -33l-51 -46c56 -64 81 -138 81 -237v-213c0 -78 -9 -112 -39 -142c-27 -26 -66 -40 -113 -40c-48 0 -87 14 -114 40c-29 30 -39 64 -39 142v136c0 74 6 109 23 142c16 32 47 50 87 50c34 0 66 -13 102 -41c-9 47 -20 72 -45 112l-48 -42l-29 32l49 43
c-14 15 -18 18 -29 29l46 48c20 -13 26 -18 37 -28zM133 331v-165c0 -63 18 -91 59 -91c42 0 60 28 60 91v165c0 64 -18 91 -60 91c-41 0 -59 -28 -59 -91z" />
    <glyph glyph-name="thorn" unicode="&#xfe;" horiz-adv-x="387" 
d="M43 667h93v-219c41 39 74 56 110 56s64 -18 80 -51c15 -34 20 -69 20 -145v-119c0 -77 -5 -111 -20 -145c-16 -33 -44 -51 -80 -51s-69 17 -110 56v-219h-93v837zM136 397v-297c25 -18 44 -25 65 -25c19 0 36 10 43 26c8 17 9 30 9 82v131c0 52 -1 65 -9 82
c-7 16 -24 26 -43 26c-21 0 -41 -8 -65 -25z" />
    <glyph glyph-name="onesuperior" unicode="&#xb9;" horiz-adv-x="277" 
d="M187 667v-400h-69v301h-62v42c37 14 74 38 89 57h42z" />
    <glyph glyph-name="twosuperior" unicode="&#xb2;" horiz-adv-x="277" 
d="M240 326v-60h-215v58c134 160 153 190 153 241c0 31 -13 47 -38 47c-27 0 -42 -19 -42 -53v-14h-69v19c0 68 42 109 113 109c67 0 107 -41 107 -108c0 -33 -9 -62 -28 -92c-20 -33 -20 -33 -96 -125c-6 -8 -12 -15 -18 -22h133z" />
    <glyph glyph-name="threesuperior" unicode="&#xb3;" horiz-adv-x="277" 
d="M117 446v62c46 1 58 11 58 51c0 36 -12 53 -38 53c-23 0 -38 -17 -38 -42c0 -2 0 -6 1 -10h-69v11c0 61 44 102 108 102c66 0 103 -41 103 -113c0 -44 -13 -68 -45 -82c36 -11 52 -39 52 -93c0 -80 -41 -125 -113 -125c-41 0 -76 18 -95 49c-11 18 -15 39 -15 76h70
l1 -11c2 -37 14 -53 40 -53c27 0 41 21 41 63c0 47 -14 61 -61 62z" />
    <glyph glyph-name="middot" unicode="&#xad;" horiz-adv-x="173" 
d="M135 307v-107h-97v107h97z" />
    <glyph glyph-name="sfthyphen" unicode="&#xb0;" horiz-adv-x="143" 
d="M143 295v-83h-143v83h143z" />
    <glyph glyph-name="degree" unicode="&#x2212;" horiz-adv-x="380" 
d="M193 674c77 0 141 -65 141 -144c0 -80 -64 -144 -143 -144c-80 0 -144 64 -144 143c0 81 64 145 146 145zM189 606c-40 0 -75 -36 -75 -76c0 -42 35 -77 76 -77c42 0 77 35 77 76c0 43 -35 77 -78 77z" />
    <glyph glyph-name="minus" unicode="&#xd7;" 
d="M373 381v-79h-335v79h335z" />
    <glyph glyph-name="multiply" unicode="&#xf7;" 
d="M295 488l56 -56l-90 -90l89 -88l-58 -58l-88 88l-90 -89l-56 56l90 90l-87 86l58 58l86 -87z" />
    <glyph glyph-name="divide" unicode="&#x2122;" 
d="M373 381v-79h-335v79h335zM247 248v-91h-83v91h83zM247 523v-91h-83v91h83z" />
    <glyph glyph-name="trademark" unicode="&#xb1;" horiz-adv-x="583" 
d="M162 607v-320h-67v320h-75v60h217v-60h-75zM543 667v-380h-64v253l-59 -253h-42l-59 253v-253h-64v380h94l50 -217l51 217h93z" />
    <glyph glyph-name="plusminus" unicode="&#xbd;" 
d="M373 127v-79h-335v79h335zM373 378v-79h-127v-126h-81v126h-127v79h127v122h81v-122h127z" />
    <glyph glyph-name="onehalf" unicode="&#xbc;" horiz-adv-x="673" 
d="M187 667v-400h-69v301h-62v42c37 14 74 38 89 57h42zM183 -33l250 733h57l-255 -733h-52zM636 60v-60h-215v58c134 159 153 190 153 241c0 30 -13 46 -38 46c-27 0 -42 -19 -42 -52v-14h-69v19c0 67 42 108 113 108c66 0 107 -41 107 -107c0 -33 -9 -62 -28 -92
c-20 -33 -20 -33 -96 -125l-18 -22h133z" />
    <glyph glyph-name="onequarter" unicode="&#xbe;" horiz-adv-x="673" 
d="M187 667v-400h-69v301h-62v42c37 14 74 38 89 57h42zM183 -33l250 733h57l-255 -733h-52zM541 100h-132v66l128 234h73v-240h48v-60h-48v-100h-69v100zM543 158v145l-72 -145h72z" />
    <glyph glyph-name="threequarters" unicode="&#xa9;" horiz-adv-x="673" 
d="M117 446v62c46 1 58 11 58 51c0 36 -12 53 -38 53c-23 0 -38 -17 -38 -42c0 -2 0 -6 1 -10h-69v11c0 61 44 102 108 102c66 0 103 -41 103 -113c0 -44 -13 -68 -45 -82c36 -11 52 -39 52 -93c0 -80 -41 -125 -113 -125c-41 0 -76 18 -95 49c-11 18 -15 39 -15 76h70
l1 -11c2 -37 14 -53 40 -53c27 0 41 21 41 63c0 47 -14 61 -61 62zM184 -33l250 733h56l-254 -733h-52zM541 100h-131v66l127 234h73v-240h49v-60h-49v-100h-69v100zM543 158v145l-71 -145h71z" />
    <glyph glyph-name="copyright" unicode="&#xae;" horiz-adv-x="778" 
d="M394 679c186 0 340 -157 340 -346c0 -190 -154 -345 -345 -345c-190 0 -345 155 -345 345c0 193 154 346 350 346zM386 623c-154 0 -282 -131 -282 -289c0 -160 128 -290 285 -290s285 130 285 289c0 162 -127 290 -288 290zM498 400h-67l-1 11c-2 48 -14 66 -43 66
c-30 0 -41 -19 -41 -73v-130c0 -61 11 -81 43 -81s42 21 43 87h68v-17c0 -87 -39 -134 -111 -134c-41 0 -74 16 -92 45c-15 25 -19 49 -19 108v110c0 63 5 86 24 111c18 24 49 38 86 38c75 0 110 -45 110 -141z" />
    <glyph glyph-name="registered" unicode="&#xa0;" horiz-adv-x="778" 
d="M394 679c186 0 340 -157 340 -346c0 -190 -154 -345 -345 -345c-190 0 -345 155 -345 345c0 194 154 346 350 346zM386 623c-154 0 -282 -131 -282 -289c0 -160 128 -290 285 -290s285 130 285 289c0 162 -127 290 -288 290zM356 293v-161h-68v400h99
c75 0 116 -41 116 -116c0 -50 -18 -85 -52 -104l59 -180h-71l-52 161h-31zM356 356h19c44 0 58 14 58 57c0 42 -14 56 -58 56h-19v-113z" />
    <glyph glyph-name="nbspace" unicode="&#xac;" horiz-adv-x="153" 
 />
    <glyph glyph-name="logicalnot" unicode="&#xa6;" horiz-adv-x="500" 
d="M367 0v193h-334v89h433v-282h-99z" />
    <glyph glyph-name="brokenbar" unicode="&#xb5;" horiz-adv-x="500" 
d="M199 667h102v-340h-102v340zM199 153h102v-320h-102v320z" />
    <glyph glyph-name="mu" horiz-adv-x="385" 
d="M248 497h93v-497h-93v57c-17 -44 -38 -64 -68 -64c-20 0 -32 8 -44 31v-194h-93v667h93v-353c0 -55 13 -76 46 -76c25 0 47 20 66 62v367z" />
    </font>
</defs>
</svg>
