<?xml version="1.0" standalone="no"?>
<!DOCTYPE svg PUBLIC "-//W3C//DTD SVG 1.1//EN" "http://www.w3.org/Graphics/SVG/1.1/DTD/svg11.dtd" >
<svg xmlns="http://www.w3.org/2000/svg" xmlns:xlink="http://www.w3.org/1999/xlink" version="1.1">
<metadata>
Created by FontForge 20200314 at Mon Feb 23 11:30:59 2004
 By Unknown
(c) 1998 Ray Larabie. This font is freeware. Read attached text file for details. Info &#38; updates visit www.larabiefonts.com. Donations gratefully accepted at www.larabiefonts.com/donation.html. Also visit my commercial type foundry at www.typodermic.com. This font was updated in 2004.
</metadata>
<defs>
<font id="BudmoJiggler" horiz-adv-x="351" >
  <font-face 
    font-family="Budmo Jiggler"
    font-weight="400"
    font-stretch="normal"
    units-per-em="1000"
    panose-1="0 0 4 0 0 0 0 0 0 0"
    ascent="800"
    descent="-200"
    x-height="789"
    cap-height="789"
    bbox="-71 -244 1567 951"
    underline-thickness="20"
    underline-position="-143"
    unicode-range="U+0020-2122"
  />
<missing-glyph horiz-adv-x="319" 
 />
    <glyph glyph-name=".notdef" horiz-adv-x="319" 
 />
    <glyph glyph-name="exclam" unicode="!" horiz-adv-x="337" 
d="M285 206h-234v583h234v-583zM223 720q0 21 -14.5 35.5t-35.5 14.5t-35.5 -14.5t-14.5 -35.5t14.5 -35.5t35.5 -14.5t35.5 14.5t14.5 35.5zM223 610q0 21 -14.5 35.5t-35.5 14.5t-35.5 -14.5t-14.5 -35.5t14.5 -35.5t35.5 -14.5t35.5 14.5t14.5 35.5zM223 500
q0 21 -14.5 35.5t-35.5 14.5t-35.5 -14.5t-14.5 -35.5t14.5 -35.5t35.5 -14.5t35.5 14.5t14.5 35.5zM223 390q0 21 -14.5 35.5t-35.5 14.5t-35.5 -14.5t-14.5 -35.5t14.5 -35.5t35.5 -14.5t35.5 14.5t14.5 35.5zM223 280q0 21 -14.5 35.5t-35.5 14.5t-35.5 -14.5
t-14.5 -35.5t14.5 -35.5t35.5 -14.5t35.5 14.5t14.5 35.5zM168 -70q-56 0 -91.5 35t-35.5 91t35.5 92.5t91.5 36.5q55 0 91 -37t36 -92q0 -56 -35.5 -91t-91.5 -35zM223 60q0 21 -14.5 35.5t-35.5 14.5t-35.5 -14.5t-14.5 -35.5t14.5 -35.5t35.5 -14.5t35.5 14.5t14.5 35.5z
" />
    <glyph glyph-name="quotedbl" unicode="&#x22;" horiz-adv-x="482" 
d="M433 433h-169v354h169v-354zM401 720q0 21 -14.5 35.5t-35.5 14.5t-35.5 -14.5t-14.5 -35.5t14.5 -35.5t35.5 -14.5t35.5 14.5t14.5 35.5zM401 610q0 21 -14.5 35.5t-35.5 14.5t-35.5 -14.5t-14.5 -35.5t14.5 -35.5t35.5 -14.5t35.5 14.5t14.5 35.5zM401 500
q0 21 -14.5 35.5t-35.5 14.5t-35.5 -14.5t-14.5 -35.5t14.5 -35.5t35.5 -14.5t35.5 14.5t14.5 35.5zM215 433h-167v354h167v-354zM181 720q0 21 -14.5 35.5t-35.5 14.5t-35.5 -14.5t-14.5 -35.5t14.5 -35.5t35.5 -14.5t35.5 14.5t14.5 35.5zM181 610q0 21 -14.5 35.5
t-35.5 14.5t-35.5 -14.5t-14.5 -35.5t14.5 -35.5t35.5 -14.5t35.5 14.5t14.5 35.5zM181 500q0 21 -14.5 35.5t-35.5 14.5t-35.5 -14.5t-14.5 -35.5t14.5 -35.5t35.5 -14.5t35.5 14.5t14.5 35.5z" />
    <glyph glyph-name="numbersign" unicode="#" horiz-adv-x="917" 
d="M875 552l-64 -172h-131l-18 -50h136l-63 -172h-134l-69 -189h-186l68 189h-51l-69 -189h-185l67 189h-134l64 172h132l18 50h-138l64 172h136l69 189h186l-68 -189h51l69 189h185l-67 -189h132zM742 666q0 20 -15 35t-35 15q-21 0 -35.5 -14.5t-14.5 -35.5t14.5 -35.5
t35.5 -14.5t35.5 14.5t14.5 35.5zM704 562q0 21 -14.5 35.5t-35.5 14.5t-35.5 -14.5t-14.5 -35.5t14.5 -35.5t35.5 -14.5t35.5 14.5t14.5 35.5zM786 459q0 21 -14.5 35.5t-35.5 14.5q-20 0 -35 -15t-15 -35q0 -21 14.5 -35.5t35.5 -14.5t35.5 14.5t14.5 35.5zM502 666
q0 20 -15 35t-35 15q-21 0 -35.5 -14.5t-14.5 -35.5t14.5 -35.5t35.5 -14.5t35.5 14.5t14.5 35.5zM666 459q0 21 -14.5 35.5t-35.5 14.5q-20 0 -35 -15t-15 -35q0 -21 14.5 -35.5t35.5 -14.5t35.5 14.5t14.5 35.5zM464 562q0 21 -14.5 35.5t-35.5 14.5t-35.5 -14.5
t-14.5 -35.5t14.5 -35.5t35.5 -14.5t35.5 14.5t14.5 35.5zM546 459q0 21 -14.5 35.5t-35.5 14.5q-20 0 -35 -15t-15 -35q0 -21 14.5 -35.5t35.5 -14.5t35.5 14.5t14.5 35.5zM629 355q0 21 -14.5 36t-35.5 15t-35.5 -14.5t-14.5 -35.5t14.5 -36t35.5 -15q20 0 35 15t15 35z
M711 252q0 21 -14.5 35.5t-35.5 14.5t-35.5 -14.5t-14.5 -35.5t14.5 -35.5t35.5 -14.5t35.5 14.5t14.5 35.5zM426 459q0 21 -14.5 35.5t-35.5 14.5q-20 0 -35 -15t-15 -35q0 -21 14.5 -35.5t35.5 -14.5t35.5 14.5t14.5 35.5zM496 380h-56l-18 -51h56zM591 252
q0 21 -14.5 35.5t-35.5 14.5t-35.5 -14.5t-14.5 -35.5t14.5 -35.5t35.5 -14.5t35.5 14.5t14.5 35.5zM306 459q0 21 -14.5 35.5t-35.5 14.5q-20 0 -35 -15t-15 -35q0 -21 14.5 -35.5t35.5 -14.5t35.5 14.5t14.5 35.5zM389 355q0 21 -14.5 36t-35.5 15t-35.5 -14.5
t-14.5 -35.5t14.5 -36t35.5 -15q20 0 35 15t15 35zM471 252q0 21 -14.5 35.5t-35.5 14.5t-35.5 -14.5t-14.5 -35.5t14.5 -35.5t35.5 -14.5t35.5 14.5t14.5 35.5zM553 149q0 21 -14.5 35.5t-35.5 14.5q-20 0 -35 -15t-15 -35q0 -21 14.5 -35.5t35.5 -14.5t35.5 14.5
t14.5 35.5zM351 252q0 21 -14.5 35.5t-35.5 14.5t-35.5 -14.5t-14.5 -35.5t14.5 -35.5t35.5 -14.5t35.5 14.5t14.5 35.5zM516 45q0 21 -14.5 35.5t-35.5 14.5t-35.5 -14.5t-14.5 -35.5t14.5 -35.5t35.5 -14.5q20 0 35 15t15 35zM231 252q0 21 -14.5 35.5t-35.5 14.5
t-35.5 -14.5t-14.5 -35.5t14.5 -35.5t35.5 -14.5t35.5 14.5t14.5 35.5zM313 149q0 21 -14.5 35.5t-35.5 14.5q-20 0 -35 -15t-15 -35q0 -21 14.5 -35.5t35.5 -14.5t35.5 14.5t14.5 35.5zM276 45q0 21 -14.5 35.5t-35.5 14.5t-35.5 -14.5t-14.5 -35.5t14.5 -35.5t35.5 -14.5
q20 0 35 15t15 35z" />
    <glyph glyph-name="dollar" unicode="$" horiz-adv-x="651" 
d="M627 232q0 -105 -61 -174t-166 -91v-99h-159v97q-171 32 -212 201q4 0 58 20q38 14 168 64q0 -75 70 -75q20 0 38 9q22 10 22 28q0 30 -93 62q-124 43 -174 80q-93 69 -93 191q0 99 60 167q57 65 156 85v113h159v-114q161 -31 200 -185q-6 0 -222 -92q-4 84 -61 84
q-19 0 -37.5 -12.5t-18.5 -30.5q0 -25 129 -72q118 -43 167 -87q70 -63 70 -169zM320 864q-21 0 -35.5 -14.5t-14.5 -35.5q0 -20 15 -35t35 -15q21 0 35.5 14.5t14.5 35.5t-14.5 35.5t-35.5 14.5zM434 705q-21 0 -36.5 -15t-15.5 -36q0 -20 15 -35t35 -15q21 0 35.5 14.5
t14.5 35.5q0 20 -14 35.5t-34 15.5zM320 744q-21 0 -35.5 -14.5t-14.5 -35.5q0 -20 15 -35t35 -15q21 0 35.5 14.5t14.5 35.5t-14.5 35.5t-35.5 14.5zM203 702q-21 0 -35.5 -14.5t-14.5 -35.5q0 -20 15 -35t35 -15q21 0 35.5 14.5t14.5 35.5t-14.5 35.5t-35.5 14.5zM429 377
q-21 0 -35.5 -14.5t-14.5 -35.5t14.5 -35.5t35.5 -14.5t35.5 14.5t14.5 35.5q0 20 -15 35t-35 15zM492 276q-21 0 -35.5 -14.5t-14.5 -35.5t14.5 -35.5t35.5 -14.5q20 0 35 15t15 35q0 21 -14.5 35.5t-35.5 14.5zM317 436q-21 0 -35.5 -14.5t-14.5 -35.5t14.5 -35.5
t35.5 -14.5q20 0 35 15t15 35q0 21 -14.5 35.5t-35.5 14.5zM150 598q-21 0 -35.5 -14.5t-14.5 -35.5t14.5 -35.5t35.5 -14.5t35.5 14.5t14.5 35.5t-14.5 35.5t-35.5 14.5zM212 495q-21 0 -35.5 -14.5t-14.5 -35.5t14.5 -35.5t35.5 -14.5t35.5 14.5t14.5 35.5t-14.5 35.5
t-35.5 14.5zM438 172q-20 0 -35 -15t-15 -35q0 -21 15 -35.5t36 -14.5t35 14.5t14 35.5t-14.5 35.5t-35.5 14.5zM321 130q-20 0 -35 -15t-15 -35q0 -21 15 -35.5t36 -14.5t35 14.5t14 35.5t-14.5 35.5t-35.5 14.5zM209 170q-20 0 -35 -15t-15 -35t14.5 -35.5t34.5 -15.5
q21 0 36 15t15 36t-14.5 35.5t-35.5 14.5zM321 10q-20 0 -35 -15t-15 -35q0 -21 15 -35.5t36 -14.5t35 14.5t14 35.5t-14.5 35.5t-35.5 14.5z" />
    <glyph glyph-name="percent" unicode="%" horiz-adv-x="1049" 
d="M1005 160q0 -94 -57.5 -146t-152.5 -52t-152 52t-57 146v92q0 95 58 147q55 50 151 50q95 0 151 -50q59 -53 59 -147v-92zM944 274q0 20 -15 35t-35 15q-21 0 -35.5 -14.5t-14.5 -35.5t14.5 -35.5t35.5 -14.5t35.5 14.5t14.5 35.5zM844 364q0 20 -15 35t-35 15
q-21 0 -35.5 -14.5t-14.5 -35.5t14.5 -35.5t35.5 -14.5t35.5 14.5t14.5 35.5zM944 134q0 20 -15 35t-35 15q-21 0 -35.5 -14.5t-14.5 -35.5t14.5 -35.5t35.5 -14.5t35.5 14.5t14.5 35.5zM817 160v92q0 41 -22 41q-21 0 -21 -41v-95q0 -38 21 -38q22 0 22 41zM744 274
q0 20 -15 35t-35 15q-21 0 -35.5 -14.5t-14.5 -35.5t14.5 -35.5t35.5 -14.5t35.5 14.5t14.5 35.5zM844 44q0 20 -15 35t-35 15q-21 0 -35.5 -14.5t-14.5 -35.5t14.5 -35.5t35.5 -14.5t35.5 14.5t14.5 35.5zM744 134q0 20 -15 35t-35 15q-21 0 -35.5 -14.5t-14.5 -35.5
t14.5 -35.5t35.5 -14.5t35.5 14.5t14.5 35.5zM810 802l-397 -840h-175l397 840h175zM744 739q0 21 -14 35.5t-35 14.5t-36 -14.5t-15 -35.5q0 -20 15 -35t35 -15q21 0 35.5 14.5t14.5 35.5zM698 640q0 21 -14.5 35.5t-35.5 14.5t-35.5 -14.5t-14.5 -35.5t14.5 -35.5
t35.5 -14.5t35.5 14.5t14.5 35.5zM652 540q0 20 -15 35t-35 15q-21 0 -36 -14.5t-15 -35.5t14.5 -35.5t35.5 -14.5t36 14.5t15 35.5zM605 440q0 21 -14.5 35.5t-35.5 14.5t-35.5 -14.5t-14.5 -35.5t14.5 -35.5t35.5 -14.5t35.5 14.5t14.5 35.5zM559 340q0 21 -14.5 35.5
t-35.5 14.5t-35.5 -14.5t-14.5 -35.5q0 -20 14.5 -35t34.5 -15q21 0 36 14.5t15 35.5zM512 241q0 21 -14.5 35.5t-35.5 14.5t-35.5 -14.5t-14.5 -35.5t14.5 -35.5t35.5 -14.5t35.5 14.5t14.5 35.5zM466 141q0 21 -14.5 35.5t-35.5 14.5t-35.5 -14.5t-14.5 -35.5t14.5 -35.5
t35.5 -14.5t35.5 14.5t14.5 35.5zM419 37q0 21 -14.5 35.5t-35.5 14.5q-20 0 -35 -15t-15 -35q0 -21 14.5 -35.5t35.5 -14.5t35.5 14.5t14.5 35.5zM462 512q0 -94 -57 -145.5t-152 -51.5t-152 51.5t-57 145.5v92q0 94 57 146t152 52t152 -52t57 -146v-92zM399 632
q0 21 -14.5 35.5t-35.5 14.5t-35.5 -14.5t-14.5 -35.5t14.5 -35.5t35.5 -14.5t35.5 14.5t14.5 35.5zM299 722q0 21 -14.5 35.5t-35.5 14.5t-35.5 -14.5t-14.5 -35.5t14.5 -35.5t35.5 -14.5t35.5 14.5t14.5 35.5zM399 492q0 21 -14.5 35.5t-35.5 14.5t-35.5 -14.5
t-14.5 -35.5t14.5 -35.5t35.5 -14.5t35.5 14.5t14.5 35.5zM274 604q0 41 -21 41t-21 -41v-95q0 -38 21 -38t21 38v95zM199 632q0 21 -14.5 35.5t-35.5 14.5t-35.5 -14.5t-14.5 -35.5t14.5 -35.5t35.5 -14.5t35.5 14.5t14.5 35.5zM299 402q0 21 -14.5 35.5t-35.5 14.5
t-35.5 -14.5t-14.5 -35.5t14.5 -35.5t35.5 -14.5t35.5 14.5t14.5 35.5zM199 492q0 21 -14.5 35.5t-35.5 14.5t-35.5 -14.5t-14.5 -35.5t14.5 -35.5t35.5 -14.5t35.5 14.5t14.5 35.5z" />
    <glyph glyph-name="ampersand" unicode="&#x26;" horiz-adv-x="825" 
d="M803 264l-112 -89l87 -113l-181 -131l-79 102q-97 -71 -217 -71q-113 0 -190 68q-81 70 -81 182q0 153 153 242q-47 65 -47 140q0 97 72 155q67 53 167 53q94 0 159 -50q71 -54 71 -146q0 -113 -111 -193l61 -71l96 80zM484 694q0 20 -15 35t-35 15q-21 0 -35.5 -14.5
t-14.5 -35.5t14.5 -35.5t35.5 -14.5t35.5 14.5t14.5 35.5zM563 605q0 21 -14.5 35.5t-35.5 14.5t-35.5 -14.5t-14.5 -35.5t14.5 -35.5t35.5 -14.5q20 0 35 15t15 35zM357 696q0 21 -14.5 36t-35.5 15t-35.5 -14.5t-14.5 -35.5t14.5 -35.5t35.5 -14.5q20 0 35 14.5t15 34.5z
M400 610q0 22 -26 22q-25 0 -25 -22q0 -17 20 -44q31 22 31 44zM500 499q0 21 -14.5 35.5t-35.5 14.5q-20 0 -35 -15t-15 -35q0 -21 14.5 -35.5t35.5 -14.5t35.5 14.5t14.5 35.5zM689 275q0 21 -14.5 35.5t-35.5 14.5t-35.5 -14.5t-14.5 -35.5t14.5 -35.5t35.5 -14.5
t35.5 14.5t14.5 35.5zM278 609q0 20 -15 35t-35 15q-21 0 -35.5 -14.5t-14.5 -35.5t14 -35.5t35 -14.5t36 14.5t15 35.5zM336 498q0 19 -14 37.5t-32 18.5q-22 0 -38 -15t-16 -37q0 -21 14.5 -35.5t35.5 -14.5q19 0 34.5 13.5t15.5 32.5zM413 398q0 20 -15 35t-35 15
q-21 0 -35.5 -14.5t-14.5 -35.5t14.5 -35.5t35.5 -14.5t35.5 14.5t14.5 35.5zM503 287q0 21 -14.5 35.5t-35.5 14.5t-35.5 -14.5t-14.5 -35.5t14.5 -35.5t35.5 -14.5t35.5 14.5t14.5 35.5zM585 191q0 21 -14.5 35.5t-35.5 14.5t-35.5 -14.5t-14.5 -35.5t14.5 -35.5
t35.5 -14.5q20 0 35 15t15 35zM674 81q0 21 -14.5 35.5t-35.5 14.5t-35.5 -14.5t-14.5 -35.5t14.5 -35.5t35.5 -14.5q20 0 35 15t15 35zM233 416q-21 0 -35.5 -14.5t-14.5 -35.5t14.5 -35.5t35.5 -14.5t35.5 14.5t14.5 35.5t-14.5 35.5t-35.5 14.5zM383 198l-76 94
q-39 -28 -39 -66q0 -23 14.5 -37t37.5 -14q30 0 63 23zM488 107q0 21 -14.5 35.5t-35.5 14.5t-35.5 -14.5t-14.5 -35.5t14.5 -35.5t35.5 -14.5t35.5 14.5t14.5 35.5zM157 298q-20 0 -35 -15t-15 -35q0 -21 14.5 -35.5t35.5 -14.5t35.5 14.5t14.5 35.5t-14.5 35.5t-35.5 14.5
zM304 124q-21 0 -35.5 -14.5t-14.5 -35.5q0 -20 15 -35t35 -15q21 0 35.5 14.5t14.5 35.5t-14.5 35.5t-35.5 14.5zM197 183q-21 0 -35.5 -14.5t-14.5 -35.5t14.5 -35.5t35.5 -14.5t35.5 14.5t14.5 35.5q0 20 -15 35t-35 15z" />
    <glyph glyph-name="quotesingle" unicode="'" horiz-adv-x="265" 
d="M215 433h-167v354h167v-354zM181 720q0 21 -14.5 35.5t-35.5 14.5t-35.5 -14.5t-14.5 -35.5t14.5 -35.5t35.5 -14.5t35.5 14.5t14.5 35.5zM181 610q0 21 -14.5 35.5t-35.5 14.5t-35.5 -14.5t-14.5 -35.5t14.5 -35.5t35.5 -14.5t35.5 14.5t14.5 35.5zM181 500
q0 21 -14.5 35.5t-35.5 14.5t-35.5 -14.5t-14.5 -35.5t14.5 -35.5t35.5 -14.5t35.5 14.5t14.5 35.5z" />
    <glyph glyph-name="parenleft" unicode="(" horiz-adv-x="409" 
d="M384 -116l-167 -128q-194 268 -194 531q0 264 194 529l167 -127q-149 -205 -149 -403q0 -199 149 -402zM304 691q0 21 -14.5 35.5t-35.5 14.5t-35.5 -14.5t-14.5 -35.5t14.5 -35.5t35.5 -14.5q20 0 35 15t15 35zM250 600q0 21 -14.5 35.5t-35.5 14.5t-35.5 -14.5
t-14.5 -35.5t14.5 -35.5t35.5 -14.5t35.5 14.5t14.5 35.5zM215 498q0 21 -14.5 35.5t-35.5 14.5t-35.5 -14.5t-14.5 -35.5t14.5 -35.5t35.5 -14.5t35.5 14.5t14.5 35.5zM186 391q0 21 -14.5 35.5t-35.5 14.5t-35.5 -14.5t-14.5 -35.5t14.5 -35.5t35.5 -14.5t35.5 14.5
t14.5 35.5zM171 284q0 21 -14.5 35.5t-35.5 14.5t-35.5 -14.5t-14.5 -35.5t14.5 -35.5t35.5 -14.5t35.5 14.5t14.5 35.5zM181 176q0 21 -14.5 35.5t-35.5 14.5t-35.5 -14.5t-14.5 -35.5t14.5 -35.5t35.5 -14.5t35.5 14.5t14.5 35.5zM208 78q0 21 -14.5 35.5t-35.5 14.5
t-35.5 -14.5t-14.5 -35.5t14.5 -35.5t35.5 -14.5t35.5 14.5t14.5 35.5zM244 -21q0 21 -14.5 35.5t-35.5 14.5t-35.5 -14.5t-14.5 -35.5t14.5 -35.5t35.5 -14.5t35.5 14.5t14.5 35.5zM305 -112q0 21 -14.5 35.5t-35.5 14.5t-35.5 -14.5t-14.5 -35.5t14.5 -35.5t35.5 -14.5
t35.5 14.5t14.5 35.5z" />
    <glyph glyph-name="parenright" unicode=")" horiz-adv-x="410" 
d="M192 -244l-167 128q149 203 149 402q0 198 -149 403l167 127q194 -265 194 -529q0 -263 -194 -531zM205 691q0 21 -14.5 35.5t-35.5 14.5t-35.5 -14.5t-14.5 -35.5q0 -20 15 -35t35 -15q21 0 35.5 14.5t14.5 35.5zM259 600q0 21 -14.5 35.5t-35.5 14.5q-20 0 -35 -15
t-15 -35q0 -21 14.5 -35.5t35.5 -14.5t35.5 14.5t14.5 35.5zM294 498q0 21 -14.5 35.5t-35.5 14.5t-35.5 -14.5t-14.5 -35.5t14.5 -35.5t35.5 -14.5t35.5 14.5t14.5 35.5zM323 391q0 21 -14.5 35.5t-35.5 14.5t-35.5 -14.5t-14.5 -35.5t14.5 -35.5t35.5 -14.5t35.5 14.5
t14.5 35.5zM338 284q0 21 -14.5 35.5t-35.5 14.5t-35.5 -14.5t-14.5 -35.5t14.5 -35.5t35.5 -14.5t35.5 14.5t14.5 35.5zM328 176q0 21 -14.5 35.5t-35.5 14.5t-35.5 -14.5t-14.5 -35.5t14.5 -35.5t35.5 -14.5t35.5 14.5t14.5 35.5zM301 78q0 21 -14.5 35.5t-35.5 14.5
t-35.5 -14.5t-14.5 -35.5t14.5 -35.5t35.5 -14.5t35.5 14.5t14.5 35.5zM265 -21q0 21 -14.5 35.5t-35.5 14.5q-20 0 -35 -15t-15 -35q0 -21 14.5 -35.5t35.5 -14.5t35.5 14.5t14.5 35.5zM204 -112q0 21 -14.5 35.5t-35.5 14.5t-35.5 -14.5t-14.5 -35.5t14.5 -35.5
t35.5 -14.5t35.5 14.5t14.5 35.5z" />
    <glyph glyph-name="asterisk" unicode="*" horiz-adv-x="682" 
d="M657 544l-208 -10l161 -130q-86 -72 -193 -138l-77 191l-76 -191l-193 138l160 130l-207 10l73 225l176 -109l-54 197h243l-55 -197l177 109zM607 641q0 21 -14.5 35.5t-35.5 14.5t-35.5 -14.5t-14.5 -35.5q0 -20 15 -35t35 -15q21 0 35.5 14.5t14.5 35.5zM388 797
q0 21 -14.5 35.5t-35.5 14.5t-35.5 -14.5t-14.5 -35.5t14.5 -35.5t35.5 -14.5t35.5 14.5t14.5 35.5zM501 604q0 21 -14.5 35.5t-35.5 14.5t-35.5 -14.5t-14.5 -35.5t14.5 -35.5t35.5 -14.5q20 0 35 15t15 35zM388 687q0 21 -14.5 35.5t-35.5 14.5t-35.5 -14.5t-14.5 -35.5
t14.5 -35.5t35.5 -14.5t35.5 14.5t14.5 35.5zM392 572q0 21 -14.5 35.5t-35.5 14.5t-35.5 -14.5t-14.5 -35.5t14.5 -35.5t35.5 -14.5t35.5 14.5t14.5 35.5zM457 479q0 20 -15 35t-35 15q-21 0 -35.5 -14.5t-14.5 -35.5t14.5 -35.5t35.5 -14.5t35.5 14.5t14.5 35.5zM520 386
q0 21 -14.5 35.5t-35.5 14.5t-35.5 -14.5t-14.5 -35.5t14.5 -35.5t35.5 -14.5t35.5 14.5t14.5 35.5zM283 599q0 21 -14.5 35.5t-35.5 14.5t-35.5 -14.5t-14.5 -35.5t14.5 -35.5t35.5 -14.5t35.5 14.5t14.5 35.5zM178 638q0 21 -14.5 35.5t-35.5 14.5q-20 0 -35 -15t-15 -35
q0 -21 14.5 -35.5t35.5 -14.5t35.5 14.5t14.5 35.5zM322 476q0 21 -14.5 35.5t-35.5 14.5t-35.5 -14.5t-14.5 -35.5t14.5 -35.5t35.5 -14.5t35.5 14.5t14.5 35.5zM262 389q0 21 -14.5 35.5t-35.5 14.5t-35.5 -14.5t-14.5 -35.5t14.5 -35.5t35.5 -14.5t35.5 14.5t14.5 35.5z
" />
    <glyph glyph-name="plus" unicode="+" horiz-adv-x="635" 
d="M620 213h-214v-198h-176v198h-215v171h215v217h176v-217h214v-171zM367 525q0 20 -15 35t-35 15q-21 0 -35.5 -14.5t-14.5 -35.5t14.5 -35.5t35.5 -14.5t35.5 14.5t14.5 35.5zM587 305q0 20 -15 35t-35 15q-21 0 -35.5 -14.5t-14.5 -35.5t14.5 -35.5t35.5 -14.5
t35.5 14.5t14.5 35.5zM367 415q0 20 -15 35t-35 15q-21 0 -35.5 -14.5t-14.5 -35.5t14.5 -35.5t35.5 -14.5t35.5 14.5t14.5 35.5zM477 305q0 20 -15 35t-35 15q-21 0 -35.5 -14.5t-14.5 -35.5t14.5 -35.5t35.5 -14.5t35.5 14.5t14.5 35.5zM367 305q0 20 -15 35t-35 15
q-21 0 -35.5 -14.5t-14.5 -35.5t14.5 -35.5t35.5 -14.5t35.5 14.5t14.5 35.5zM257 305q0 20 -15 35t-35 15q-21 0 -35.5 -14.5t-14.5 -35.5t14.5 -35.5t35.5 -14.5t35.5 14.5t14.5 35.5zM367 195q0 20 -15 35t-35 15q-21 0 -35.5 -14.5t-14.5 -35.5t14.5 -35.5t35.5 -14.5
t35.5 14.5t14.5 35.5zM147 305q0 20 -15 35t-35 15q-21 0 -35.5 -14.5t-14.5 -35.5t14.5 -35.5t35.5 -14.5t35.5 14.5t14.5 35.5zM367 85q0 20 -15 35t-35 15q-21 0 -35.5 -14.5t-14.5 -35.5t14.5 -35.5t35.5 -14.5t35.5 14.5t14.5 35.5z" />
    <glyph glyph-name="comma" unicode="," horiz-adv-x="340" 
d="M316 181l-95 -350l-191 38l64 357zM245 136q0 21 -14.5 35.5t-35.5 14.5t-35.5 -14.5t-14.5 -35.5t14.5 -35.5t35.5 -14.5t35.5 14.5t14.5 35.5zM217 30q0 21 -14.5 35.5t-35.5 14.5t-35.5 -14.5t-14.5 -35.5t14.5 -35.5t35.5 -14.5t35.5 14.5t14.5 35.5zM189 -81
q0 21 -14.5 35.5t-35.5 14.5t-35.5 -14.5t-14.5 -35.5t14.5 -35.5t35.5 -14.5t35.5 14.5t14.5 35.5z" />
    <glyph glyph-name="hyphen" unicode="-" horiz-adv-x="498" 
d="M449 187h-401v207h401v-207zM407 295q0 20 -15 35t-35 15q-21 0 -35.5 -14.5t-14.5 -35.5t14.5 -35.5t35.5 -14.5t35.5 14.5t14.5 35.5zM297 295q0 20 -15 35t-35 15q-21 0 -35.5 -14.5t-14.5 -35.5t14.5 -35.5t35.5 -14.5t35.5 14.5t14.5 35.5zM187 295q0 20 -15 35
t-35 15q-21 0 -35.5 -14.5t-14.5 -35.5t14.5 -35.5t35.5 -14.5t35.5 14.5t14.5 35.5z" />
    <glyph glyph-name="period" unicode="." horiz-adv-x="324" 
d="M162 -70q-56 0 -91.5 35t-35.5 91t35.5 92.5t91.5 36.5q55 0 91 -37t36 -92q0 -56 -35.5 -91t-91.5 -35zM217 60q0 21 -14.5 35.5t-35.5 14.5t-35.5 -14.5t-14.5 -35.5t14.5 -35.5t35.5 -14.5t35.5 14.5t14.5 35.5z" />
    <glyph glyph-name="slash" unicode="/" horiz-adv-x="424" 
d="M412 804l-234 -922h-166l233 922h167zM369 708q0 21 -14.5 35.5t-35.5 14.5q-20 0 -35 -15t-15 -35q0 -21 14.5 -35.5t35.5 -14.5t35.5 14.5t14.5 35.5zM341 602q0 20 -15 35t-35 15q-21 0 -35.5 -14.5t-14.5 -35.5t14.5 -35.5t35.5 -14.5t35.5 14.5t14.5 35.5zM312 495
q0 21 -14.5 35.5t-35.5 14.5t-35.5 -14.5t-14.5 -35.5q0 -20 15 -35t35 -15q21 0 35.5 14.5t14.5 35.5zM284 389q0 21 -14.5 35.5t-35.5 14.5t-35.5 -14.5t-14.5 -35.5t14.5 -35.5t35.5 -14.5q20 0 35 15t15 35zM255 283q0 21 -14.5 35.5t-35.5 14.5q-20 0 -35 -15t-15 -35
q0 -21 14.5 -35.5t35.5 -14.5t35.5 14.5t14.5 35.5zM227 177q0 20 -15 35t-35 15q-21 0 -35.5 -14.5t-14.5 -35.5t14.5 -35.5t35.5 -14.5t35.5 14.5t14.5 35.5zM198 70q0 21 -14.5 35.5t-35.5 14.5t-35.5 -14.5t-14.5 -35.5q0 -20 15 -35t35 -15q21 0 35.5 14.5t14.5 35.5z
M171 -40q0 20 -15 35t-35 15q-21 0 -35.5 -14.5t-14.5 -35.5t14.5 -35.5t35.5 -14.5t35.5 14.5t14.5 35.5z" />
    <glyph glyph-name="zero" unicode="0" horiz-adv-x="647" 
d="M606 242q0 -132 -75.5 -206t-207.5 -74t-207.5 74t-75.5 206v280q0 132 75.5 206t207.5 74t207.5 -74t75.5 -206v-280zM437 668q0 20 -15 35t-35 15q-21 0 -35.5 -14.5t-14.5 -35.5t14.5 -35.5t35.5 -14.5t35.5 14.5t14.5 35.5zM511 596q0 19 -15.5 32t-34.5 13
q-21 0 -35.5 -14.5t-14.5 -35.5t14.5 -35.5t35.5 -14.5q20 0 35 17.5t15 37.5zM543 480q0 21 -14.5 35.5t-35.5 14.5t-35.5 -14.5t-14.5 -35.5t14.5 -35.5t35.5 -14.5t35.5 14.5t14.5 35.5zM310 668q0 20 -15 35t-35 15q-21 0 -35.5 -14.5t-14.5 -35.5t14.5 -35.5
t35.5 -14.5t35.5 14.5t14.5 35.5zM543 370q0 21 -14.5 35.5t-35.5 14.5t-35.5 -14.5t-14.5 -35.5t14.5 -35.5t35.5 -14.5t35.5 14.5t14.5 35.5zM236 591q0 21 -14.5 35.5t-35.5 14.5t-35.5 -14.5t-14.5 -35.5t14.5 -35.5t35.5 -14.5t35.5 14.5t14.5 35.5zM543 260
q0 21 -14.5 35.5t-35.5 14.5t-35.5 -14.5t-14.5 -35.5t14.5 -35.5t35.5 -14.5t35.5 14.5t14.5 35.5zM371 249v266q0 26 -11 45q-13 23 -37 23t-37 -23q-11 -19 -11 -45v-266q0 -26 11 -45q13 -23 37 -23t37 23q11 19 11 45zM204 484q0 21 -14.5 35.5t-35.5 14.5t-35.5 -14.5
t-14.5 -35.5t14.5 -35.5t35.5 -14.5t35.5 14.5t14.5 35.5zM511 160q0 21 -14.5 35.5t-35.5 14.5t-35.5 -14.5t-14.5 -35.5t14.5 -35.5t35.5 -14.5t35.5 14.5t14.5 35.5zM204 374q0 21 -14.5 35.5t-35.5 14.5t-35.5 -14.5t-14.5 -35.5t14.5 -35.5t35.5 -14.5t35.5 14.5
t14.5 35.5zM437 83q0 21 -14.5 35.5t-35.5 14.5t-35.5 -14.5t-14.5 -35.5t14.5 -35.5t35.5 -14.5q20 0 35 15t15 35zM204 264q0 21 -14.5 35.5t-35.5 14.5t-35.5 -14.5t-14.5 -35.5t14.5 -35.5t35.5 -14.5t35.5 14.5t14.5 35.5zM236 160q0 21 -14.5 35.5t-35.5 14.5
t-35.5 -14.5t-14.5 -35.5t14.5 -35.5t35.5 -14.5t35.5 14.5t14.5 35.5zM310 83q0 21 -14.5 35.5t-35.5 14.5t-35.5 -14.5t-14.5 -35.5t14.5 -35.5t35.5 -14.5q20 0 35 15t15 35z" />
    <glyph glyph-name="one" unicode="1" horiz-adv-x="395" 
d="M346 -25h-235v599l-92 -21v189l327 73v-840zM284 686q0 21 -14.5 35.5t-35.5 14.5t-35.5 -14.5t-14.5 -35.5t14.5 -35.5t35.5 -14.5t35.5 14.5t14.5 35.5zM284 566q0 21 -14.5 35.5t-35.5 14.5t-35.5 -14.5t-14.5 -35.5t14.5 -35.5t35.5 -14.5t35.5 14.5t14.5 35.5z
M166 668q0 21 -14.5 35.5t-35.5 14.5t-35.5 -14.5t-14.5 -35.5q0 -20 15 -35t35 -15q21 0 35.5 14.5t14.5 35.5zM284 446q0 21 -14.5 35.5t-35.5 14.5t-35.5 -14.5t-14.5 -35.5t14.5 -35.5t35.5 -14.5t35.5 14.5t14.5 35.5zM284 326q0 21 -14.5 35.5t-35.5 14.5t-35.5 -14.5
t-14.5 -35.5t14.5 -35.5t35.5 -14.5t35.5 14.5t14.5 35.5zM284 206q0 21 -14.5 35.5t-35.5 14.5t-35.5 -14.5t-14.5 -35.5t14.5 -35.5t35.5 -14.5t35.5 14.5t14.5 35.5zM284 86q0 21 -14.5 35.5t-35.5 14.5t-35.5 -14.5t-14.5 -35.5t14.5 -35.5t35.5 -14.5t35.5 14.5
t14.5 35.5z" />
    <glyph glyph-name="two" unicode="2" horiz-adv-x="721" 
d="M685 -25h-654l336 496q38 56 38 72q0 47 -52 47q-38 0 -49 -38q-6 -20 -6 -69h-235q1 148 70 230q75 89 220 89q122 0 202 -64q87 -70 87 -189q0 -94 -64 -179l-128 -170h235v-225zM515 654q0 21 -14.5 35.5t-35.5 14.5t-35.5 -14.5t-14.5 -35.5q0 -20 15 -35t35 -15
q21 0 35.5 14.5t14.5 35.5zM577 561q0 21 -14.5 35.5t-35.5 14.5t-35.5 -14.5t-14.5 -35.5t14.5 -35.5t35.5 -14.5t35.5 14.5t14.5 35.5zM405 694q0 21 -14.5 35.5t-35.5 14.5t-35.5 -14.5t-14.5 -35.5q0 -20 15 -35t35 -15q21 0 35.5 14.5t14.5 35.5zM539 458q0 20 -15 35
t-35 15q-21 0 -35.5 -14.5t-14.5 -35.5t14.5 -35.5t35.5 -14.5t35.5 14.5t14.5 35.5zM295 654q0 21 -14.5 35.5t-35.5 14.5t-35.5 -14.5t-14.5 -35.5q0 -20 15 -35t35 -15q21 0 35.5 14.5t14.5 35.5zM481 364q0 21 -14.5 35.5t-35.5 14.5t-35.5 -14.5t-14.5 -35.5
q0 -20 14.5 -35t34.5 -15q21 0 36 14.5t15 35.5zM245 554q0 21 -14.5 35.5t-35.5 14.5t-35.5 -14.5t-14.5 -35.5q0 -20 15 -35t35 -15q21 0 35.5 14.5t14.5 35.5zM636 84q0 21 -14.5 36t-35.5 15t-35.5 -14.5t-14.5 -35.5t14.5 -35.5t35.5 -14.5q20 0 35 14.5t15 34.5z
M422 271q0 21 -14.5 35.5t-35.5 14.5t-35.5 -14.5t-14.5 -35.5q0 -20 15 -35t35 -15q21 0 35.5 14.5t14.5 35.5zM526 84q0 21 -14.5 36t-35.5 15t-35.5 -14.5t-14.5 -35.5t14.5 -35.5t35.5 -14.5q20 0 35 14.5t15 34.5zM364 178q0 21 -14.5 35.5t-35.5 14.5t-35.5 -14.5
t-14.5 -35.5t14.5 -35.5t35.5 -14.5t35.5 14.5t14.5 35.5zM416 84q0 21 -14.5 36t-35.5 15t-35.5 -14.5t-14.5 -35.5t14.5 -35.5t35.5 -14.5q20 0 35 14.5t15 34.5zM306 84q0 21 -14.5 36t-35.5 15t-35.5 -14.5t-14.5 -35.5t14.5 -35.5t35.5 -14.5q20 0 35 14.5t15 34.5z
" />
    <glyph glyph-name="three" unicode="3" horiz-adv-x="651" 
d="M614 233q0 -129 -84 -201q-79 -68 -210 -68q-132 0 -212 73.5t-80 204.5v6l230 34q-5 -23 -5 -43q0 -69 68 -69q29 0 45.5 20t16.5 49q0 68 -95 65v187l5 -1q34 0 58 12q30 16 30 47q0 24 -18.5 40.5t-42.5 16.5q-42 0 -60 -69l-201 107q40 76 110 118.5t156 42.5
q112 0 190 -68q83 -71 83 -181q0 -94 -59 -151q75 -61 75 -172zM485 654q0 21 -14.5 35.5t-35.5 14.5t-35.5 -14.5t-14.5 -35.5q0 -20 15 -35t35 -15q21 0 35.5 14.5t14.5 35.5zM547 561q0 21 -14.5 35.5t-35.5 14.5t-35.5 -14.5t-14.5 -35.5t14.5 -35.5t35.5 -14.5
t35.5 14.5t14.5 35.5zM375 694q0 21 -14.5 35.5t-35.5 14.5t-35.5 -14.5t-14.5 -35.5q0 -20 15 -35t35 -15q21 0 35.5 14.5t14.5 35.5zM509 458q0 20 -15 35t-35 15q-21 0 -35.5 -14.5t-14.5 -35.5t14.5 -35.5t35.5 -14.5t35.5 14.5t14.5 35.5zM265 654q0 22 -15 36.5
t-37 14.5q-20 0 -34 -15.5t-14 -35.5t15 -35t35 -15q21 0 35.5 14.5t14.5 35.5zM518 297q0 20 -15 35t-35 15q-21 0 -35.5 -14.5t-14.5 -35.5t14.5 -35.5t35.5 -14.5t35.5 14.5t14.5 35.5zM433 379q0 21 -14.5 35.5t-35.5 14.5t-35.5 -14.5t-14.5 -35.5t14.5 -35.5
t35.5 -14.5t35.5 14.5t14.5 35.5zM545 191q0 21 -14.5 35.5t-35.5 14.5t-35.5 -14.5t-14.5 -35.5t14.5 -35.5t35.5 -14.5t35.5 14.5t14.5 35.5zM478 103q0 21 -14.5 35.5t-35.5 14.5t-35.5 -14.5t-14.5 -35.5t14.5 -35.5t35.5 -14.5t35.5 14.5t14.5 35.5zM372 73
q0 21 -14.5 35.5t-35.5 14.5q-20 0 -35 -15t-15 -35q0 -21 14.5 -35.5t35.5 -14.5t35.5 14.5t14.5 35.5zM203 206q0 21 -14.5 35.5t-35.5 14.5t-35.5 -14.5t-14.5 -35.5t14.5 -35.5t35.5 -14.5t35.5 14.5t14.5 35.5zM266 118q0 21 -14.5 35.5t-35.5 14.5t-35.5 -14.5
t-14.5 -35.5q0 -20 15 -35t35 -15q21 0 35.5 14.5t14.5 35.5z" />
    <glyph glyph-name="four" unicode="4" horiz-adv-x="722" 
d="M681 182h-96v-207h-231v207h-313v191l315 416h229v-402h96v-205zM527 720q0 21 -14.5 35.5t-35.5 14.5t-35.5 -14.5t-14.5 -35.5t14.5 -35.5t35.5 -14.5t35.5 14.5t14.5 35.5zM527 610q0 21 -14.5 35.5t-35.5 14.5t-35.5 -14.5t-14.5 -35.5t14.5 -35.5t35.5 -14.5
t35.5 14.5t14.5 35.5zM434 650q0 20 -15 35t-35 15q-21 0 -35.5 -14.5t-14.5 -35.5t14.5 -35.5t35.5 -14.5t35.5 14.5t14.5 35.5zM527 500q0 21 -14.5 35.5t-35.5 14.5t-35.5 -14.5t-14.5 -35.5t14.5 -35.5t35.5 -14.5t35.5 14.5t14.5 35.5zM364 564q0 21 -14.5 35.5
t-35.5 14.5t-35.5 -14.5t-14.5 -35.5q0 -20 15 -35t35 -15q21 0 35.5 14.5t14.5 35.5zM527 390q0 21 -14.5 35.5t-35.5 14.5t-35.5 -14.5t-14.5 -35.5t14.5 -35.5t35.5 -14.5t35.5 14.5t14.5 35.5zM637 280q0 21 -14.5 35.5t-35.5 14.5t-35.5 -14.5t-14.5 -35.5t14.5 -35.5
t35.5 -14.5t35.5 14.5t14.5 35.5zM527 280q0 21 -14.5 35.5t-35.5 14.5t-35.5 -14.5t-14.5 -35.5t14.5 -35.5t35.5 -14.5t35.5 14.5t14.5 35.5zM361 387v82l-68 -82h68zM295 479q0 21 -14.5 35.5t-35.5 14.5q-20 0 -35 -15t-15 -35q0 -21 14.5 -35.5t35.5 -14.5t35.5 14.5
t14.5 35.5zM417 280q0 21 -14.5 35.5t-35.5 14.5t-35.5 -14.5t-14.5 -35.5t14.5 -35.5t35.5 -14.5t35.5 14.5t14.5 35.5zM527 170q0 21 -14.5 35.5t-35.5 14.5t-35.5 -14.5t-14.5 -35.5t14.5 -35.5t35.5 -14.5t35.5 14.5t14.5 35.5zM226 393q0 21 -14.5 35.5t-35.5 14.5
t-35.5 -14.5t-14.5 -35.5t14.5 -35.5t35.5 -14.5t35.5 14.5t14.5 35.5zM307 280q0 21 -14.5 35.5t-35.5 14.5t-35.5 -14.5t-14.5 -35.5t14.5 -35.5t35.5 -14.5t35.5 14.5t14.5 35.5zM527 60q0 21 -14.5 35.5t-35.5 14.5t-35.5 -14.5t-14.5 -35.5t14.5 -35.5t35.5 -14.5
t35.5 14.5t14.5 35.5zM197 280q0 21 -14.5 35.5t-35.5 14.5t-35.5 -14.5t-14.5 -35.5t14.5 -35.5t35.5 -14.5t35.5 14.5t14.5 35.5z" />
    <glyph glyph-name="five" unicode="5" horiz-adv-x="635" 
d="M579 573h-316v-62q42 10 80 10q112 0 181 -80q66 -77 66 -190q0 -129 -83 -209t-212 -80q-72 0 -142 51q-64 46 -100 115l207 75q10 -16 35 -16t41.5 16.5t16.5 41.5q0 28 -16.5 48.5t-43.5 20.5q-42 0 -48 -44h-200v519h534v-216zM542 684q0 21 -14.5 35.5t-35.5 14.5
t-35.5 -14.5t-14.5 -35.5t14.5 -35.5t35.5 -14.5t35.5 14.5t14.5 35.5zM432 684q0 21 -14.5 35.5t-35.5 14.5t-35.5 -14.5t-14.5 -35.5t14.5 -35.5t35.5 -14.5t35.5 14.5t14.5 35.5zM322 684q0 21 -14.5 35.5t-35.5 14.5t-35.5 -14.5t-14.5 -35.5t14.5 -35.5t35.5 -14.5
t35.5 14.5t14.5 35.5zM212 684q0 21 -14.5 35.5t-35.5 14.5t-35.5 -14.5t-14.5 -35.5t14.5 -35.5t35.5 -14.5t35.5 14.5t14.5 35.5zM500 330q0 21 -14.5 35.5t-35.5 14.5t-35.5 -14.5t-14.5 -35.5t14.5 -35.5t35.5 -14.5q20 0 35 15t15 35zM418 400q0 20 -15 35t-35 15
q-21 0 -35.5 -14.5t-14.5 -35.5t14.5 -35.5t35.5 -14.5t35.5 14.5t14.5 35.5zM212 574q0 21 -14.5 35.5t-35.5 14.5t-35.5 -14.5t-14.5 -35.5t14.5 -35.5t35.5 -14.5t35.5 14.5t14.5 35.5zM518 227q0 21 -14.5 35.5t-35.5 14.5t-35.5 -14.5t-14.5 -35.5t14.5 -35.5
t35.5 -14.5q20 0 35 15t15 35zM309 406q0 20 -15 35t-35 15q-21 0 -35.5 -14.5t-14.5 -35.5t14.5 -35.5t35.5 -14.5t35.5 14.5t14.5 35.5zM212 464q0 21 -14.5 35.5t-35.5 14.5t-35.5 -14.5t-14.5 -35.5t14.5 -35.5t35.5 -14.5t35.5 14.5t14.5 35.5zM475 133
q0 21 -14.5 35.5t-35.5 14.5t-35.5 -14.5t-14.5 -35.5q0 -20 15 -35t35 -15q21 0 35.5 14.5t14.5 35.5zM212 354q0 21 -14.5 35.5t-35.5 14.5t-35.5 -14.5t-14.5 -35.5t14.5 -35.5t35.5 -14.5t35.5 14.5t14.5 35.5zM378 81q0 21 -14.5 35.5t-35.5 14.5t-35.5 -14.5
t-14.5 -35.5t14.5 -35.5t35.5 -14.5t35.5 14.5t14.5 35.5zM273 100q0 21 -14.5 35.5t-35.5 14.5t-35.5 -14.5t-14.5 -35.5t14.5 -35.5t35.5 -14.5t35.5 14.5t14.5 35.5z" />
    <glyph glyph-name="six" unicode="6" horiz-adv-x="642" 
d="M607 238q0 -125 -82.5 -201.5t-208.5 -76.5t-208.5 78t-82.5 203q0 109 93 252l193 296h278l-203 -294q105 -8 164 -81q57 -69 57 -176zM448 711q0 21 -14.5 35.5t-35.5 14.5t-35.5 -14.5t-14.5 -35.5t14.5 -35.5t35.5 -14.5q20 0 35 15t15 35zM391 617q0 21 -14.5 35.5
t-35.5 14.5t-35.5 -14.5t-14.5 -35.5t14.5 -35.5t35.5 -14.5t35.5 14.5t14.5 35.5zM335 523q0 20 -15 35t-35 15q-21 0 -35.5 -14.5t-14.5 -35.5t14.5 -35.5t35.5 -14.5t35.5 14.5t14.5 35.5zM486 363q0 21 -14.5 35.5t-35.5 14.5t-35.5 -14.5t-14.5 -35.5t14.5 -35.5
t35.5 -14.5t35.5 14.5t14.5 35.5zM532 270q0 21 -14.5 35.5t-35.5 14.5t-35.5 -14.5t-14.5 -35.5t14.5 -35.5t35.5 -14.5t35.5 14.5t14.5 35.5zM382 408q0 21 -14.5 35.5t-35.5 14.5t-35.5 -14.5t-14.5 -35.5q0 -20 15 -35t35 -15q21 0 35.5 14.5t14.5 35.5zM278 428
q0 21 -14.5 35.5t-35.5 14.5t-35.5 -14.5t-14.5 -35.5t14.5 -35.5t35.5 -14.5t35.5 14.5t14.5 35.5zM514 168q0 21 -14.5 35.5t-35.5 14.5t-36 -14.5t-15 -35.5q0 -20 15 -35t35 -15q21 0 36 14.5t15 35.5zM316 173q26 0 41.5 19t15.5 46t-15 45.5t-42 18.5
q-26 0 -41.5 -18.5t-15.5 -45.5t15.5 -46t41.5 -19zM221 334q0 21 -14.5 35.5t-35.5 14.5t-35.5 -14.5t-14.5 -35.5q0 -20 15 -35t35 -15q21 0 35.5 14.5t14.5 35.5zM441 89q0 21 -14.5 35.5t-35.5 14.5t-35.5 -14.5t-14.5 -35.5t14.5 -35.5t35.5 -14.5q20 0 35 15t15 35z
M196 229q0 20 -15 35t-35 15q-21 0 -36 -14.5t-15 -35.5t14.5 -35.5t35.5 -14.5t36 14.5t15 35.5zM335 74q0 21 -14.5 35.5t-35.5 14.5t-35.5 -14.5t-14.5 -35.5t14.5 -35.5t35.5 -14.5q20 0 35 15t15 35zM241 129q0 21 -14.5 35.5t-35.5 14.5t-35.5 -14.5t-14.5 -35.5
t14.5 -35.5t35.5 -14.5t35.5 14.5t14.5 35.5z" />
    <glyph glyph-name="seven" unicode="7" horiz-adv-x="650" 
d="M637 789l-331 -814h-259l260 598h-263v216h593zM520 675q0 20 -15 35t-35 15q-21 0 -35.5 -14.5t-14.5 -35.5t14.5 -35.5t35.5 -14.5t35.5 14.5t14.5 35.5zM408 674q0 21 -14.5 35.5t-35.5 14.5q-20 0 -35 -15t-15 -35q0 -21 14.5 -35.5t35.5 -14.5t35.5 14.5t14.5 35.5z
M477 574q0 20 -15 35t-35 15q-21 0 -35.5 -14.5t-14.5 -35.5t14.5 -35.5t35.5 -14.5t35.5 14.5t14.5 35.5zM298 674q0 21 -14.5 35.5t-35.5 14.5q-20 0 -35 -15t-15 -35q0 -21 14.5 -35.5t35.5 -14.5t35.5 14.5t14.5 35.5zM434 472q0 21 -14.5 35.5t-35.5 14.5t-35.5 -14.5
t-14.5 -35.5t14.5 -35.5t35.5 -14.5q20 0 35 15t15 35zM188 674q0 21 -14.5 35.5t-35.5 14.5q-20 0 -35 -15t-15 -35q0 -21 14.5 -35.5t35.5 -14.5t35.5 14.5t14.5 35.5zM391 371q0 21 -14.5 35.5t-35.5 14.5t-35.5 -14.5t-14.5 -35.5t14.5 -35.5t35.5 -14.5t35.5 14.5
t14.5 35.5zM348 270q0 20 -15 35t-35 15q-21 0 -35.5 -14.5t-14.5 -35.5t14.5 -35.5t35.5 -14.5t35.5 14.5t14.5 35.5zM305 169q0 20 -15 35t-35 15q-21 0 -35.5 -14.5t-14.5 -35.5t14.5 -35.5t35.5 -14.5t35.5 14.5t14.5 35.5zM262 67q0 21 -14.5 35.5t-35.5 14.5
t-35.5 -14.5t-14.5 -35.5t14.5 -35.5t35.5 -14.5q20 0 35 15t15 35z" />
    <glyph glyph-name="eight" unicode="8" horiz-adv-x="662" 
d="M625 233q0 -129 -84 -201q-79 -68 -210 -68t-210 69q-84 72 -84 201q0 110 75 172q-59 57 -59 151q0 113 83 182q77 65 193 65q117 0 196 -64q84 -69 84 -184q0 -94 -59 -151q75 -62 75 -172zM523 625q0 21 -14.5 35.5t-35.5 14.5t-35.5 -14.5t-14.5 -35.5t14.5 -35.5
t35.5 -14.5q20 0 35 15t15 35zM434 694q0 20 -15 35t-35 15q-21 0 -35.5 -14.5t-14.5 -35.5t14.5 -35.5t35.5 -14.5t35.5 14.5t14.5 35.5zM548 521q0 21 -14.5 35.5t-35.5 14.5t-35.5 -14t-14.5 -35t14.5 -36t35.5 -15q20 0 35 15t15 35zM327 696q0 21 -14.5 36t-35.5 15
t-35.5 -14.5t-14.5 -35.5t14.5 -35.5t35.5 -14.5q20 0 35 14.5t15 34.5zM390 548q0 58 -59 58q-26 0 -42.5 -15.5t-16.5 -41.5t17 -42.5t43 -16.5t42 16t16 42zM487 430q0 21 -14.5 35.5t-35.5 14.5t-35.5 -14.5t-14.5 -35.5t14.5 -35.5t35.5 -14.5t35.5 14.5t14.5 35.5z
M533 335q0 21 -14.5 35.5t-35.5 14.5q-20 0 -35 -15t-15 -35q0 -21 14.5 -35.5t35.5 -14.5t35.5 14.5t14.5 35.5zM238 629q0 20 -15 35t-35 15q-21 0 -35.5 -14.5t-14.5 -35.5t14 -35.5t35 -14.5t36 14.5t15 35.5zM566 235q0 21 -14.5 35.5t-35.5 14.5t-35.5 -14.5
t-14.5 -35.5t14.5 -35.5t35.5 -14.5t35.5 14.5t14.5 35.5zM384 397q0 21 -14.5 35.5t-35.5 14.5t-35.5 -14.5t-14.5 -35.5q0 -20 14.5 -35t34.5 -15q21 0 36 14.5t15 35.5zM229 516q0 20 -14 38t-33 18q-21 0 -37 -15.5t-16 -36.5t14.5 -35.5t35.5 -14.5q19 0 34.5 13.5
t15.5 32.5zM282 429q0 21 -14.5 35.5t-35.5 14.5t-35.5 -14.5t-14.5 -35.5q0 -20 14.5 -35t34.5 -15q21 0 36 14.5t15 35.5zM531 134q0 21 -14.5 36t-35.5 15q-20 0 -35 -15t-15 -35q0 -21 14.5 -35.5t35.5 -14.5t35.5 14t14.5 35zM394 238q0 67 -63 67q-28 0 -45 -20
t-17 -49t17 -47.5t46 -18.5q28 0 45 19.5t17 48.5zM176 385q-21 0 -35.5 -14.5t-14.5 -35.5t14.5 -35.5t35.5 -14.5t35.5 14.5t14.5 35.5q0 20 -15 35t-35 15zM445 74q0 21 -14.5 35.5t-35.5 14.5t-35.5 -14.5t-14.5 -35.5t14.5 -35.5t35.5 -14.5q20 0 35 15t15 35zM143 285
q-20 0 -35 -15t-15 -35q0 -21 14.5 -35.5t35.5 -14.5t35.5 14.5t14.5 35.5t-14.5 35.5t-35.5 14.5zM264 124q-21 0 -35.5 -14.5t-14.5 -35.5q0 -20 15 -35t35 -15q21 0 35.5 14.5t14.5 35.5t-14.5 35.5t-35.5 14.5zM178 185q-21 0 -35.5 -15t-14.5 -36q0 -20 15 -34.5
t35 -14.5q21 0 35.5 14.5t14.5 35.5t-14.5 35.5t-35.5 14.5z" />
    <glyph glyph-name="nine" unicode="9" horiz-adv-x="640" 
d="M615 528q0 -112 -92 -253l-193 -296h-279l203 294q-105 8 -164 81q-56 69 -56 176q0 125 84 202q81 76 207 76q125 0 207.5 -77.5t82.5 -202.5zM500 639q0 21 -14.5 35.5t-35.5 14.5t-36 -14.5t-15 -35.5q0 -20 15 -35t35 -15q21 0 36 14.5t15 35.5zM406 694q0 20 -15 35
t-35 15q-21 0 -35.5 -14.5t-14.5 -35.5t14.5 -35.5t35.5 -14.5t35.5 14.5t14.5 35.5zM545 539q0 21 -14.5 35.5t-35.5 14.5t-35.5 -14.5t-14.5 -35.5t14.5 -35.5t35.5 -14.5q20 0 35 15t15 35zM300 679q0 20 -15 35t-35 15q-21 0 -35.5 -14.5t-14.5 -35.5t14.5 -35.5
t35.5 -14.5t35.5 14.5t14.5 35.5zM519 434q0 21 -14.5 35.5t-35.5 14.5t-35.5 -14.5t-14.5 -35.5t14.5 -35.5t35.5 -14.5t35.5 14.5t14.5 35.5zM324 466q26 0 41.5 18.5t15.5 45.5t-15.5 46t-41.5 19t-41.5 -19t-15.5 -46t15.5 -45.5t41.5 -18.5zM227 600q0 21 -14.5 35.5
t-35.5 14.5t-35.5 -14.5t-14.5 -35.5t14.5 -35.5t35.5 -14.5t35.5 14.5t14.5 35.5zM462 340q0 20 -14.5 35t-34.5 15q-21 0 -36 -14.5t-15 -35.5t14.5 -35.5t35.5 -14.5t35.5 14.5t14.5 35.5zM358 360q0 21 -14.5 35.5t-35.5 14.5q-20 0 -35 -15t-15 -35q0 -21 14.5 -35.5
t35.5 -14.5t35.5 14.5t14.5 35.5zM209 498q0 20 -15 35t-35 15q-21 0 -35.5 -14.5t-14.5 -35.5t14.5 -35.5t35.5 -14.5t35.5 14.5t14.5 35.5zM254 405q0 21 -14.5 35.5t-35.5 14.5t-35.5 -14.5t-14.5 -35.5t14.5 -35.5t35.5 -14.5t35.5 14.5t14.5 35.5zM406 245
q0 21 -14.5 35.5t-35.5 14.5t-35.5 -14.5t-14.5 -35.5t14.5 -35.5t35.5 -14.5q20 0 35 15t15 35zM349 151q0 21 -14.5 35.5t-35.5 14.5t-35.5 -14.5t-14.5 -35.5t14.5 -35.5t35.5 -14.5t35.5 14.5t14.5 35.5zM293 57q0 20 -15 35t-35 15q-21 0 -35.5 -14.5t-14.5 -35.5
t14 -35.5t35 -14.5t36 14.5t15 35.5z" />
    <glyph glyph-name="colon" unicode=":" horiz-adv-x="328" 
d="M164 320q-56 0 -91.5 35t-35.5 91t35.5 92.5t91.5 36.5q55 0 91 -37t36 -92q0 -56 -35.5 -91t-91.5 -35zM219 450q0 21 -14.5 35.5t-35.5 14.5t-35.5 -14.5t-14.5 -35.5t14.5 -35.5t35.5 -14.5t35.5 14.5t14.5 35.5zM164 -70q-56 0 -91.5 35t-35.5 91t35.5 92.5
t91.5 36.5q55 0 91 -37t36 -92q0 -56 -35.5 -91t-91.5 -35zM219 60q0 21 -14.5 35.5t-35.5 14.5t-35.5 -14.5t-14.5 -35.5t14.5 -35.5t35.5 -14.5t35.5 14.5t14.5 35.5z" />
    <glyph glyph-name="semicolon" unicode=";" horiz-adv-x="344" 
d="M184 320q-56 0 -91.5 35t-35.5 91t35.5 92.5t91.5 36.5q55 0 91 -37t36 -92q0 -56 -35.5 -91t-91.5 -35zM239 450q0 21 -14.5 35.5t-35.5 14.5t-35.5 -14.5t-14.5 -35.5t14.5 -35.5t35.5 -14.5t35.5 14.5t14.5 35.5zM315 181l-95 -350l-191 38l64 357zM244 136
q0 21 -14.5 35.5t-35.5 14.5t-35.5 -14.5t-14.5 -35.5t14.5 -35.5t35.5 -14.5t35.5 14.5t14.5 35.5zM216 30q0 21 -14.5 35.5t-35.5 14.5t-35.5 -14.5t-14.5 -35.5t14.5 -35.5t35.5 -14.5t35.5 14.5t14.5 35.5zM188 -81q0 21 -14.5 35.5t-35.5 14.5t-35.5 -14.5t-14.5 -35.5
t14.5 -35.5t35.5 -14.5t35.5 14.5t14.5 35.5z" />
    <glyph glyph-name="less" unicode="&#x3c;" horiz-adv-x="708" 
d="M671 -66l-665 258v182l665 258v-186l-414 -162l414 -163v-187zM585 552q-21 0 -35.5 -14.5t-14.5 -35.5t14.5 -35.5t35.5 -14.5t35.5 14.5t14.5 35.5t-14.5 35.5t-35.5 14.5zM483 510q-21 0 -35.5 -14.5t-14.5 -35.5q0 -20 15 -35t35 -15q21 0 35.5 14.5t14.5 35.5
t-14.5 35.5t-35.5 14.5zM381 469q-21 0 -35.5 -14.5t-14.5 -35.5q0 -20 15 -35t35 -15q21 0 35.5 14.5t14.5 35.5t-14.5 35.5t-35.5 14.5zM279 428q-21 0 -35.5 -14.5t-14.5 -35.5t14.5 -35.5t35.5 -14.5t35.5 14.5t14.5 35.5t-14.5 35.5t-35.5 14.5zM635 64
q0 21 -14.5 35.5t-35.5 14.5t-35.5 -14.5t-14.5 -35.5t14.5 -35.5t35.5 -14.5t35.5 14.5t14.5 35.5zM533 106q0 21 -14.5 35.5t-35.5 14.5q-20 0 -35 -15t-15 -35q0 -21 14.5 -35.5t35.5 -14.5t35.5 14.5t14.5 35.5zM431 147q0 21 -14.5 35.5t-35.5 14.5q-20 0 -35 -15
t-15 -35q0 -21 14.5 -35.5t35.5 -14.5t35.5 14.5t14.5 35.5zM177 387q-20 0 -35 -15t-15 -35q0 -21 14.5 -35.5t35.5 -14.5t35.5 14.5t14.5 35.5t-14.5 35.5t-35.5 14.5zM329 188q0 21 -14.5 35.5t-35.5 14.5t-35.5 -14.5t-14.5 -35.5t14.5 -35.5t35.5 -14.5t35.5 14.5
t14.5 35.5zM227 229q0 21 -14.5 35.5t-35.5 14.5t-35.5 -14.5t-14.5 -35.5q0 -20 15 -35t35 -15q21 0 35.5 14.5t14.5 35.5zM80 332q-21 0 -35.5 -14.5t-14.5 -35.5q0 -20 15 -35t35 -15q21 0 35.5 14.5t14.5 35.5t-14.5 35.5t-35.5 14.5z" />
    <glyph glyph-name="equal" unicode="=" horiz-adv-x="486" 
d="M449 327h-401v207h401v-207zM407 435q0 20 -15 35t-35 15q-21 0 -35.5 -14.5t-14.5 -35.5t14.5 -35.5t35.5 -14.5t35.5 14.5t14.5 35.5zM297 435q0 20 -15 35t-35 15q-21 0 -35.5 -14.5t-14.5 -35.5t14.5 -35.5t35.5 -14.5t35.5 14.5t14.5 35.5zM187 435q0 20 -15 35
t-35 15q-21 0 -35.5 -14.5t-14.5 -35.5t14.5 -35.5t35.5 -14.5t35.5 14.5t14.5 35.5zM449 47h-401v207h401v-207zM407 155q0 20 -15 35t-35 15q-21 0 -35.5 -14.5t-14.5 -35.5t14.5 -35.5t35.5 -14.5t35.5 14.5t14.5 35.5zM297 155q0 20 -15 35t-35 15q-21 0 -35.5 -14.5
t-14.5 -35.5t14.5 -35.5t35.5 -14.5t35.5 14.5t14.5 35.5zM187 155q0 20 -15 35t-35 15q-21 0 -35.5 -14.5t-14.5 -35.5t14.5 -35.5t35.5 -14.5t35.5 14.5t14.5 35.5z" />
    <glyph glyph-name="greater" unicode="&#x3e;" horiz-adv-x="720" 
d="M714 192l-666 -258v187l414 163l-414 162v186l666 -258v-182zM689 282q0 21 -14.5 35.5t-35.5 14.5t-35.5 -14.5t-14.5 -35.5q0 -20 15 -35t35 -15q21 0 35.5 14.5t14.5 35.5zM592 337q0 21 -14.5 35.5t-35.5 14.5q-20 0 -35 -15t-15 -35q0 -21 14.5 -35.5t35.5 -14.5
t35.5 14.5t14.5 35.5zM490 378q0 21 -14.5 35.5t-35.5 14.5t-35.5 -14.5t-14.5 -35.5t14.5 -35.5t35.5 -14.5t35.5 14.5t14.5 35.5zM542 279q-21 0 -35.5 -14.5t-14.5 -35.5q0 -20 15 -35t35 -15q21 0 35.5 14.5t14.5 35.5t-14.5 35.5t-35.5 14.5zM388 419q0 21 -14.5 35.5
t-35.5 14.5t-35.5 -14.5t-14.5 -35.5q0 -20 15 -35t35 -15q21 0 35.5 14.5t14.5 35.5zM286 460q0 21 -14.5 35.5t-35.5 14.5t-35.5 -14.5t-14.5 -35.5q0 -20 15 -35t35 -15q21 0 35.5 14.5t14.5 35.5zM184 502q0 21 -14.5 35.5t-35.5 14.5q-20 0 -35 -15t-15 -35
q0 -21 14.5 -35.5t35.5 -14.5t35.5 14.5t14.5 35.5zM440 238q-21 0 -35.5 -14.5t-14.5 -35.5t14.5 -35.5t35.5 -14.5t35.5 14.5t14.5 35.5t-14.5 35.5t-35.5 14.5zM338 197q-20 0 -35 -15t-15 -35q0 -21 14.5 -35.5t35.5 -14.5t35.5 14.5t14.5 35.5t-14.5 35.5t-35.5 14.5z
M236 156q-20 0 -35 -15t-15 -35q0 -21 14.5 -35.5t35.5 -14.5t35.5 14.5t14.5 35.5t-14.5 35.5t-35.5 14.5zM134 114q-21 0 -35.5 -14.5t-14.5 -35.5q0 -20 15 -35t35 -15q21 0 35.5 14.5t14.5 35.5t-14.5 35.5t-35.5 14.5z" />
    <glyph glyph-name="question" unicode="?" horiz-adv-x="577" 
d="M555 573q0 -79 -46 -138q-24 -30 -84 -77q-46 -36 -46 -56v-70h-235v92q0 62 44 115q18 22 81 76q44 38 44 61q0 26 -33 26q-44 0 -55 -63l-204 91q32 88 101.5 138.5t162.5 50.5q111 0 188 -67q82 -70 82 -179zM442 664q0 21 -14.5 35.5t-35.5 14.5t-35.5 -14.5
t-14.5 -35.5q0 -20 15 -35t35 -15q21 0 35.5 14.5t14.5 35.5zM503 570q0 21 -14.5 35.5t-35.5 14.5t-35.5 -14.5t-14.5 -35.5t14.5 -35.5t35.5 -14.5t35.5 14.5t14.5 35.5zM332 694q0 21 -14.5 35.5t-35.5 14.5t-35.5 -14.5t-14.5 -35.5q0 -20 15 -35t35 -15q21 0 35.5 14.5
t14.5 35.5zM440 479q0 20 -15 35t-35 15q-21 0 -35.5 -14.5t-14.5 -35.5t14.5 -35.5t35.5 -14.5t35.5 14.5t14.5 35.5zM222 654q0 21 -14.5 35.5t-35.5 14.5t-35.5 -14.5t-14.5 -35.5q0 -20 15 -35t35 -15q21 0 35.5 14.5t14.5 35.5zM369 404q0 20 -15 35t-35 15
q-21 0 -35.5 -14.5t-14.5 -35.5t14.5 -35.5t35.5 -14.5t35.5 14.5t14.5 35.5zM317 308q0 21 -14.5 35.5t-35.5 14.5t-35.5 -14.5t-14.5 -35.5q0 -20 15 -35t35 -15q21 0 35.5 14.5t14.5 35.5zM264 -40q-56 0 -91.5 35.5t-35.5 91.5t35.5 92t91.5 36t91.5 -36t35.5 -92
t-35.5 -91.5t-91.5 -35.5zM293 84q0 21 -14.5 36t-35.5 15t-35.5 -14.5t-14.5 -35.5t14.5 -35.5t35.5 -14.5q20 0 35 14.5t15 34.5z" />
    <glyph glyph-name="at" unicode="@" horiz-adv-x="1045" 
d="M1014 372q0 -104 -41 -185q-45 -89 -132 -135q-64 -34 -131 -34t-108 34q-43 -45 -108 -45q-91 0 -159.5 70.5t-68.5 161.5q0 127 69 208q73 87 197 87q97 0 159 -45q69 -51 69 -145q0 -67 -36 -150q5 -1 11 -1q32 0 64 37q25 29 40 67t15 74q0 113 -90 176
q-79 56 -197 56q-158 0 -263 -93q-110 -97 -110 -253q0 -147 101 -235q96 -84 245 -84q113 0 205 51l68 -122q-112 -77 -275 -77q-214 0 -356 124q-149 129 -149 340q0 225 158 365q152 133 380 133q185 0 308 -95q135 -105 135 -285zM858 617q-21 0 -35.5 -14.5
t-14.5 -35.5t14.5 -35.5t35.5 -14.5t35.5 14.5t14.5 35.5t-14.5 35.5t-35.5 14.5zM760 686q-21 0 -35.5 -14.5t-14.5 -35.5t14.5 -35.5t35.5 -14.5t35.5 14.5t14.5 35.5q0 20 -15 35t-35 15zM920 510q-21 0 -35.5 -14.5t-14.5 -35.5q0 -20 15 -35t35 -15q21 0 35.5 14.5
t14.5 35.5t-14.5 35.5t-35.5 14.5zM641 718q-21 0 -35.5 -14.5t-14.5 -35.5t14.5 -35.5t35.5 -14.5t35.5 14.5t14.5 35.5t-14.5 35.5t-35.5 14.5zM929 380q-20 0 -35 -15t-15 -35q0 -21 14.5 -35.5t35.5 -14.5t35.5 14.5t14.5 35.5t-14.5 35.5t-35.5 14.5zM519 721
q-21 0 -35.5 -14.5t-14.5 -35.5t14.5 -35.5t35.5 -14.5t35.5 14.5t14.5 35.5t-14.5 35.5t-35.5 14.5zM894 267q-21 0 -35.5 -14.5t-14.5 -35.5t14.5 -35.5t35.5 -14.5t35.5 14.5t14.5 35.5q0 20 -15 35t-35 15zM653 439q-21 0 -35.5 -14.5t-14.5 -35.5t14.5 -35.5
t35.5 -14.5t35.5 14.5t14.5 35.5t-14.5 35.5t-35.5 14.5zM391 692q-20 0 -35 -15t-15 -35q0 -21 14.5 -35.5t35.5 -14.5t35.5 14.5t14.5 35.5t-14.5 35.5t-35.5 14.5zM537 504q-21 0 -35.5 -14.5t-14.5 -35.5t14.5 -35.5t35.5 -14.5q20 0 35 15t15 35q0 21 -14.5 35.5
t-35.5 14.5zM810 187q-21 0 -35.5 -14.5t-14.5 -35.5q0 -20 15 -35t35 -15q21 0 35.5 14.5t14.5 35.5t-14.5 35.5t-35.5 14.5zM653 320q-21 0 -35.5 -14.5t-14.5 -35.5t14.5 -35.5t35.5 -14.5q20 0 35 15t15 35q0 21 -14.5 35.5t-35.5 14.5zM278 635q-21 0 -35.5 -14.5
t-14.5 -35.5q0 -20 15 -35t35 -15q21 0 35.5 14.5t14.5 35.5t-14.5 35.5t-35.5 14.5zM697 162q-20 0 -35 -15t-15 -35q0 -21 14.5 -35.5t35.5 -14.5t35.5 14.5t14.5 35.5t-14.5 35.5t-35.5 14.5zM409 445q-21 0 -35.5 -14.5t-14.5 -35.5t14.5 -35.5t35.5 -14.5t35.5 14.5
t14.5 35.5t-14.5 35.5t-35.5 14.5zM441 249q0 -67 42 -67q43 0 72 52q25 45 25 92q0 61 -40 61q-44 0 -73 -49q-26 -42 -26 -89zM599 213q-21 0 -35.5 -14.5t-14.5 -35.5t14.5 -35.5t35.5 -14.5t35.5 14.5t14.5 35.5t-14.5 35.5t-35.5 14.5zM192 546q-21 0 -35.5 -14.5
t-14.5 -35.5t14.5 -35.5t35.5 -14.5t35.5 14.5t14.5 35.5t-14.5 35.5t-35.5 14.5zM361 332q-21 0 -35.5 -14.5t-14.5 -35.5t14.5 -35.5t35.5 -14.5t35.5 14.5t14.5 35.5t-14.5 35.5t-35.5 14.5zM718 -52q-21 0 -35.5 -14.5t-14.5 -35.5q0 -20 15 -35t35 -15q21 0 35.5 14.5
t14.5 35.5t-14.5 35.5t-35.5 14.5zM495 154q-20 0 -35 -15t-15 -35q0 -21 14.5 -35.5t35.5 -14.5t35.5 14.5t14.5 35.5t-14.5 35.5t-35.5 14.5zM388 207q-21 0 -35.5 -14.5t-14.5 -35.5q0 -20 15 -35t35 -15q21 0 35.5 14.5t14.5 35.5t-14.5 35.5t-35.5 14.5zM136 433
q-21 0 -36 -14.5t-15 -35.5t15 -35.5t36 -14.5t35.5 14.5t14.5 35.5t-14.5 35.5t-35.5 14.5zM596 -78q-20 0 -35 -15t-15 -35q0 -21 14.5 -35.5t35.5 -14.5t35.5 14.5t14.5 35.5t-14.5 35.5t-35.5 14.5zM118 317q-21 0 -35.5 -14.5t-14.5 -35.5t14.5 -35.5t35.5 -14.5
q20 0 35 15t15 35q0 21 -14.5 35.5t-35.5 14.5zM474 -81q-20 0 -35 -15t-15 -35q0 -21 14.5 -35.5t35.5 -14.5t35.5 14.5t14.5 35.5t-14.5 35.5t-35.5 14.5zM130 198q-21 0 -35.5 -14.5t-14.5 -35.5t14.5 -35.5t35.5 -14.5q20 0 35 15t15 35q0 21 -14.5 35.5t-35.5 14.5z
M364 -44q-20 0 -35 -15t-15 -35q0 -21 14.5 -36t35.5 -15t35.5 15t14.5 36t-14.5 35.5t-35.5 14.5zM177 91q-21 0 -35.5 -14.5t-14.5 -35.5q0 -20 15 -35t35 -15q21 0 35.5 14.5t14.5 35.5t-14.5 35.5t-35.5 14.5zM260 8q-21 0 -35.5 -14.5t-14.5 -35.5t14.5 -35.5
t35.5 -14.5t35.5 14.5t14.5 35.5t-14.5 35.5t-35.5 14.5z" />
    <glyph glyph-name="A" unicode="A" horiz-adv-x="893" 
d="M869 -25h-267l-26 86h-258l-27 -86h-267l283 814h279zM551 690q0 20 -15 35t-35 15q-21 0 -35.5 -14.5t-14.5 -35.5t14.5 -35.5t35.5 -14.5t35.5 14.5t14.5 35.5zM530 636q-20 0 -35 -15t-15 -35q0 -21 14.5 -35.5t35.5 -14.5t35.5 14.5t14.5 35.5t-14.5 35.5t-35.5 14.5
zM441 690q0 20 -15 35t-35 15q-21 0 -35.5 -14.5t-14.5 -35.5t14.5 -35.5t35.5 -14.5t35.5 14.5t14.5 35.5zM566 532q-20 0 -35 -15t-15 -35q0 -21 14.5 -35.5t35.5 -14.5t35.5 14.5t14.5 35.5t-14.5 35.5t-35.5 14.5zM602 428q-21 0 -35.5 -14.5t-14.5 -35.5t14.5 -35.5
t35.5 -14.5t35.5 14.5t14.5 35.5t-14.5 35.5t-35.5 14.5zM407 586q0 21 -15 35.5t-36 14.5q-17 0 -30 -8q-16 -10 -16 -26q0 -66 47 -66q21 0 35.5 14.5t14.5 35.5zM638 324q-21 0 -35.5 -14.5t-14.5 -35.5t14.5 -35.5t35.5 -14.5t35.5 14.5t14.5 35.5q0 20 -15 35t-35 15z
M674 220q-21 0 -35.5 -14.5t-14.5 -35.5t14.5 -35.5t35.5 -14.5t35.5 14.5t14.5 35.5q0 20 -15 35t-35 15zM516 264l-70 236l-69 -236h139zM371 482q0 21 -15 35.5t-36 14.5q-17 0 -30 -8q-16 -10 -16 -26q0 -66 47 -66q21 0 35.5 14.5t14.5 35.5zM709 116q-20 0 -35 -15
t-15 -35q0 -21 14.5 -35.5t35.5 -14.5t35.5 14.5t14.5 35.5t-14.5 35.5t-35.5 14.5zM613 165q0 21 -14.5 35.5t-35.5 14.5t-35.5 -14.5t-14.5 -35.5q0 -20 15 -35t35 -15q21 0 35.5 14.5t14.5 35.5zM335 378q0 21 -14.5 35.5t-35.5 14.5q-20 0 -35 -15t-15 -35
q0 -21 14.5 -35.5t35.5 -14.5t35.5 14.5t14.5 35.5zM494 165q0 21 -14.5 35.5t-35.5 14.5t-35.5 -14.5t-14.5 -35.5q0 -20 15 -35t35 -15q21 0 35.5 14.5t14.5 35.5zM300 274q0 21 -15 35.5t-36 14.5q-20 0 -35 -15t-15 -35q0 -21 14.5 -35.5t35.5 -14.5t36 14.5t15 35.5z
M377 165q0 21 -14.5 35.5t-35.5 14.5t-35.5 -14.5t-14.5 -35.5q0 -20 15 -35t35 -15q21 0 35.5 14.5t14.5 35.5zM264 170q0 20 -15 35t-35 15q-21 0 -35.5 -14.5t-14.5 -35.5t14.5 -35.5t35.5 -14.5t35.5 14.5t14.5 35.5zM228 66q0 20 -15 35t-35 15q-21 0 -35.5 -14.5
t-14.5 -35.5t14.5 -35.5t35.5 -14.5t35.5 14.5t14.5 35.5z" />
    <glyph glyph-name="B" unicode="B" horiz-adv-x="669" 
d="M632 226q0 -127 -83 -192q-75 -59 -206 -59h-295v814h309q113 0 183 -59q75 -62 75 -173q0 -99 -69 -159q86 -55 86 -172zM523 625q0 21 -14.5 35.5t-35.5 14.5t-35.5 -14.5t-14.5 -35.5t14.5 -35.5t35.5 -14.5q20 0 35 15t15 35zM434 694q0 20 -15 35t-35 15
q-21 0 -35.5 -14.5t-14.5 -35.5t14.5 -35.5t35.5 -14.5t35.5 14.5t14.5 35.5zM548 521q0 21 -14.5 35.5t-35.5 14.5t-35.5 -14t-14.5 -35t14.5 -36t35.5 -15q20 0 35 15t15 35zM327 696q0 21 -14.5 36t-35.5 15t-35.5 -14.5t-14.5 -35.5t14.5 -35.5t35.5 -14.5q20 0 35 14.5
t15 34.5zM372 536q0 40 -26 52q-15 7 -61 8v-120q44 1 61 9q26 12 26 51zM212 690q0 21 -14.5 35.5t-35.5 14.5t-35.5 -14.5t-14.5 -35.5t14.5 -35.5t35.5 -14.5t35.5 14.5t14.5 35.5zM467 430q0 21 -14.5 35.5t-35.5 14.5t-35.5 -14.5t-14.5 -35.5t14.5 -35.5t35.5 -14.5
t35.5 14.5t14.5 35.5zM533 335q0 21 -14.5 35.5t-35.5 14.5q-20 0 -35 -15t-15 -35q0 -21 14.5 -35.5t35.5 -14.5t35.5 14.5t14.5 35.5zM566 235q0 21 -14.5 35.5t-35.5 14.5t-35.5 -14.5t-14.5 -35.5t14.5 -35.5t35.5 -14.5t35.5 14.5t14.5 35.5zM212 570q0 21 -14.5 35.5
t-35.5 14.5t-35.5 -14.5t-14.5 -35.5t14.5 -35.5t35.5 -14.5t35.5 14.5t14.5 35.5zM354 397q0 21 -14.5 35.5t-35.5 14.5t-35.5 -14.5t-14.5 -35.5q0 -20 14.5 -35t34.5 -15q21 0 36 14.5t15 35.5zM212 450q0 21 -14.5 35.5t-35.5 14.5t-35.5 -14.5t-14.5 -35.5t14.5 -35.5
t35.5 -14.5t35.5 14.5t14.5 35.5zM385 241q0 65 -84 65h-16v-129h32q29 0 48.5 18t19.5 46zM212 330q0 21 -14.5 35.5t-35.5 14.5t-35.5 -14.5t-14.5 -35.5t14.5 -35.5t35.5 -14.5t35.5 14.5t14.5 35.5zM444 101q15 -16 37 -16q21 0 35.5 14t14.5 35t-14.5 36t-35.5 15
q-23 0 -37.5 -17t-12.5 -40q-14 16 -36 16q-21 0 -35.5 -14.5t-14.5 -35.5t14.5 -35.5t35.5 -14.5q23 0 37.5 17t11.5 40zM212 200q0 21 -14.5 35.5t-35.5 14.5t-35.5 -14.5t-14.5 -35.5t14.5 -35.5t35.5 -14.5t35.5 14.5t14.5 35.5zM332 80q0 21 -14.5 35.5t-35.5 14.5
t-35.5 -14.5t-14.5 -35.5t14.5 -35.5t35.5 -14.5t35.5 14.5t14.5 35.5zM212 80q0 21 -14.5 35.5t-35.5 14.5t-35.5 -14.5t-14.5 -35.5t14.5 -35.5t35.5 -14.5t35.5 14.5t14.5 35.5zM444 101q-10 11 -13 27q11 -12 13 -27z" />
    <glyph glyph-name="C" unicode="C" horiz-adv-x="863" 
d="M835 163q-55 -91 -160 -147t-214 -56q-184 0 -306 119t-122 303q0 185 121 303.5t307 118.5q100 0 195 -45t161 -122l-184 -176q-51 114 -166 114q-82 0 -132 -55t-50 -138t50 -138t132 -55q52 0 102 38q47 36 66 86zM724 589q0 21 -14.5 35.5t-35.5 14.5t-35.5 -14.5
t-14.5 -35.5t14.5 -35.5t35.5 -14.5q20 0 35 15t15 35zM633 661q0 21 -14.5 35.5t-35.5 14.5t-35.5 -14.5t-14.5 -35.5t14.5 -35.5t35.5 -14.5q20 0 35 15t15 35zM507 691q0 21 -14.5 35.5t-35.5 14.5q-20 0 -35 -15t-15 -35q0 -21 14.5 -35.5t35.5 -14.5t35.5 14.5
t14.5 35.5zM392 661q0 21 -14.5 35.5t-35.5 14.5t-35.5 -14.5t-14.5 -35.5t14.5 -35.5t35.5 -14.5q20 0 35 15t15 35zM724 174q0 21 -14.5 35.5t-35.5 14.5t-35.5 -14.5t-14.5 -35.5t14.5 -35.5t35.5 -14.5q20 0 35 15t15 35zM301 589q0 21 -14.5 35.5t-35.5 14.5
t-35.5 -14.5t-14.5 -35.5t14.5 -35.5t35.5 -14.5q20 0 35 15t15 35zM633 102q0 21 -14.5 35.5t-35.5 14.5t-35.5 -14.5t-14.5 -35.5t14.5 -35.5t35.5 -14.5q20 0 35 15t15 35zM237 494q0 21 -14.5 35.5t-35.5 14.5t-35.5 -14.5t-14.5 -35.5q0 -20 15 -35t35 -15
q21 0 35.5 14.5t14.5 35.5zM217 382q0 21 -14.5 35.5t-35.5 14.5t-35.5 -14.5t-14.5 -35.5t14.5 -35.5t35.5 -14.5t35.5 14.5t14.5 35.5zM507 73q0 21 -14.5 35.5t-35.5 14.5t-35.5 -14.5t-14.5 -35.5t14.5 -35.5t35.5 -14.5t35.5 14.5t14.5 35.5zM237 269q0 21 -14.5 35.5
t-35.5 14.5t-35.5 -14.5t-14.5 -35.5q0 -20 15 -35t35 -15q21 0 35.5 14.5t14.5 35.5zM392 102q0 21 -14.5 35.5t-35.5 14.5t-35.5 -14.5t-14.5 -35.5t14.5 -35.5t35.5 -14.5q20 0 35 15t15 35zM301 174q0 21 -14.5 35.5t-35.5 14.5t-35.5 -14.5t-14.5 -35.5t14.5 -35.5
t35.5 -14.5q20 0 35 15t15 35z" />
    <glyph glyph-name="D" unicode="D" horiz-adv-x="743" 
d="M712 389q0 -110 -50 -205q-51 -99 -142 -154t-247 -55h-225v816h225q138 0 228 -43q103 -48 162 -160q49 -92 49 -199zM552 589q0 21 -14.5 35.5t-35.5 14.5t-35.5 -14.5t-14.5 -35.5t14.5 -35.5t35.5 -14.5q20 0 35 15t15 35zM461 661q0 21 -14.5 35.5t-35.5 14.5
t-35.5 -14.5t-14.5 -35.5t14.5 -35.5t35.5 -14.5q20 0 35 15t15 35zM615 494q0 21 -14.5 35.5t-35.5 14.5t-35.5 -14.5t-14.5 -35.5t14.5 -35.5t35.5 -14.5t35.5 14.5t14.5 35.5zM335 691q0 21 -14.5 35.5t-35.5 14.5q-20 0 -35 -15t-15 -35q0 -21 14.5 -35.5t35.5 -14.5
t35.5 14.5t14.5 35.5zM636 382q0 20 -15 35t-35 15q-21 0 -35.5 -14.5t-14.5 -35.5t14.5 -35.5t35.5 -14.5t35.5 14.5t14.5 35.5zM222 686q0 21 -14.5 35.5t-35.5 14.5t-35.5 -14.5t-14.5 -35.5t14.5 -35.5t35.5 -14.5t35.5 14.5t14.5 35.5zM615 269q0 21 -14.5 35.5
t-35.5 14.5t-35.5 -14.5t-14.5 -35.5t14.5 -35.5t35.5 -14.5t35.5 14.5t14.5 35.5zM457 383q0 195 -177 195v-390q89 0 134 54q43 51 43 141zM222 566q0 21 -14.5 35.5t-35.5 14.5t-35.5 -14.5t-14.5 -35.5t14.5 -35.5t35.5 -14.5t35.5 14.5t14.5 35.5zM552 174
q0 21 -14.5 35.5t-35.5 14.5t-35.5 -14.5t-14.5 -35.5t14.5 -35.5t35.5 -14.5q20 0 35 15t15 35zM222 446q0 21 -14.5 35.5t-35.5 14.5t-35.5 -14.5t-14.5 -35.5t14.5 -35.5t35.5 -14.5t35.5 14.5t14.5 35.5zM461 102q0 21 -14.5 35.5t-35.5 14.5t-35.5 -14.5t-14.5 -35.5
t14.5 -35.5t35.5 -14.5q20 0 35 15t15 35zM222 326q0 21 -14.5 35.5t-35.5 14.5t-35.5 -14.5t-14.5 -35.5t14.5 -35.5t35.5 -14.5t35.5 14.5t14.5 35.5zM222 206q0 21 -14.5 35.5t-35.5 14.5t-35.5 -14.5t-14.5 -35.5t14.5 -35.5t35.5 -14.5t35.5 14.5t14.5 35.5zM335 73
q0 21 -14.5 35.5t-35.5 14.5t-35.5 -14.5t-14.5 -35.5t14.5 -35.5t35.5 -14.5t35.5 14.5t14.5 35.5zM222 86q0 21 -14.5 35.5t-35.5 14.5t-35.5 -14.5t-14.5 -35.5t14.5 -35.5t35.5 -14.5t35.5 14.5t14.5 35.5z" />
    <glyph glyph-name="E" unicode="E" horiz-adv-x="575" 
d="M536 -25h-488v814h488v-206h-236v-94h236v-206h-236v-95h236v-213zM462 686q0 21 -14.5 35.5t-35.5 14.5t-35.5 -14.5t-14.5 -35.5t14.5 -35.5t35.5 -14.5t35.5 14.5t14.5 35.5zM342 686q0 21 -14.5 35.5t-35.5 14.5t-35.5 -14.5t-14.5 -35.5t14.5 -35.5t35.5 -14.5
t35.5 14.5t14.5 35.5zM222 686q0 21 -14.5 35.5t-35.5 14.5t-35.5 -14.5t-14.5 -35.5t14.5 -35.5t35.5 -14.5t35.5 14.5t14.5 35.5zM462 386q0 21 -14.5 35.5t-35.5 14.5t-35.5 -14.5t-14.5 -35.5t14.5 -35.5t35.5 -14.5t35.5 14.5t14.5 35.5zM222 566q0 21 -14.5 35.5
t-35.5 14.5t-35.5 -14.5t-14.5 -35.5t14.5 -35.5t35.5 -14.5t35.5 14.5t14.5 35.5zM342 386q0 21 -14.5 35.5t-35.5 14.5t-35.5 -14.5t-14.5 -35.5t14.5 -35.5t35.5 -14.5t35.5 14.5t14.5 35.5zM222 446q0 21 -14.5 35.5t-35.5 14.5t-35.5 -14.5t-14.5 -35.5t14.5 -35.5
t35.5 -14.5t35.5 14.5t14.5 35.5zM222 326q0 21 -14.5 35.5t-35.5 14.5t-35.5 -14.5t-14.5 -35.5t14.5 -35.5t35.5 -14.5t35.5 14.5t14.5 35.5zM462 86q0 21 -14.5 35.5t-35.5 14.5t-35.5 -14.5t-14.5 -35.5t14.5 -35.5t35.5 -14.5t35.5 14.5t14.5 35.5zM222 206
q0 21 -14.5 35.5t-35.5 14.5t-35.5 -14.5t-14.5 -35.5t14.5 -35.5t35.5 -14.5t35.5 14.5t14.5 35.5zM342 86q0 21 -14.5 35.5t-35.5 14.5t-35.5 -14.5t-14.5 -35.5t14.5 -35.5t35.5 -14.5t35.5 14.5t14.5 35.5zM222 86q0 21 -14.5 35.5t-35.5 14.5t-35.5 -14.5t-14.5 -35.5
t14.5 -35.5t35.5 -14.5t35.5 14.5t14.5 35.5z" />
    <glyph glyph-name="F" unicode="F" horiz-adv-x="560" 
d="M536 283h-236v-308h-252v814h488v-206h-236v-94h236v-206zM462 686q0 21 -14.5 35.5t-35.5 14.5t-35.5 -14.5t-14.5 -35.5t14.5 -35.5t35.5 -14.5t35.5 14.5t14.5 35.5zM342 686q0 21 -14.5 35.5t-35.5 14.5t-35.5 -14.5t-14.5 -35.5t14.5 -35.5t35.5 -14.5t35.5 14.5
t14.5 35.5zM222 686q0 21 -14.5 35.5t-35.5 14.5t-35.5 -14.5t-14.5 -35.5t14.5 -35.5t35.5 -14.5t35.5 14.5t14.5 35.5zM462 386q0 21 -14.5 35.5t-35.5 14.5t-35.5 -14.5t-14.5 -35.5t14.5 -35.5t35.5 -14.5t35.5 14.5t14.5 35.5zM222 566q0 21 -14.5 35.5t-35.5 14.5
t-35.5 -14.5t-14.5 -35.5t14.5 -35.5t35.5 -14.5t35.5 14.5t14.5 35.5zM342 386q0 21 -14.5 35.5t-35.5 14.5t-35.5 -14.5t-14.5 -35.5t14.5 -35.5t35.5 -14.5t35.5 14.5t14.5 35.5zM222 446q0 21 -14.5 35.5t-35.5 14.5t-35.5 -14.5t-14.5 -35.5t14.5 -35.5t35.5 -14.5
t35.5 14.5t14.5 35.5zM222 326q0 21 -14.5 35.5t-35.5 14.5t-35.5 -14.5t-14.5 -35.5t14.5 -35.5t35.5 -14.5t35.5 14.5t14.5 35.5zM222 206q0 21 -14.5 35.5t-35.5 14.5t-35.5 -14.5t-14.5 -35.5t14.5 -35.5t35.5 -14.5t35.5 14.5t14.5 35.5zM222 86q0 21 -14.5 35.5
t-35.5 14.5t-35.5 -14.5t-14.5 -35.5t14.5 -35.5t35.5 -14.5t35.5 14.5t14.5 35.5z" />
    <glyph glyph-name="G" unicode="G" horiz-adv-x="923" 
d="M892 387q0 -188 -120.5 -307t-308.5 -119q-187 0 -308 117t-121 304q0 182 120.5 300t302.5 118q158 0 293 -102q60 -45 93 -95l-220 -129q-65 97 -166 97q-77 0 -125 -57q-44 -53 -44 -132q0 -83 49 -139t131 -56q91 0 143 71h-178v204h455zM725 589q0 21 -14.5 35.5
t-35.5 14.5t-35.5 -14.5t-14.5 -35.5t14.5 -35.5t35.5 -14.5q20 0 35 15t15 35zM634 661q0 21 -14.5 35.5t-35.5 14.5t-35.5 -14.5t-14.5 -35.5t14.5 -35.5t35.5 -14.5q20 0 35 15t15 35zM508 691q0 21 -14.5 35.5t-35.5 14.5q-20 0 -35 -15t-15 -35q0 -21 14.5 -35.5
t35.5 -14.5t35.5 14.5t14.5 35.5zM809 360q0 20 -15 35t-35 15q-21 0 -35.5 -14.5t-14.5 -35.5t14.5 -35.5t35.5 -14.5t35.5 14.5t14.5 35.5zM699 360q0 20 -15 35t-35 15q-21 0 -35.5 -14.5t-14.5 -35.5t14.5 -35.5t35.5 -14.5t35.5 14.5t14.5 35.5zM393 661
q0 21 -14.5 35.5t-35.5 14.5t-35.5 -14.5t-14.5 -35.5t14.5 -35.5t35.5 -14.5q20 0 35 15t15 35zM784 251q0 21 -14.5 35.5t-35.5 14.5t-35.5 -14.5t-14.5 -35.5t14.5 -35.5t35.5 -14.5t35.5 14.5t14.5 35.5zM589 360q0 20 -15 35t-35 15q-21 0 -35.5 -14.5t-14.5 -35.5
t14.5 -35.5t35.5 -14.5t35.5 14.5t14.5 35.5zM302 589q0 21 -14.5 35.5t-35.5 14.5t-35.5 -14.5t-14.5 -35.5t14.5 -35.5t35.5 -14.5q20 0 35 15t15 35zM716 159q0 21 -14.5 35.5t-35.5 14.5t-35.5 -14.5t-14.5 -35.5t14.5 -35.5t35.5 -14.5q20 0 35 15t15 35zM238 494
q0 21 -14.5 35.5t-35.5 14.5t-35.5 -14.5t-14.5 -35.5q0 -20 15 -35t35 -15q21 0 35.5 14.5t14.5 35.5zM625 94q0 21 -14.5 35.5t-35.5 14.5t-35.5 -14.5t-14.5 -35.5t14.5 -35.5t35.5 -14.5q20 0 35 15t15 35zM218 382q0 21 -14.5 35.5t-35.5 14.5t-35.5 -14.5t-14.5 -35.5
t14.5 -35.5t35.5 -14.5t35.5 14.5t14.5 35.5zM508 73q0 21 -14.5 35.5t-35.5 14.5t-35.5 -14.5t-14.5 -35.5t14.5 -35.5t35.5 -14.5t35.5 14.5t14.5 35.5zM238 269q0 21 -14.5 35.5t-35.5 14.5t-35.5 -14.5t-14.5 -35.5q0 -20 15 -35t35 -15q21 0 35.5 14.5t14.5 35.5z
M393 102q0 21 -14.5 35.5t-35.5 14.5t-35.5 -14.5t-14.5 -35.5t14.5 -35.5t35.5 -14.5q20 0 35 15t15 35zM302 174q0 21 -14.5 35.5t-35.5 14.5t-35.5 -14.5t-14.5 -35.5t14.5 -35.5t35.5 -14.5q20 0 35 15t15 35z" />
    <glyph glyph-name="H" unicode="H" horiz-adv-x="785" 
d="M736 -25h-252v306h-184v-306h-252v814h252v-295h184v295h252v-814zM663 686q0 21 -14.5 35.5t-35.5 14.5t-35.5 -14.5t-14.5 -35.5t14.5 -35.5t35.5 -14.5t35.5 14.5t14.5 35.5zM663 566q0 21 -14.5 35.5t-35.5 14.5t-35.5 -14.5t-14.5 -35.5t14.5 -35.5t35.5 -14.5
t35.5 14.5t14.5 35.5zM663 446q0 21 -14.5 35.5t-35.5 14.5t-35.5 -14.5t-14.5 -35.5t14.5 -35.5t35.5 -14.5t35.5 14.5t14.5 35.5zM663 326q0 21 -14.5 35.5t-35.5 14.5t-35.5 -14.5t-14.5 -35.5t14.5 -35.5t35.5 -14.5t35.5 14.5t14.5 35.5zM560 390q0 21 -14.5 35.5
t-35.5 14.5t-35.5 -14.5t-14.5 -35.5t14.5 -35.5t35.5 -14.5t35.5 14.5t14.5 35.5zM223 686q0 21 -14.5 35.5t-35.5 14.5t-35.5 -14.5t-14.5 -35.5t14.5 -35.5t35.5 -14.5t35.5 14.5t14.5 35.5zM663 206q0 21 -14.5 35.5t-35.5 14.5t-35.5 -14.5t-14.5 -35.5t14.5 -35.5
t35.5 -14.5t35.5 14.5t14.5 35.5zM450 390q0 21 -14.5 35.5t-35.5 14.5t-35.5 -14.5t-14.5 -35.5t14.5 -35.5t35.5 -14.5t35.5 14.5t14.5 35.5zM223 566q0 21 -14.5 35.5t-35.5 14.5t-35.5 -14.5t-14.5 -35.5t14.5 -35.5t35.5 -14.5t35.5 14.5t14.5 35.5zM663 86
q0 21 -14.5 35.5t-35.5 14.5t-35.5 -14.5t-14.5 -35.5t14.5 -35.5t35.5 -14.5t35.5 14.5t14.5 35.5zM340 390q0 21 -14.5 35.5t-35.5 14.5t-35.5 -14.5t-14.5 -35.5t14.5 -35.5t35.5 -14.5t35.5 14.5t14.5 35.5zM223 446q0 21 -14.5 35.5t-35.5 14.5t-35.5 -14.5
t-14.5 -35.5t14.5 -35.5t35.5 -14.5t35.5 14.5t14.5 35.5zM223 326q0 21 -14.5 35.5t-35.5 14.5t-35.5 -14.5t-14.5 -35.5t14.5 -35.5t35.5 -14.5t35.5 14.5t14.5 35.5zM223 206q0 21 -14.5 35.5t-35.5 14.5t-35.5 -14.5t-14.5 -35.5t14.5 -35.5t35.5 -14.5t35.5 14.5
t14.5 35.5zM223 86q0 21 -14.5 35.5t-35.5 14.5t-35.5 -14.5t-14.5 -35.5t14.5 -35.5t35.5 -14.5t35.5 14.5t14.5 35.5z" />
    <glyph glyph-name="I" unicode="I" 
d="M302 -25h-254v814h254v-814zM222 686q0 21 -14.5 35.5t-35.5 14.5t-35.5 -14.5t-14.5 -35.5t14.5 -35.5t35.5 -14.5t35.5 14.5t14.5 35.5zM222 566q0 21 -14.5 35.5t-35.5 14.5t-35.5 -14.5t-14.5 -35.5t14.5 -35.5t35.5 -14.5t35.5 14.5t14.5 35.5zM222 446
q0 21 -14.5 35.5t-35.5 14.5t-35.5 -14.5t-14.5 -35.5t14.5 -35.5t35.5 -14.5t35.5 14.5t14.5 35.5zM222 326q0 21 -14.5 35.5t-35.5 14.5t-35.5 -14.5t-14.5 -35.5t14.5 -35.5t35.5 -14.5t35.5 14.5t14.5 35.5zM222 206q0 21 -14.5 35.5t-35.5 14.5t-35.5 -14.5
t-14.5 -35.5t14.5 -35.5t35.5 -14.5t35.5 14.5t14.5 35.5zM222 86q0 21 -14.5 35.5t-35.5 14.5t-35.5 -14.5t-14.5 -35.5t14.5 -35.5t35.5 -14.5t35.5 14.5t14.5 35.5z" />
    <glyph glyph-name="J" unicode="J" horiz-adv-x="498" 
d="M456 286q0 -156 -77 -240q-80 -86 -235 -86h-124v223h30q92 0 115 13q39 22 39 102v491h252v-503zM388 686q0 21 -14.5 35.5t-35.5 14.5t-35.5 -14.5t-14.5 -35.5t14.5 -35.5t35.5 -14.5t35.5 14.5t14.5 35.5zM388 566q0 21 -14.5 35.5t-35.5 14.5t-35.5 -14.5
t-14.5 -35.5t14.5 -35.5t35.5 -14.5t35.5 14.5t14.5 35.5zM388 446q0 21 -14.5 35.5t-35.5 14.5t-35.5 -14.5t-14.5 -35.5t14.5 -35.5t35.5 -14.5t35.5 14.5t14.5 35.5zM388 326q0 21 -14.5 35.5t-35.5 14.5t-35.5 -14.5t-14.5 -35.5t14.5 -35.5t35.5 -14.5t35.5 14.5
t14.5 35.5zM368 206q0 21 -14.5 35.5t-35.5 14.5t-35.5 -14.5t-14.5 -35.5t14.5 -35.5t35.5 -14.5t35.5 14.5t14.5 35.5zM308 106q0 21 -14.5 35.5t-35.5 14.5t-35.5 -14.5t-14.5 -35.5t14.5 -35.5t35.5 -14.5t35.5 14.5t14.5 35.5zM188 76q0 21 -14.5 35.5t-35.5 14.5
t-35.5 -14.5t-14.5 -35.5t14.5 -35.5t35.5 -14.5t35.5 14.5t14.5 35.5z" />
    <glyph glyph-name="K" unicode="K" horiz-adv-x="704" 
d="M665 -25h-280l-85 174v-174h-252v814h252v-147l74 147h284l-209 -384zM529 697q0 20 -15 35t-35 15q-21 0 -35.5 -14.5t-14.5 -35.5t14.5 -35.5t35.5 -14.5t35.5 14.5t14.5 35.5zM462 593q0 21 -14.5 35.5t-35.5 14.5t-35.5 -14.5t-14.5 -35.5t14.5 -35.5t35.5 -14.5
q20 0 35 15t15 35zM222 686q0 21 -14.5 35.5t-35.5 14.5t-35.5 -14.5t-14.5 -35.5t14.5 -35.5t35.5 -14.5t35.5 14.5t14.5 35.5zM399 495q0 21 -14.5 35.5t-35.5 14.5t-35.5 -14.5t-14.5 -35.5t14.5 -35.5t35.5 -14.5t35.5 14.5t14.5 35.5zM222 566q0 21 -14.5 35.5
t-35.5 14.5t-35.5 -14.5t-14.5 -35.5t14.5 -35.5t35.5 -14.5t35.5 14.5t14.5 35.5zM335 390q0 21 -14.5 35.5t-35.5 14.5t-35.5 -14.5t-14.5 -35.5t14.5 -35.5t35.5 -14.5t35.5 14.5t14.5 35.5zM406 284q0 21 -14.5 35.5t-35.5 14.5t-35.5 -14.5t-14.5 -35.5t14.5 -35.5
t35.5 -14.5t35.5 14.5t14.5 35.5zM222 446q0 21 -14.5 35.5t-35.5 14.5t-35.5 -14.5t-14.5 -35.5t14.5 -35.5t35.5 -14.5t35.5 14.5t14.5 35.5zM468 177q0 21 -14.5 35.5t-35.5 14.5t-35.5 -14.5t-14.5 -35.5t14.5 -35.5t35.5 -14.5t35.5 14.5t14.5 35.5zM526 73
q0 21 -14.5 35.5t-35.5 14.5t-35.5 -14.5t-14.5 -35.5t14.5 -35.5t35.5 -14.5t35.5 14.5t14.5 35.5zM222 326q0 21 -14.5 35.5t-35.5 14.5t-35.5 -14.5t-14.5 -35.5t14.5 -35.5t35.5 -14.5t35.5 14.5t14.5 35.5zM222 206q0 21 -14.5 35.5t-35.5 14.5t-35.5 -14.5
t-14.5 -35.5t14.5 -35.5t35.5 -14.5t35.5 14.5t14.5 35.5zM222 86q0 21 -14.5 35.5t-35.5 14.5t-35.5 -14.5t-14.5 -35.5t14.5 -35.5t35.5 -14.5t35.5 14.5t14.5 35.5z" />
    <glyph glyph-name="L" unicode="L" horiz-adv-x="513" 
d="M493 -25h-445v814h252v-601h193v-213zM222 686q0 21 -14.5 35.5t-35.5 14.5t-35.5 -14.5t-14.5 -35.5t14.5 -35.5t35.5 -14.5t35.5 14.5t14.5 35.5zM222 566q0 21 -14.5 35.5t-35.5 14.5t-35.5 -14.5t-14.5 -35.5t14.5 -35.5t35.5 -14.5t35.5 14.5t14.5 35.5zM222 446
q0 21 -14.5 35.5t-35.5 14.5t-35.5 -14.5t-14.5 -35.5t14.5 -35.5t35.5 -14.5t35.5 14.5t14.5 35.5zM222 326q0 21 -14.5 35.5t-35.5 14.5t-35.5 -14.5t-14.5 -35.5t14.5 -35.5t35.5 -14.5t35.5 14.5t14.5 35.5zM462 86q0 21 -14.5 35.5t-35.5 14.5t-35.5 -14.5t-14.5 -35.5
t14.5 -35.5t35.5 -14.5t35.5 14.5t14.5 35.5zM222 206q0 21 -14.5 35.5t-35.5 14.5t-35.5 -14.5t-14.5 -35.5t14.5 -35.5t35.5 -14.5t35.5 14.5t14.5 35.5zM342 86q0 21 -14.5 35.5t-35.5 14.5t-35.5 -14.5t-14.5 -35.5t14.5 -35.5t35.5 -14.5t35.5 14.5t14.5 35.5zM222 86
q0 21 -14.5 35.5t-35.5 14.5t-35.5 -14.5t-14.5 -35.5t14.5 -35.5t35.5 -14.5t35.5 14.5t14.5 35.5z" />
    <glyph glyph-name="M" unicode="M" horiz-adv-x="999" 
d="M953 -25h-236v415l-219 -470l-216 468v-413h-236v814h285l169 -372l177 372h276v-814zM879 686q0 21 -14.5 35.5t-35.5 14.5t-35.5 -14.5t-14.5 -35.5t14.5 -35.5t35.5 -14.5t35.5 14.5t14.5 35.5zM879 566q0 21 -14.5 35.5t-35.5 14.5t-35.5 -14.5t-14.5 -35.5
t14.5 -35.5t35.5 -14.5t35.5 14.5t14.5 35.5zM766 627q0 21 -14.5 35.5t-35.5 14.5t-35.5 -14.5t-14.5 -35.5t14.5 -35.5t35.5 -14.5t35.5 14.5t14.5 35.5zM879 446q0 21 -14.5 35.5t-35.5 14.5t-35.5 -14.5t-14.5 -35.5t14.5 -35.5t35.5 -14.5t35.5 14.5t14.5 35.5z
M715 518q0 21 -14.5 35.5t-35.5 14.5t-35.5 -14.5t-14.5 -35.5t14.5 -35.5t35.5 -14.5t35.5 14.5t14.5 35.5zM879 326q0 21 -14.5 35.5t-35.5 14.5t-35.5 -14.5t-14.5 -35.5t14.5 -35.5t35.5 -14.5t35.5 14.5t14.5 35.5zM879 206q0 21 -14.5 35.5t-35.5 14.5t-35.5 -14.5
t-14.5 -35.5t14.5 -35.5t35.5 -14.5t35.5 14.5t14.5 35.5zM664 409q0 21 -14.5 35.5t-35.5 14.5t-35.5 -14.5t-14.5 -35.5q0 -20 15 -35t35 -15q21 0 35.5 14.5t14.5 35.5zM879 86q0 21 -14.5 35.5t-35.5 14.5t-35.5 -14.5t-14.5 -35.5t14.5 -35.5t35.5 -14.5t35.5 14.5
t14.5 35.5zM283 677q-21 0 -35.5 -14.5t-14.5 -35.5t14.5 -35.5t35.5 -14.5t35.5 14.5t14.5 35.5t-14.5 35.5t-35.5 14.5zM614 301q0 20 -15 35t-35 15q-21 0 -35.5 -14.5t-14.5 -35.5t14.5 -35.5t35.5 -14.5t35.5 14.5t14.5 35.5zM220 686q0 21 -14.5 35.5t-35.5 14.5
t-35.5 -14.5t-14.5 -35.5t14.5 -35.5t35.5 -14.5t35.5 14.5t14.5 35.5zM334 568q-21 0 -35.5 -14.5t-14.5 -35.5t14.5 -35.5t35.5 -14.5t35.5 14.5t14.5 35.5t-14.5 35.5t-35.5 14.5zM385 459q-21 0 -35.5 -14.5t-14.5 -35.5t14.5 -35.5t35.5 -14.5q20 0 35 15t15 35
q0 21 -14.5 35.5t-35.5 14.5zM435 351q-20 0 -35 -15t-15 -35q0 -21 14.5 -35.5t35.5 -14.5t35.5 14.5t14.5 35.5t-14.5 35.5t-35.5 14.5zM220 566q0 21 -14.5 35.5t-35.5 14.5t-35.5 -14.5t-14.5 -35.5t14.5 -35.5t35.5 -14.5t35.5 14.5t14.5 35.5zM496 242
q-21 0 -35.5 -14.5t-14.5 -35.5t14.5 -35.5t35.5 -14.5t35.5 14.5t14.5 35.5t-14.5 35.5t-35.5 14.5zM220 446q0 21 -14.5 35.5t-35.5 14.5t-35.5 -14.5t-14.5 -35.5t14.5 -35.5t35.5 -14.5t35.5 14.5t14.5 35.5zM220 326q0 21 -14.5 35.5t-35.5 14.5t-35.5 -14.5
t-14.5 -35.5t14.5 -35.5t35.5 -14.5t35.5 14.5t14.5 35.5zM220 206q0 21 -14.5 35.5t-35.5 14.5t-35.5 -14.5t-14.5 -35.5t14.5 -35.5t35.5 -14.5t35.5 14.5t14.5 35.5zM220 86q0 21 -14.5 35.5t-35.5 14.5t-35.5 -14.5t-14.5 -35.5t14.5 -35.5t35.5 -14.5t35.5 14.5
t14.5 35.5z" />
    <glyph glyph-name="N" unicode="N" horiz-adv-x="840" 
d="M792 -25h-235l-259 403v-403h-250v814h246l251 -408v408h247v-814zM722 686q0 21 -14.5 35.5t-35.5 14.5t-35.5 -14.5t-14.5 -35.5t14.5 -35.5t35.5 -14.5t35.5 14.5t14.5 35.5zM722 566q0 21 -14.5 35.5t-35.5 14.5t-35.5 -14.5t-14.5 -35.5t14.5 -35.5t35.5 -14.5
t35.5 14.5t14.5 35.5zM722 446q0 21 -14.5 35.5t-35.5 14.5t-35.5 -14.5t-14.5 -35.5t14.5 -35.5t35.5 -14.5t35.5 14.5t14.5 35.5zM722 326q0 21 -14.5 35.5t-35.5 14.5t-35.5 -14.5t-14.5 -35.5t14.5 -35.5t35.5 -14.5t35.5 14.5t14.5 35.5zM275 663q-21 0 -35.5 -14.5
t-14.5 -35.5q0 -20 15 -35t35 -15q21 0 35.5 14.5t14.5 35.5t-14.5 35.5t-35.5 14.5zM722 206q0 21 -14.5 35.5t-35.5 14.5t-35.5 -14.5t-14.5 -35.5t14.5 -35.5t35.5 -14.5t35.5 14.5t14.5 35.5zM222 686q0 21 -14.5 35.5t-35.5 14.5t-35.5 -14.5t-14.5 -35.5t14.5 -35.5
t35.5 -14.5t35.5 14.5t14.5 35.5zM339 551q-21 0 -35.5 -14.5t-14.5 -35.5t14.5 -35.5t35.5 -14.5t35.5 14.5t14.5 35.5t-14.5 35.5t-35.5 14.5zM413 440q-21 0 -35.5 -14.5t-14.5 -35.5t14.5 -35.5t35.5 -14.5t35.5 14.5t14.5 35.5q0 20 -15 35t-35 15zM496 318
q-20 0 -35 -15t-15 -35q0 -21 14.5 -35.5t35.5 -14.5t35.5 14.5t14.5 35.5t-14.5 35.5t-35.5 14.5zM722 86q0 21 -14.5 35.5t-35.5 14.5t-35.5 -14.5t-14.5 -35.5t14.5 -35.5t35.5 -14.5t35.5 14.5t14.5 35.5zM222 566q0 21 -14.5 35.5t-35.5 14.5t-35.5 -14.5t-14.5 -35.5
t14.5 -35.5t35.5 -14.5t35.5 14.5t14.5 35.5zM570 216q-21 0 -35.5 -14.5t-14.5 -35.5t14.5 -35.5t35.5 -14.5q20 0 35 15t15 35q0 21 -14.5 35.5t-35.5 14.5zM222 446q0 21 -14.5 35.5t-35.5 14.5t-35.5 -14.5t-14.5 -35.5t14.5 -35.5t35.5 -14.5t35.5 14.5t14.5 35.5z
M222 326q0 21 -14.5 35.5t-35.5 14.5t-35.5 -14.5t-14.5 -35.5t14.5 -35.5t35.5 -14.5t35.5 14.5t14.5 35.5zM222 206q0 21 -14.5 35.5t-35.5 14.5t-35.5 -14.5t-14.5 -35.5t14.5 -35.5t35.5 -14.5t35.5 14.5t14.5 35.5zM222 86q0 21 -14.5 35.5t-35.5 14.5t-35.5 -14.5
t-14.5 -35.5t14.5 -35.5t35.5 -14.5t35.5 14.5t14.5 35.5z" />
    <glyph glyph-name="O" unicode="O" horiz-adv-x="926" 
d="M892 382q0 -184 -122.5 -303t-306.5 -119t-306.5 119t-122.5 303q0 185 121.5 303.5t307.5 118.5q185 0 307 -119t122 -303zM725 589q0 21 -14.5 35.5t-35.5 14.5t-35.5 -14.5t-14.5 -35.5t14.5 -35.5t35.5 -14.5q20 0 35 15t15 35zM634 661q0 21 -14.5 35.5t-35.5 14.5
t-35.5 -14.5t-14.5 -35.5t14.5 -35.5t35.5 -14.5q20 0 35 15t15 35zM788 494q0 21 -14.5 35.5t-35.5 14.5t-35.5 -14.5t-14.5 -35.5t14.5 -35.5t35.5 -14.5t35.5 14.5t14.5 35.5zM508 691q0 21 -14.5 35.5t-35.5 14.5q-20 0 -35 -15t-15 -35q0 -21 14.5 -35.5t35.5 -14.5
t35.5 14.5t14.5 35.5zM809 382q0 20 -15 35t-35 15q-21 0 -35.5 -14.5t-14.5 -35.5t14.5 -35.5t35.5 -14.5t35.5 14.5t14.5 35.5zM788 269q0 21 -14.5 35.5t-35.5 14.5t-35.5 -14.5t-14.5 -35.5t14.5 -35.5t35.5 -14.5t35.5 14.5t14.5 35.5zM393 661q0 21 -14.5 35.5
t-35.5 14.5t-35.5 -14.5t-14.5 -35.5t14.5 -35.5t35.5 -14.5q20 0 35 15t15 35zM725 174q0 21 -14.5 35.5t-35.5 14.5t-35.5 -14.5t-14.5 -35.5t14.5 -35.5t35.5 -14.5q20 0 35 15t15 35zM463 189q81 0 130 57q47 54 47 136q0 83 -47 136q-49 57 -130 57t-130 -57
q-47 -53 -47 -136q0 -82 47 -136q49 -57 130 -57zM302 589q0 21 -14.5 35.5t-35.5 14.5t-35.5 -14.5t-14.5 -35.5t14.5 -35.5t35.5 -14.5q20 0 35 15t15 35zM634 102q0 21 -14.5 35.5t-35.5 14.5t-35.5 -14.5t-14.5 -35.5t14.5 -35.5t35.5 -14.5q20 0 35 15t15 35zM238 494
q0 21 -14.5 35.5t-35.5 14.5t-35.5 -14.5t-14.5 -35.5q0 -20 15 -35t35 -15q21 0 35.5 14.5t14.5 35.5zM218 382q0 21 -14.5 35.5t-35.5 14.5t-35.5 -14.5t-14.5 -35.5t14.5 -35.5t35.5 -14.5t35.5 14.5t14.5 35.5zM508 73q0 21 -14.5 35.5t-35.5 14.5t-35.5 -14.5
t-14.5 -35.5t14.5 -35.5t35.5 -14.5t35.5 14.5t14.5 35.5zM238 269q0 21 -14.5 35.5t-35.5 14.5t-35.5 -14.5t-14.5 -35.5q0 -20 15 -35t35 -15q21 0 35.5 14.5t14.5 35.5zM393 102q0 21 -14.5 35.5t-35.5 14.5t-35.5 -14.5t-14.5 -35.5t14.5 -35.5t35.5 -14.5q20 0 35 15
t15 35zM302 174q0 21 -14.5 35.5t-35.5 14.5t-35.5 -14.5t-14.5 -35.5t14.5 -35.5t35.5 -14.5q20 0 35 15t15 35z" />
    <glyph glyph-name="P" unicode="P" horiz-adv-x="657" 
d="M639 507q0 -141 -82 -215q-78 -71 -221 -71h-36v-246h-252v814h297q132 0 213 -75.5t81 -206.5zM533 615q0 21 -14.5 35.5t-35.5 14.5t-35.5 -14.5t-14.5 -35.5t14.5 -35.5t35.5 -14.5q20 0 35 15t15 35zM443 681q0 20 -15 35t-35 15q-21 0 -35.5 -14.5t-14.5 -35.5
t14.5 -35.5t35.5 -14.5t35.5 14.5t14.5 35.5zM558 511q0 21 -14.5 35.5t-35.5 14.5t-35.5 -14t-14.5 -35t14.5 -36t35.5 -15q20 0 35 15t15 35zM334 688q0 21 -14.5 35t-35.5 14t-35.5 -13.5t-14.5 -34.5t14.5 -35.5t35.5 -14.5q20 0 35 14.5t15 34.5zM545 403
q0 21 -14.5 35.5t-35.5 14.5q-20 0 -35 -15t-15 -35q0 -21 14.5 -35.5t35.5 -14.5t35.5 14.5t14.5 35.5zM222 686q0 21 -14.5 35.5t-35.5 14.5t-35.5 -14.5t-14.5 -35.5t14.5 -35.5t35.5 -14.5t35.5 14.5t14.5 35.5zM385 510q0 41 -23 57q-19 13 -62 15v-148q85 4 85 76z
M448 342q0 21 -14.5 35.5t-35.5 14.5t-35.5 -14.5t-14.5 -35.5q0 -20 15 -35t35 -15q21 0 35.5 14.5t14.5 35.5zM222 566q0 21 -14.5 35.5t-35.5 14.5t-35.5 -14.5t-14.5 -35.5t14.5 -35.5t35.5 -14.5t35.5 14.5t14.5 35.5zM338 331q0 21 -14.5 35.5t-35.5 14.5t-35.5 -14.5
t-14.5 -35.5t14.5 -35.5t35.5 -14.5t35.5 14.5t14.5 35.5zM222 446q0 21 -14.5 35.5t-35.5 14.5t-35.5 -14.5t-14.5 -35.5t14.5 -35.5t35.5 -14.5t35.5 14.5t14.5 35.5zM222 326q0 21 -14.5 35.5t-35.5 14.5t-35.5 -14.5t-14.5 -35.5t14.5 -35.5t35.5 -14.5t35.5 14.5
t14.5 35.5zM222 206q0 21 -14.5 35.5t-35.5 14.5t-35.5 -14.5t-14.5 -35.5t14.5 -35.5t35.5 -14.5t35.5 14.5t14.5 35.5zM222 86q0 21 -14.5 35.5t-35.5 14.5t-35.5 -14.5t-14.5 -35.5t14.5 -35.5t35.5 -14.5t35.5 14.5t14.5 35.5z" />
    <glyph glyph-name="Q" unicode="Q" horiz-adv-x="929" 
d="M891 382q0 -135 -70 -240l59 -60l-124 -125l-65 64q-102 -61 -229 -61q-184 0 -306.5 119t-122.5 303q0 185 121.5 303.5t307.5 118.5q185 0 307 -119t122 -303zM724 589q0 21 -14.5 35.5t-35.5 14.5t-35.5 -14.5t-14.5 -35.5t14.5 -35.5t35.5 -14.5q20 0 35 15t15 35z
M633 661q0 21 -14.5 35.5t-35.5 14.5t-35.5 -14.5t-14.5 -35.5t14.5 -35.5t35.5 -14.5q20 0 35 15t15 35zM787 494q0 21 -14.5 35.5t-35.5 14.5t-35.5 -14.5t-14.5 -35.5t14.5 -35.5t35.5 -14.5t35.5 14.5t14.5 35.5zM507 691q0 21 -14.5 35.5t-35.5 14.5q-20 0 -35 -15
t-15 -35q0 -21 14.5 -35.5t35.5 -14.5t35.5 14.5t14.5 35.5zM808 382q0 20 -15 35t-35 15q-21 0 -35.5 -14.5t-14.5 -35.5t14.5 -35.5t35.5 -14.5t35.5 14.5t14.5 35.5zM787 269q0 21 -14.5 35.5t-35.5 14.5t-35.5 -14.5t-14.5 -35.5t14.5 -35.5t35.5 -14.5t35.5 14.5
t14.5 35.5zM392 661q0 21 -14.5 35.5t-35.5 14.5t-35.5 -14.5t-14.5 -35.5t14.5 -35.5t35.5 -14.5q20 0 35 15t15 35zM724 174q0 21 -14.5 35.5t-35.5 14.5t-35.5 -14.5t-14.5 -35.5t14.5 -35.5t35.5 -14.5q20 0 35 15t15 35zM641 256q0 21 -14.5 35.5t-35.5 14.5
q-20 0 -35 -15t-15 -35q0 -21 14.5 -35.5t35.5 -14.5t35.5 14.5t14.5 35.5zM809 85q0 21 -14.5 35.5t-35.5 14.5t-35.5 -14.5t-14.5 -35.5t14.5 -35.5t35.5 -14.5q20 0 35 15t15 35zM634 331q5 25 5 51q0 83 -47 136q-49 57 -130 57t-130 -57q-47 -53 -47 -136
q0 -82 47 -136q49 -57 130 -57q28 0 53 7l-53 52l128 128zM301 589q0 21 -14.5 35.5t-35.5 14.5t-35.5 -14.5t-14.5 -35.5t14.5 -35.5t35.5 -14.5q20 0 35 15t15 35zM633 102q0 21 -14.5 35.5t-35.5 14.5t-35.5 -14.5t-14.5 -35.5t14.5 -35.5t35.5 -14.5q20 0 35 15t15 35z
M237 494q0 21 -14.5 35.5t-35.5 14.5t-35.5 -14.5t-14.5 -35.5q0 -20 15 -35t35 -15q21 0 35.5 14.5t14.5 35.5zM217 382q0 21 -14.5 35.5t-35.5 14.5t-35.5 -14.5t-14.5 -35.5t14.5 -35.5t35.5 -14.5t35.5 14.5t14.5 35.5zM507 73q0 21 -14.5 35.5t-35.5 14.5t-35.5 -14.5
t-14.5 -35.5t14.5 -35.5t35.5 -14.5t35.5 14.5t14.5 35.5zM237 269q0 21 -14.5 35.5t-35.5 14.5t-35.5 -14.5t-14.5 -35.5q0 -20 15 -35t35 -15q21 0 35.5 14.5t14.5 35.5zM392 102q0 21 -14.5 35.5t-35.5 14.5t-35.5 -14.5t-14.5 -35.5t14.5 -35.5t35.5 -14.5q20 0 35 15
t15 35zM301 174q0 21 -14.5 35.5t-35.5 14.5t-35.5 -14.5t-14.5 -35.5t14.5 -35.5t35.5 -14.5q20 0 35 15t15 35z" />
    <glyph glyph-name="R" unicode="R" horiz-adv-x="753" 
d="M723 -25h-304l-119 228v-228h-252v814h310q134 0 218 -68q91 -73 91 -204q0 -80 -37 -139q-40 -64 -113 -85zM563 615q0 21 -14.5 35.5t-35.5 14.5t-35.5 -14.5t-14.5 -35.5t14.5 -35.5t35.5 -14.5q20 0 35 15t15 35zM463 681q0 20 -15 35t-35 15q-21 0 -35.5 -14.5
t-14.5 -35.5t14.5 -35.5t35.5 -14.5t35.5 14.5t14.5 35.5zM588 506q0 21 -14.5 35.5t-35.5 14.5t-35.5 -14t-14.5 -35t14.5 -36t35.5 -15q20 0 35 15t15 35zM344 688q0 21 -14.5 35t-35.5 14t-35.5 -13.5t-14.5 -34.5t14.5 -35.5t35.5 -14.5q20 0 35 14.5t15 34.5zM542 399
q0 21 -14.5 35.5t-35.5 14.5q-20 0 -35 -15t-15 -35q0 -21 14.5 -35.5t35.5 -14.5t35.5 14.5t14.5 35.5zM412 510q0 72 -90 72h-22v-149h27q85 0 85 77zM222 686q0 21 -14.5 35.5t-35.5 14.5t-35.5 -14.5t-14.5 -35.5t14.5 -35.5t35.5 -14.5t35.5 14.5t14.5 35.5zM222 566
q0 21 -14.5 35.5t-35.5 14.5t-35.5 -14.5t-14.5 -35.5t14.5 -35.5t35.5 -14.5t35.5 14.5t14.5 35.5zM448 332q0 21 -14.5 35.5t-35.5 14.5q-20 0 -35 -15t-15 -35q0 -21 14.5 -35.5t35.5 -14.5t35.5 14.5t14.5 35.5zM496 207q0 21 -14.5 35.5t-35.5 14.5q-20 0 -35 -15
t-15 -35q0 -21 14.5 -35.5t35.5 -14.5t35.5 14.5t14.5 35.5zM222 446q0 21 -14.5 35.5t-35.5 14.5t-35.5 -14.5t-14.5 -35.5t14.5 -35.5t35.5 -14.5t35.5 14.5t14.5 35.5zM330 331q0 21 -14.5 35.5t-35.5 14.5t-35.5 -14.5t-14.5 -35.5t14.5 -35.5t35.5 -14.5t35.5 14.5
t14.5 35.5zM556 84q0 21 -14.5 35.5t-35.5 14.5q-20 0 -35 -15t-15 -35q0 -21 14.5 -35.5t35.5 -14.5t35.5 14.5t14.5 35.5zM222 326q0 21 -14.5 35.5t-35.5 14.5t-35.5 -14.5t-14.5 -35.5t14.5 -35.5t35.5 -14.5t35.5 14.5t14.5 35.5zM222 206q0 21 -14.5 35.5t-35.5 14.5
t-35.5 -14.5t-14.5 -35.5t14.5 -35.5t35.5 -14.5t35.5 14.5t14.5 35.5zM222 86q0 21 -14.5 35.5t-35.5 14.5t-35.5 -14.5t-14.5 -35.5t14.5 -35.5t35.5 -14.5t35.5 14.5t14.5 35.5z" />
    <glyph glyph-name="S" unicode="S" horiz-adv-x="669" 
d="M636 232q0 -130 -93 -205q-86 -68 -219 -68q-110 0 -183 50q-78 53 -103 157q16 4 71 25l155 59q0 -75 70 -75q20 0 38 9q22 10 22 28q0 30 -93 62q-124 43 -174 80q-93 69 -93 191q0 121 86 192q80 67 203 67q237 0 286 -193q-7 -1 -222 -92q-4 84 -61 84
q-19 0 -37.5 -12.5t-18.5 -30.5q0 -25 129 -72q118 -43 167 -87q70 -63 70 -169zM443 705q-21 0 -36.5 -15t-15.5 -36q0 -20 15 -35t35 -15q21 0 35.5 14.5t14.5 35.5q0 20 -14 35.5t-34 15.5zM329 744q-21 0 -35.5 -14.5t-14.5 -35.5q0 -20 15 -35t35 -15q21 0 35.5 14.5
t14.5 35.5t-14.5 35.5t-35.5 14.5zM212 702q-21 0 -35.5 -14.5t-14.5 -35.5q0 -20 15 -35t35 -15q21 0 35.5 14.5t14.5 35.5t-14.5 35.5t-35.5 14.5zM438 377q-21 0 -35.5 -14.5t-14.5 -35.5t14.5 -35.5t35.5 -14.5t35.5 14.5t14.5 35.5q0 20 -15 35t-35 15zM501 276
q-21 0 -35.5 -14.5t-14.5 -35.5t14.5 -35.5t35.5 -14.5q20 0 35 15t15 35q0 21 -14.5 35.5t-35.5 14.5zM326 436q-21 0 -35.5 -14.5t-14.5 -35.5t14.5 -35.5t35.5 -14.5q20 0 35 15t15 35q0 21 -14.5 35.5t-35.5 14.5zM159 598q-21 0 -35.5 -14.5t-14.5 -35.5t14.5 -35.5
t35.5 -14.5t35.5 14.5t14.5 35.5t-14.5 35.5t-35.5 14.5zM221 495q-21 0 -35.5 -14.5t-14.5 -35.5t14.5 -35.5t35.5 -14.5t35.5 14.5t14.5 35.5t-14.5 35.5t-35.5 14.5zM447 172q-20 0 -35 -15t-15 -35q0 -21 15 -35.5t36 -14.5t35 14.5t14 35.5t-14.5 35.5t-35.5 14.5z
M330 130q-20 0 -35 -15t-15 -35q0 -21 15 -35.5t36 -14.5t35 14.5t14 35.5t-14.5 35.5t-35.5 14.5zM218 170q-20 0 -35 -15t-15 -35t14.5 -35.5t34.5 -15.5q21 0 36 15t15 36t-14.5 35.5t-35.5 14.5z" />
    <glyph glyph-name="T" unicode="T" horiz-adv-x="728" 
d="M702 576h-212v-601h-252v601h-212v213h676v-213zM656 686q0 21 -14.5 35.5t-35.5 14.5t-35.5 -14.5t-14.5 -35.5t14.5 -35.5t35.5 -14.5t35.5 14.5t14.5 35.5zM536 686q0 21 -14.5 35.5t-35.5 14.5t-35.5 -14.5t-14.5 -35.5t14.5 -35.5t35.5 -14.5t35.5 14.5t14.5 35.5z
M416 686q0 21 -14.5 35.5t-35.5 14.5t-35.5 -14.5t-14.5 -35.5t14.5 -35.5t35.5 -14.5t35.5 14.5t14.5 35.5zM296 686q0 21 -14.5 35.5t-35.5 14.5t-35.5 -14.5t-14.5 -35.5t14.5 -35.5t35.5 -14.5t35.5 14.5t14.5 35.5zM416 566q0 21 -14.5 35.5t-35.5 14.5t-35.5 -14.5
t-14.5 -35.5t14.5 -35.5t35.5 -14.5t35.5 14.5t14.5 35.5zM176 686q0 21 -14.5 35.5t-35.5 14.5t-35.5 -14.5t-14.5 -35.5t14.5 -35.5t35.5 -14.5t35.5 14.5t14.5 35.5zM416 446q0 21 -14.5 35.5t-35.5 14.5t-35.5 -14.5t-14.5 -35.5t14.5 -35.5t35.5 -14.5t35.5 14.5
t14.5 35.5zM416 326q0 21 -14.5 35.5t-35.5 14.5t-35.5 -14.5t-14.5 -35.5t14.5 -35.5t35.5 -14.5t35.5 14.5t14.5 35.5zM416 206q0 21 -14.5 35.5t-35.5 14.5t-35.5 -14.5t-14.5 -35.5t14.5 -35.5t35.5 -14.5t35.5 14.5t14.5 35.5zM416 86q0 21 -14.5 35.5t-35.5 14.5
t-35.5 -14.5t-14.5 -35.5t14.5 -35.5t35.5 -14.5t35.5 14.5t14.5 35.5z" />
    <glyph glyph-name="U" unicode="U" horiz-adv-x="769" 
d="M725 275q0 -152 -96 -235q-91 -80 -245 -80t-245 80q-96 83 -96 235v514h253v-448q0 -72 11 -102q19 -52 77 -52q59 0 78 52q11 30 11 102v448h252v-514zM653 686q0 21 -14.5 35.5t-35.5 14.5t-35.5 -14.5t-14.5 -35.5t14.5 -35.5t35.5 -14.5t35.5 14.5t14.5 35.5z
M653 566q0 21 -14.5 35.5t-35.5 14.5t-35.5 -14.5t-14.5 -35.5t14.5 -35.5t35.5 -14.5t35.5 14.5t14.5 35.5zM653 446q0 21 -14.5 35.5t-35.5 14.5t-35.5 -14.5t-14.5 -35.5t14.5 -35.5t35.5 -14.5t35.5 14.5t14.5 35.5zM653 326q0 21 -14.5 35.5t-35.5 14.5t-35.5 -14.5
t-14.5 -35.5t14.5 -35.5t35.5 -14.5t35.5 14.5t14.5 35.5zM212 686q0 21 -14.5 35.5t-35.5 14.5t-35.5 -14.5t-14.5 -35.5t14.5 -35.5t35.5 -14.5t35.5 14.5t14.5 35.5zM624 206q0 21 -14.5 35.5t-35.5 14.5t-35.5 -14.5t-14.5 -35.5t14.5 -35.5t35.5 -14.5t35.5 14.5
t14.5 35.5zM212 566q0 21 -14.5 35.5t-35.5 14.5t-35.5 -14.5t-14.5 -35.5t14.5 -35.5t35.5 -14.5t35.5 14.5t14.5 35.5zM549 109q0 21 -14.5 35.5t-35.5 14.5t-35.5 -14.5t-14.5 -35.5t14.5 -35.5t35.5 -14.5t35.5 14.5t14.5 35.5zM212 446q0 21 -14.5 35.5t-35.5 14.5
t-35.5 -14.5t-14.5 -35.5t14.5 -35.5t35.5 -14.5t35.5 14.5t14.5 35.5zM212 326q0 21 -14.5 35.5t-35.5 14.5t-35.5 -14.5t-14.5 -35.5t14.5 -35.5t35.5 -14.5t35.5 14.5t14.5 35.5zM437 78q0 20 -15 35t-35 15q-21 0 -35.5 -14.5t-14.5 -35.5t14.5 -35.5t35.5 -14.5
t35.5 14.5t14.5 35.5zM241 206q0 21 -14.5 35.5t-35.5 14.5t-35.5 -14.5t-14.5 -35.5t14.5 -35.5t35.5 -14.5t35.5 14.5t14.5 35.5zM316 109q0 21 -14.5 35.5t-35.5 14.5t-35.5 -14.5t-14.5 -35.5t14.5 -35.5t35.5 -14.5q20 0 35 15t15 35z" />
    <glyph glyph-name="V" unicode="V" horiz-adv-x="790" 
d="M766 789l-257 -814h-229l-257 814h269l108 -437l109 437h257zM667 698q0 21 -14.5 35.5t-35.5 14.5t-35.5 -14.5t-14.5 -35.5t14.5 -35.5t35.5 -14.5q20 0 35 15t15 35zM632 594q0 21 -14.5 35.5t-35.5 14.5t-35.5 -14.5t-14.5 -35.5t14.5 -35.5t35.5 -14.5t35.5 14.5
t14.5 35.5zM597 490q0 21 -14.5 35.5t-35.5 14.5t-35.5 -14.5t-14.5 -35.5q0 -20 15 -35t35 -15q21 0 35.5 14.5t14.5 35.5zM565 386q0 21 -14.5 35.5t-35.5 14.5t-35.5 -14.5t-14.5 -35.5q0 -20 15 -35t35 -15q21 0 35.5 14.5t14.5 35.5zM183 748q-21 0 -35.5 -14.5
t-14.5 -35.5t14.5 -35.5t35.5 -14.5t35.5 14.5t14.5 35.5t-14.5 35.5t-35.5 14.5zM218 644q-21 0 -35.5 -14.5t-14.5 -35.5t14.5 -35.5t35.5 -14.5q20 0 35 15t15 35q0 21 -14.5 35.5t-35.5 14.5zM533 282q0 21 -14.5 35.5t-35.5 14.5t-35.5 -14.5t-14.5 -35.5t14.5 -35.5
t35.5 -14.5q20 0 35 15t15 35zM253 540q-21 0 -35.5 -14.5t-14.5 -35.5t14.5 -35.5t35.5 -14.5q20 0 35 15t15 35q0 21 -14.5 35.5t-35.5 14.5zM284 436q-21 0 -35.5 -14.5t-14.5 -35.5q0 -20 15 -35t35 -15q21 0 35.5 14.5t14.5 35.5t-14.5 35.5t-35.5 14.5zM505 178
q0 23 -17 37.5t-40 14.5q-19 0 -31 -16t-12 -36q0 -21 14.5 -35.5t35.5 -14.5q20 0 35 15t15 35zM317 332q-21 0 -35.5 -14.5t-14.5 -35.5q0 -20 15 -35t35 -15q21 0 35.5 14.5t14.5 35.5t-14.5 35.5t-35.5 14.5zM352 230q-23 0 -40 -14.5t-17 -37.5q0 -21 14.5 -35.5
t35.5 -14.5t35.5 14.5t14.5 35.5q0 20 -12 36t-31 16zM442 74q0 21 -14.5 35.5t-35.5 14.5t-35.5 -14.5t-14.5 -35.5t14.5 -35.5t35.5 -14.5q20 0 35 15t15 35z" />
    <glyph glyph-name="W" unicode="W" horiz-adv-x="1274" 
d="M1229 789l-257 -814h-229l-103 395l-109 -395h-229l-257 814h269l108 -437l109 437h224l108 -437l109 437h257zM1130 698q0 21 -14.5 35.5t-35.5 14.5t-35.5 -14.5t-14.5 -35.5t14.5 -35.5t35.5 -14.5q20 0 35 15t15 35zM1095 594q0 21 -14.5 35.5t-35.5 14.5
t-35.5 -14.5t-14.5 -35.5t14.5 -35.5t35.5 -14.5t35.5 14.5t14.5 35.5zM1060 490q0 21 -14.5 35.5t-35.5 14.5t-35.5 -14.5t-14.5 -35.5q0 -20 15 -35t35 -15q21 0 35.5 14.5t14.5 35.5zM1028 386q0 21 -14.5 35.5t-35.5 14.5t-35.5 -14.5t-14.5 -35.5q0 -20 15 -35t35 -15
q21 0 35.5 14.5t14.5 35.5zM646 748q-21 0 -35.5 -14.5t-14.5 -35.5t14.5 -35.5t35.5 -14.5t35.5 14.5t14.5 35.5t-14.5 35.5t-35.5 14.5zM681 644q-24 0 -39 -18q-15 18 -38 18q-21 0 -35.5 -14.5t-14.5 -35.5t14.5 -35.5t35.5 -14.5q23 0 38 18q15 -18 39 -18q20 0 35 15
t15 35q0 21 -14.5 35.5t-35.5 14.5zM996 282q0 21 -14.5 35.5t-35.5 14.5t-35.5 -14.5t-14.5 -35.5t14.5 -35.5t35.5 -14.5q20 0 35 15t15 35zM716 540q-21 0 -35.5 -14.5t-14.5 -35.5t14.5 -35.5t35.5 -14.5q20 0 35 15t15 35q0 21 -14.5 35.5t-35.5 14.5zM747 436
q-21 0 -35.5 -14.5t-14.5 -35.5q0 -20 15 -35t35 -15q21 0 35.5 14.5t14.5 35.5t-14.5 35.5t-35.5 14.5zM968 178q0 23 -17 37.5t-40 14.5q-19 0 -31 -16t-12 -36q0 -21 14.5 -35.5t35.5 -14.5q20 0 35 15t15 35zM780 332q-21 0 -35.5 -14.5t-14.5 -35.5q0 -20 15 -35
t35 -15q21 0 35.5 14.5t14.5 35.5t-14.5 35.5t-35.5 14.5zM619 490q0 21 -14.5 35.5t-35.5 14.5t-35.5 -14.5t-14.5 -35.5q0 -20 15 -35t35 -15q21 0 35.5 14.5t14.5 35.5zM815 230q-23 0 -40 -14.5t-17 -37.5q0 -21 14.5 -35.5t35.5 -14.5t35.5 14.5t14.5 35.5q0 20 -12 36
t-31 16zM905 74q0 21 -14.5 35.5t-35.5 14.5t-35.5 -14.5t-14.5 -35.5t14.5 -35.5t35.5 -14.5q20 0 35 15t15 35zM587 386q0 21 -14.5 35.5t-35.5 14.5t-35.5 -14.5t-14.5 -35.5q0 -20 15 -35t35 -15q21 0 35.5 14.5t14.5 35.5zM205 748q-21 0 -35.5 -14.5t-14.5 -35.5
t14.5 -35.5t35.5 -14.5t35.5 14.5t14.5 35.5t-14.5 35.5t-35.5 14.5zM240 644q-21 0 -35.5 -14.5t-14.5 -35.5t14.5 -35.5t35.5 -14.5q20 0 35 15t15 35q0 21 -14.5 35.5t-35.5 14.5zM555 282q0 21 -14.5 35.5t-35.5 14.5t-35.5 -14.5t-14.5 -35.5t14.5 -35.5t35.5 -14.5
q20 0 35 15t15 35zM275 540q-21 0 -35.5 -14.5t-14.5 -35.5t14.5 -35.5t35.5 -14.5q20 0 35 15t15 35q0 21 -14.5 35.5t-35.5 14.5zM306 436q-21 0 -35.5 -14.5t-14.5 -35.5q0 -20 15 -35t35 -15q21 0 35.5 14.5t14.5 35.5t-14.5 35.5t-35.5 14.5zM527 178q0 23 -17 37.5
t-40 14.5q-19 0 -31 -16t-12 -36q0 -21 14.5 -35.5t35.5 -14.5q20 0 35 15t15 35zM339 332q-21 0 -35.5 -14.5t-14.5 -35.5q0 -20 15 -35t35 -15q21 0 35.5 14.5t14.5 35.5t-14.5 35.5t-35.5 14.5zM374 230q-23 0 -40 -14.5t-17 -37.5q0 -21 14.5 -35.5t35.5 -14.5
t35.5 14.5t14.5 35.5q0 20 -12 36t-31 16zM464 74q0 21 -14.5 35.5t-35.5 14.5t-35.5 -14.5t-14.5 -35.5t14.5 -35.5t35.5 -14.5q20 0 35 15t15 35z" />
    <glyph glyph-name="X" unicode="X" horiz-adv-x="873" 
d="M834 -25h-294l-107 225l-106 -225h-289l248 435l-221 379h291l84 -175l82 175h288l-223 -379zM669 704q0 20 -15 35t-35 15q-21 0 -35.5 -14.5t-14.5 -35.5t14.5 -35.5t35.5 -14.5t35.5 14.5t14.5 35.5zM612 601q0 21 -14.5 35.5t-35.5 14.5t-35.5 -14.5t-14.5 -35.5
t14.5 -35.5t35.5 -14.5t35.5 14.5t14.5 35.5zM544 498q0 21 -14.5 35.5t-35.5 14.5t-35.5 -14.5t-14.5 -35.5t14.5 -35.5t35.5 -14.5t35.5 14.5t14.5 35.5zM249 754q-21 0 -35.5 -14.5t-14.5 -35.5t14.5 -35.5t35.5 -14.5t35.5 14.5t14.5 35.5t-14.5 35.5t-35.5 14.5z
M309 651q-21 0 -35.5 -14.5t-14.5 -35.5t14.5 -35.5t35.5 -14.5t35.5 14.5t14.5 35.5t-14.5 35.5t-35.5 14.5zM379 548q-21 0 -35.5 -14.5t-14.5 -35.5t14.5 -35.5t35.5 -14.5t35.5 14.5t14.5 35.5t-14.5 35.5t-35.5 14.5zM425 445q-21 0 -35.5 -14.5t-14.5 -35.5
t14.5 -35.5t35.5 -14.5t35.5 14.5t14.5 35.5t-14.5 35.5t-35.5 14.5zM503 342q-21 0 -35.5 -14.5t-14.5 -35.5q0 -20 15 -35t35 -15q21 0 35.5 14.5t14.5 35.5t-14.5 35.5t-35.5 14.5zM569 235q-21 0 -35.5 -14.5t-14.5 -35.5t14.5 -35.5t35.5 -14.5t35.5 14.5t14.5 35.5
t-14.5 35.5t-35.5 14.5zM621 131q-21 0 -35.5 -14.5t-14.5 -35.5t14.5 -35.5t35.5 -14.5t35.5 14.5t14.5 35.5t-14.5 35.5t-35.5 14.5zM419 292q0 21 -14.5 35.5t-35.5 14.5t-35.5 -14.5t-14.5 -35.5t14.5 -35.5t35.5 -14.5q20 0 35 15t15 35zM351 185q0 21 -14.5 35.5
t-35.5 14.5t-35.5 -14.5t-14.5 -35.5t14.5 -35.5t35.5 -14.5q20 0 35 15t15 35zM293 81q0 21 -14.5 35.5t-35.5 14.5t-35.5 -14.5t-14.5 -35.5t14.5 -35.5t35.5 -14.5t35.5 14.5t14.5 35.5z" />
    <glyph glyph-name="Y" unicode="Y" horiz-adv-x="822" 
d="M801 789l-264 -452v-362h-253v362l-264 452h287l104 -220l103 220h287zM664 704q0 20 -15 35t-35 15q-21 0 -35.5 -14.5t-14.5 -35.5t14.5 -35.5t35.5 -14.5t35.5 14.5t14.5 35.5zM607 591q0 21 -14.5 35.5t-35.5 14.5t-35.5 -14.5t-14.5 -35.5t14.5 -35.5t35.5 -14.5
t35.5 14.5t14.5 35.5zM539 478q0 21 -14.5 35.5t-35.5 14.5t-35.5 -14.5t-14.5 -35.5t14.5 -35.5t35.5 -14.5t35.5 14.5t14.5 35.5zM214 754q-21 0 -35.5 -14.5t-14.5 -35.5t14.5 -35.5t35.5 -14.5t35.5 14.5t14.5 35.5q0 20 -15 35t-35 15zM274 641q-21 0 -35.5 -14.5
t-14.5 -35.5t14.5 -35.5t35.5 -14.5t35.5 14.5t14.5 35.5t-14.5 35.5t-35.5 14.5zM333 528q-21 0 -35.5 -14.5t-14.5 -35.5t15 -35.5t36 -14.5t35 14.5t14 35.5t-14.5 35.5t-35.5 14.5zM410 415q-21 0 -35.5 -14.5t-14.5 -35.5t14.5 -35.5t35.5 -14.5t35.5 14.5t14.5 35.5
t-14.5 35.5t-35.5 14.5zM410 275q-21 0 -35.5 -14.5t-14.5 -35.5t14.5 -35.5t35.5 -14.5t35.5 14.5t14.5 35.5t-14.5 35.5t-35.5 14.5zM410 145q-21 0 -35.5 -14.5t-14.5 -35.5t14.5 -35.5t35.5 -14.5t35.5 14.5t14.5 35.5t-14.5 35.5t-35.5 14.5z" />
    <glyph glyph-name="Z" unicode="Z" horiz-adv-x="791" 
d="M751 789l-321 -601h283v-213h-671l322 607h-299v207h686zM583 675q0 20 -15 35t-35 15q-21 0 -35.5 -14.5t-14.5 -35.5t14.5 -35.5t35.5 -14.5t35.5 14.5t14.5 35.5zM461 674q0 21 -14.5 35.5t-35.5 14.5q-20 0 -35 -15t-15 -35q0 -21 14.5 -35.5t35.5 -14.5t35.5 14.5
t14.5 35.5zM540 554q0 20 -15 35t-35 15q-21 0 -35.5 -14.5t-14.5 -35.5t14.5 -35.5t35.5 -14.5t35.5 14.5t14.5 35.5zM341 674q0 21 -14.5 35.5t-35.5 14.5q-20 0 -35 -15t-15 -35q0 -21 14.5 -35.5t35.5 -14.5t35.5 14.5t14.5 35.5zM477 442q0 21 -14.5 35.5t-35.5 14.5
t-35.5 -14.5t-14.5 -35.5t14.5 -35.5t35.5 -14.5q20 0 35 15t15 35zM221 674q0 21 -14.5 35.5t-35.5 14.5q-20 0 -35 -15t-15 -35q0 -21 14.5 -35.5t35.5 -14.5t35.5 14.5t14.5 35.5zM424 331q0 21 -14.5 35.5t-35.5 14.5t-35.5 -14.5t-14.5 -35.5t14.5 -35.5t35.5 -14.5
t35.5 14.5t14.5 35.5zM652 90q0 21 -14.5 35.5t-35.5 14.5t-35.5 -14.5t-14.5 -35.5t14.5 -35.5t35.5 -14.5q20 0 35 15t15 35zM532 90q0 21 -14.5 35.5t-35.5 14.5t-35.5 -14.5t-14.5 -35.5t14.5 -35.5t35.5 -14.5q20 0 35 15t15 35zM354 214q0 20 -15 35t-35 15
q-21 0 -35.5 -14.5t-14.5 -35.5t14.5 -35.5t35.5 -14.5t35.5 14.5t14.5 35.5zM412 90q0 21 -14.5 35.5t-35.5 14.5t-35.5 -14.5t-14.5 -35.5t14.5 -35.5t35.5 -14.5q20 0 35 15t15 35zM292 90q0 21 -14.5 35.5t-35.5 14.5t-35.5 -14.5t-14.5 -35.5t14.5 -35.5t35.5 -14.5
q20 0 35 15t15 35z" />
    <glyph glyph-name="bracketleft" unicode="[" horiz-adv-x="408" 
d="M376 -224h-328v1013h328v-200h-115v-613h115v-200zM327 686q0 21 -14.5 35.5t-35.5 14.5t-35.5 -14.5t-14.5 -35.5t14.5 -35.5t35.5 -14.5t35.5 14.5t14.5 35.5zM207 686q0 21 -14.5 35.5t-35.5 14.5t-35.5 -14.5t-14.5 -35.5t14.5 -35.5t35.5 -14.5t35.5 14.5t14.5 35.5
zM207 548q0 21 -14.5 35.5t-35.5 14.5t-35.5 -14.5t-14.5 -35.5t14.5 -35.5t35.5 -14.5t35.5 14.5t14.5 35.5zM207 412q0 21 -14.5 35.5t-35.5 14.5t-35.5 -14.5t-14.5 -35.5t14.5 -35.5t35.5 -14.5t35.5 14.5t14.5 35.5zM207 280q0 21 -14.5 35.5t-35.5 14.5t-35.5 -14.5
t-14.5 -35.5t14.5 -35.5t35.5 -14.5t35.5 14.5t14.5 35.5zM207 146q0 21 -14.5 35.5t-35.5 14.5t-35.5 -14.5t-14.5 -35.5t14.5 -35.5t35.5 -14.5t35.5 14.5t14.5 35.5zM207 16q0 21 -14.5 35.5t-35.5 14.5t-35.5 -14.5t-14.5 -35.5t14.5 -35.5t35.5 -14.5t35.5 14.5
t14.5 35.5zM327 -124q0 21 -14.5 35.5t-35.5 14.5t-35.5 -14.5t-14.5 -35.5t14.5 -35.5t35.5 -14.5t35.5 14.5t14.5 35.5zM207 -124q0 21 -14.5 35.5t-35.5 14.5t-35.5 -14.5t-14.5 -35.5t14.5 -35.5t35.5 -14.5t35.5 14.5t14.5 35.5z" />
    <glyph glyph-name="backslash" unicode="\" horiz-adv-x="424" 
d="M412 -118h-167l-234 922h167zM104 758q-21 0 -35.5 -14.5t-14.5 -35.5t14.5 -35.5t35.5 -14.5t35.5 14.5t14.5 35.5t-14.5 35.5t-35.5 14.5zM133 652q-21 0 -36 -14.5t-15 -35.5t14.5 -35.5t35.5 -14.5t35.5 14.5t14.5 35.5q0 20 -14.5 35t-34.5 15zM161 545
q-21 0 -35.5 -14.5t-14.5 -35.5t14.5 -35.5t35.5 -14.5t35.5 14.5t14.5 35.5t-14.5 35.5t-35.5 14.5zM189 439q-21 0 -35.5 -14.5t-14.5 -35.5q0 -20 15 -35t35 -15q21 0 35.5 14.5t14.5 35.5t-14.5 35.5t-35.5 14.5zM218 333q-21 0 -35.5 -14.5t-14.5 -35.5t14.5 -35.5
t35.5 -14.5t35.5 14.5t14.5 35.5t-14.5 35.5t-35.5 14.5zM246 227q-20 0 -35 -15t-15 -35q0 -21 14.5 -35.5t35.5 -14.5t35.5 14.5t14.5 35.5t-14.5 35.5t-35.5 14.5zM275 120q-21 0 -35.5 -14.5t-14.5 -35.5t14.5 -35.5t35.5 -14.5q20 0 35 15t15 35q0 21 -14.5 35.5
t-35.5 14.5zM302 10q-20 0 -35 -15t-15 -35q0 -21 14.5 -35.5t35.5 -14.5t35.5 14.5t14.5 35.5t-14.5 35.5t-35.5 14.5z" />
    <glyph glyph-name="bracketright" unicode="]" horiz-adv-x="425" 
d="M376 -224h-328v200h115v613h-115v200h328v-1013zM317 686q0 21 -14.5 35.5t-35.5 14.5t-35.5 -14.5t-14.5 -35.5t14.5 -35.5t35.5 -14.5t35.5 14.5t14.5 35.5zM197 686q0 21 -14.5 35.5t-35.5 14.5t-35.5 -14.5t-14.5 -35.5t14.5 -35.5t35.5 -14.5t35.5 14.5t14.5 35.5z
M317 548q0 21 -14.5 35.5t-35.5 14.5t-35.5 -14.5t-14.5 -35.5t14.5 -35.5t35.5 -14.5t35.5 14.5t14.5 35.5zM317 412q0 21 -14.5 35.5t-35.5 14.5t-35.5 -14.5t-14.5 -35.5t14.5 -35.5t35.5 -14.5t35.5 14.5t14.5 35.5zM317 280q0 21 -14.5 35.5t-35.5 14.5t-35.5 -14.5
t-14.5 -35.5t14.5 -35.5t35.5 -14.5t35.5 14.5t14.5 35.5zM317 146q0 21 -14.5 35.5t-35.5 14.5t-35.5 -14.5t-14.5 -35.5t14.5 -35.5t35.5 -14.5t35.5 14.5t14.5 35.5zM317 16q0 21 -14.5 35.5t-35.5 14.5t-35.5 -14.5t-14.5 -35.5t14.5 -35.5t35.5 -14.5t35.5 14.5
t14.5 35.5zM317 -124q0 21 -14.5 35.5t-35.5 14.5t-35.5 -14.5t-14.5 -35.5t14.5 -35.5t35.5 -14.5t35.5 14.5t14.5 35.5zM197 -124q0 21 -14.5 35.5t-35.5 14.5t-35.5 -14.5t-14.5 -35.5t14.5 -35.5t35.5 -14.5t35.5 14.5t14.5 35.5z" />
    <glyph glyph-name="asciicircum" unicode="^" horiz-adv-x="664" 
d="M23 204l217 558h182l218 -555h-193l-116 304l-118 -307h-190zM558 285q0 21 -14.5 35.5t-35.5 14.5q-20 0 -35 -15t-15 -35q0 -21 14.5 -35.5t35.5 -14.5t35.5 14.5t14.5 35.5zM517 387q0 21 -14.5 35.5t-35.5 14.5t-35.5 -14.5t-14.5 -35.5t14.5 -35.5t35.5 -14.5
t35.5 14.5t14.5 35.5zM476 489q0 20 -15 35t-35 15q-21 0 -35.5 -14.5t-14.5 -35.5t14.5 -35.5t35.5 -14.5t35.5 14.5t14.5 35.5zM153 235q21 0 35.5 14.5t14.5 35.5t-14.5 35.5t-35.5 14.5q-20 0 -35 -15t-15 -35q0 -21 14.5 -35.5t35.5 -14.5zM195 337q21 0 35.5 14.5
t14.5 35.5q0 20 -15 35t-35 15q-21 0 -35.5 -14.5t-14.5 -35.5t14.5 -35.5t35.5 -14.5zM435 591q0 20 -15 35t-35 15q-21 0 -35.5 -14.5t-14.5 -35.5t14.5 -35.5t35.5 -14.5t35.5 14.5t14.5 35.5zM236 439q21 0 35.5 14.5t14.5 35.5q0 20 -15 35t-35 15q-21 0 -35.5 -14.5
t-14.5 -35.5t14.5 -35.5t35.5 -14.5zM277 541q21 0 35.5 14.5t14.5 35.5t-14.5 35.5t-35.5 14.5t-35.5 -14.5t-14.5 -35.5t14.5 -35.5t35.5 -14.5zM380 688q0 21 -14.5 35.5t-35.5 14.5t-35.5 -14.5t-14.5 -35.5t14.5 -35.5t35.5 -14.5t35.5 14.5t14.5 35.5z" />
    <glyph glyph-name="underscore" unicode="_" horiz-adv-x="441" 
d="M0 -13h441v-109h-441v109z" />
    <glyph glyph-name="grave" unicode="`" horiz-adv-x="187" 
d="M-71 931h81l66 -117h-45z" />
    <glyph glyph-name="a" unicode="a" horiz-adv-x="897" 
d="M871 -25h-267l-26 86h-258l-27 -86h-267l283 814h279zM553 690q0 20 -15 35t-35 15q-21 0 -35.5 -14.5t-14.5 -35.5t14.5 -35.5t35.5 -14.5t35.5 14.5t14.5 35.5zM532 636q-20 0 -35 -15t-15 -35q0 -21 14.5 -35.5t35.5 -14.5t35.5 14.5t14.5 35.5t-14.5 35.5t-35.5 14.5
zM443 690q0 20 -15 35t-35 15q-21 0 -35.5 -14.5t-14.5 -35.5t14.5 -35.5t35.5 -14.5t35.5 14.5t14.5 35.5zM568 532q-20 0 -35 -15t-15 -35q0 -21 14.5 -35.5t35.5 -14.5t35.5 14.5t14.5 35.5t-14.5 35.5t-35.5 14.5zM604 428q-21 0 -35.5 -14.5t-14.5 -35.5t14.5 -35.5
t35.5 -14.5t35.5 14.5t14.5 35.5t-14.5 35.5t-35.5 14.5zM409 586q0 21 -15 35.5t-36 14.5q-17 0 -30 -8q-16 -10 -16 -26q0 -66 47 -66q21 0 35.5 14.5t14.5 35.5zM640 324q-21 0 -35.5 -14.5t-14.5 -35.5t14.5 -35.5t35.5 -14.5t35.5 14.5t14.5 35.5q0 20 -15 35t-35 15z
M676 220q-21 0 -35.5 -14.5t-14.5 -35.5t14.5 -35.5t35.5 -14.5t35.5 14.5t14.5 35.5q0 20 -15 35t-35 15zM518 264l-70 236l-69 -236h139zM373 482q0 21 -15 35.5t-36 14.5q-17 0 -30 -8q-16 -10 -16 -26q0 -66 47 -66q21 0 35.5 14.5t14.5 35.5zM711 116q-20 0 -35 -15
t-15 -35q0 -21 14.5 -35.5t35.5 -14.5t35.5 14.5t14.5 35.5t-14.5 35.5t-35.5 14.5zM615 165q0 21 -14.5 35.5t-35.5 14.5t-35.5 -14.5t-14.5 -35.5q0 -20 15 -35t35 -15q21 0 35.5 14.5t14.5 35.5zM337 378q0 21 -14.5 35.5t-35.5 14.5q-20 0 -35 -15t-15 -35
q0 -21 14.5 -35.5t35.5 -14.5t35.5 14.5t14.5 35.5zM496 165q0 21 -14.5 35.5t-35.5 14.5t-35.5 -14.5t-14.5 -35.5q0 -20 15 -35t35 -15q21 0 35.5 14.5t14.5 35.5zM302 274q0 21 -15 35.5t-36 14.5q-20 0 -35 -15t-15 -35q0 -21 14.5 -35.5t35.5 -14.5t36 14.5t15 35.5z
M379 165q0 21 -14.5 35.5t-35.5 14.5t-35.5 -14.5t-14.5 -35.5q0 -20 15 -35t35 -15q21 0 35.5 14.5t14.5 35.5zM266 170q0 20 -15 35t-35 15q-21 0 -35.5 -14.5t-14.5 -35.5t14.5 -35.5t35.5 -14.5t35.5 14.5t14.5 35.5zM230 66q0 20 -15 35t-35 15q-21 0 -35.5 -14.5
t-14.5 -35.5t14.5 -35.5t35.5 -14.5t35.5 14.5t14.5 35.5z" />
    <glyph glyph-name="b" unicode="b" horiz-adv-x="675" 
d="M635 226q0 -127 -83 -192q-75 -59 -206 -59h-295v814h309q113 0 183 -59q75 -62 75 -173q0 -99 -69 -159q86 -55 86 -172zM526 625q0 21 -14.5 35.5t-35.5 14.5t-35.5 -14.5t-14.5 -35.5t14.5 -35.5t35.5 -14.5q20 0 35 15t15 35zM437 694q0 20 -15 35t-35 15
q-21 0 -35.5 -14.5t-14.5 -35.5t14.5 -35.5t35.5 -14.5t35.5 14.5t14.5 35.5zM551 521q0 21 -14.5 35.5t-35.5 14.5t-35.5 -14t-14.5 -35t14.5 -36t35.5 -15q20 0 35 15t15 35zM330 696q0 21 -14.5 36t-35.5 15t-35.5 -14.5t-14.5 -35.5t14.5 -35.5t35.5 -14.5q20 0 35 14.5
t15 34.5zM375 536q0 40 -26 52q-15 7 -61 8v-120q44 1 61 9q26 12 26 51zM215 690q0 21 -14.5 35.5t-35.5 14.5t-35.5 -14.5t-14.5 -35.5t14.5 -35.5t35.5 -14.5t35.5 14.5t14.5 35.5zM470 430q0 21 -14.5 35.5t-35.5 14.5t-35.5 -14.5t-14.5 -35.5t14.5 -35.5t35.5 -14.5
t35.5 14.5t14.5 35.5zM536 335q0 21 -14.5 35.5t-35.5 14.5q-20 0 -35 -15t-15 -35q0 -21 14.5 -35.5t35.5 -14.5t35.5 14.5t14.5 35.5zM569 235q0 21 -14.5 35.5t-35.5 14.5t-35.5 -14.5t-14.5 -35.5t14.5 -35.5t35.5 -14.5t35.5 14.5t14.5 35.5zM215 570q0 21 -14.5 35.5
t-35.5 14.5t-35.5 -14.5t-14.5 -35.5t14.5 -35.5t35.5 -14.5t35.5 14.5t14.5 35.5zM357 397q0 21 -14.5 35.5t-35.5 14.5t-35.5 -14.5t-14.5 -35.5q0 -20 14.5 -35t34.5 -15q21 0 36 14.5t15 35.5zM215 450q0 21 -14.5 35.5t-35.5 14.5t-35.5 -14.5t-14.5 -35.5t14.5 -35.5
t35.5 -14.5t35.5 14.5t14.5 35.5zM388 241q0 65 -84 65h-16v-129h32q29 0 48.5 18t19.5 46zM215 330q0 21 -14.5 35.5t-35.5 14.5t-35.5 -14.5t-14.5 -35.5t14.5 -35.5t35.5 -14.5t35.5 14.5t14.5 35.5zM447 101q15 -16 37 -16q21 0 35.5 14t14.5 35t-14.5 36t-35.5 15
q-23 0 -37.5 -17t-12.5 -40q-14 16 -36 16q-21 0 -35.5 -14.5t-14.5 -35.5t14.5 -35.5t35.5 -14.5q23 0 37.5 17t11.5 40zM215 200q0 21 -14.5 35.5t-35.5 14.5t-35.5 -14.5t-14.5 -35.5t14.5 -35.5t35.5 -14.5t35.5 14.5t14.5 35.5zM335 80q0 21 -14.5 35.5t-35.5 14.5
t-35.5 -14.5t-14.5 -35.5t14.5 -35.5t35.5 -14.5t35.5 14.5t14.5 35.5zM215 80q0 21 -14.5 35.5t-35.5 14.5t-35.5 -14.5t-14.5 -35.5t14.5 -35.5t35.5 -14.5t35.5 14.5t14.5 35.5zM447 101q-10 11 -13 27q11 -12 13 -27z" />
    <glyph glyph-name="c" unicode="c" horiz-adv-x="867" 
d="M837 163q-55 -91 -160 -147t-214 -56q-184 0 -306 119t-122 303q0 185 121 303.5t307 118.5q100 0 195 -45t161 -122l-184 -176q-51 114 -166 114q-82 0 -132 -55t-50 -138t50 -138t132 -55q52 0 102 38q47 36 66 86zM726 589q0 21 -14.5 35.5t-35.5 14.5t-35.5 -14.5
t-14.5 -35.5t14.5 -35.5t35.5 -14.5q20 0 35 15t15 35zM635 661q0 21 -14.5 35.5t-35.5 14.5t-35.5 -14.5t-14.5 -35.5t14.5 -35.5t35.5 -14.5q20 0 35 15t15 35zM509 691q0 21 -14.5 35.5t-35.5 14.5q-20 0 -35 -15t-15 -35q0 -21 14.5 -35.5t35.5 -14.5t35.5 14.5
t14.5 35.5zM394 661q0 21 -14.5 35.5t-35.5 14.5t-35.5 -14.5t-14.5 -35.5t14.5 -35.5t35.5 -14.5q20 0 35 15t15 35zM726 174q0 21 -14.5 35.5t-35.5 14.5t-35.5 -14.5t-14.5 -35.5t14.5 -35.5t35.5 -14.5q20 0 35 15t15 35zM303 589q0 21 -14.5 35.5t-35.5 14.5
t-35.5 -14.5t-14.5 -35.5t14.5 -35.5t35.5 -14.5q20 0 35 15t15 35zM635 102q0 21 -14.5 35.5t-35.5 14.5t-35.5 -14.5t-14.5 -35.5t14.5 -35.5t35.5 -14.5q20 0 35 15t15 35zM239 494q0 21 -14.5 35.5t-35.5 14.5t-35.5 -14.5t-14.5 -35.5q0 -20 15 -35t35 -15
q21 0 35.5 14.5t14.5 35.5zM219 382q0 21 -14.5 35.5t-35.5 14.5t-35.5 -14.5t-14.5 -35.5t14.5 -35.5t35.5 -14.5t35.5 14.5t14.5 35.5zM509 73q0 21 -14.5 35.5t-35.5 14.5t-35.5 -14.5t-14.5 -35.5t14.5 -35.5t35.5 -14.5t35.5 14.5t14.5 35.5zM239 269q0 21 -14.5 35.5
t-35.5 14.5t-35.5 -14.5t-14.5 -35.5q0 -20 15 -35t35 -15q21 0 35.5 14.5t14.5 35.5zM394 102q0 21 -14.5 35.5t-35.5 14.5t-35.5 -14.5t-14.5 -35.5t14.5 -35.5t35.5 -14.5q20 0 35 15t15 35zM303 174q0 21 -14.5 35.5t-35.5 14.5t-35.5 -14.5t-14.5 -35.5t14.5 -35.5
t35.5 -14.5q20 0 35 15t15 35z" />
    <glyph glyph-name="d" unicode="d" horiz-adv-x="748" 
d="M715 389q0 -110 -50 -205q-51 -99 -142 -154t-247 -55h-225v816h225q138 0 228 -43q103 -48 162 -160q49 -92 49 -199zM555 589q0 21 -14.5 35.5t-35.5 14.5t-35.5 -14.5t-14.5 -35.5t14.5 -35.5t35.5 -14.5q20 0 35 15t15 35zM464 661q0 21 -14.5 35.5t-35.5 14.5
t-35.5 -14.5t-14.5 -35.5t14.5 -35.5t35.5 -14.5q20 0 35 15t15 35zM618 494q0 21 -14.5 35.5t-35.5 14.5t-35.5 -14.5t-14.5 -35.5t14.5 -35.5t35.5 -14.5t35.5 14.5t14.5 35.5zM338 691q0 21 -14.5 35.5t-35.5 14.5q-20 0 -35 -15t-15 -35q0 -21 14.5 -35.5t35.5 -14.5
t35.5 14.5t14.5 35.5zM639 382q0 20 -15 35t-35 15q-21 0 -35.5 -14.5t-14.5 -35.5t14.5 -35.5t35.5 -14.5t35.5 14.5t14.5 35.5zM225 686q0 21 -14.5 35.5t-35.5 14.5t-35.5 -14.5t-14.5 -35.5t14.5 -35.5t35.5 -14.5t35.5 14.5t14.5 35.5zM618 269q0 21 -14.5 35.5
t-35.5 14.5t-35.5 -14.5t-14.5 -35.5t14.5 -35.5t35.5 -14.5t35.5 14.5t14.5 35.5zM460 383q0 195 -177 195v-390q89 0 134 54q43 51 43 141zM225 566q0 21 -14.5 35.5t-35.5 14.5t-35.5 -14.5t-14.5 -35.5t14.5 -35.5t35.5 -14.5t35.5 14.5t14.5 35.5zM555 174
q0 21 -14.5 35.5t-35.5 14.5t-35.5 -14.5t-14.5 -35.5t14.5 -35.5t35.5 -14.5q20 0 35 15t15 35zM225 446q0 21 -14.5 35.5t-35.5 14.5t-35.5 -14.5t-14.5 -35.5t14.5 -35.5t35.5 -14.5t35.5 14.5t14.5 35.5zM464 102q0 21 -14.5 35.5t-35.5 14.5t-35.5 -14.5t-14.5 -35.5
t14.5 -35.5t35.5 -14.5q20 0 35 15t15 35zM225 326q0 21 -14.5 35.5t-35.5 14.5t-35.5 -14.5t-14.5 -35.5t14.5 -35.5t35.5 -14.5t35.5 14.5t14.5 35.5zM225 206q0 21 -14.5 35.5t-35.5 14.5t-35.5 -14.5t-14.5 -35.5t14.5 -35.5t35.5 -14.5t35.5 14.5t14.5 35.5zM338 73
q0 21 -14.5 35.5t-35.5 14.5t-35.5 -14.5t-14.5 -35.5t14.5 -35.5t35.5 -14.5t35.5 14.5t14.5 35.5zM225 86q0 21 -14.5 35.5t-35.5 14.5t-35.5 -14.5t-14.5 -35.5t14.5 -35.5t35.5 -14.5t35.5 14.5t14.5 35.5z" />
    <glyph glyph-name="e" unicode="e" horiz-adv-x="581" 
d="M539 -25h-488v814h488v-206h-236v-94h236v-206h-236v-95h236v-213zM465 686q0 21 -14.5 35.5t-35.5 14.5t-35.5 -14.5t-14.5 -35.5t14.5 -35.5t35.5 -14.5t35.5 14.5t14.5 35.5zM345 686q0 21 -14.5 35.5t-35.5 14.5t-35.5 -14.5t-14.5 -35.5t14.5 -35.5t35.5 -14.5
t35.5 14.5t14.5 35.5zM225 686q0 21 -14.5 35.5t-35.5 14.5t-35.5 -14.5t-14.5 -35.5t14.5 -35.5t35.5 -14.5t35.5 14.5t14.5 35.5zM465 386q0 21 -14.5 35.5t-35.5 14.5t-35.5 -14.5t-14.5 -35.5t14.5 -35.5t35.5 -14.5t35.5 14.5t14.5 35.5zM225 566q0 21 -14.5 35.5
t-35.5 14.5t-35.5 -14.5t-14.5 -35.5t14.5 -35.5t35.5 -14.5t35.5 14.5t14.5 35.5zM345 386q0 21 -14.5 35.5t-35.5 14.5t-35.5 -14.5t-14.5 -35.5t14.5 -35.5t35.5 -14.5t35.5 14.5t14.5 35.5zM225 446q0 21 -14.5 35.5t-35.5 14.5t-35.5 -14.5t-14.5 -35.5t14.5 -35.5
t35.5 -14.5t35.5 14.5t14.5 35.5zM225 326q0 21 -14.5 35.5t-35.5 14.5t-35.5 -14.5t-14.5 -35.5t14.5 -35.5t35.5 -14.5t35.5 14.5t14.5 35.5zM465 86q0 21 -14.5 35.5t-35.5 14.5t-35.5 -14.5t-14.5 -35.5t14.5 -35.5t35.5 -14.5t35.5 14.5t14.5 35.5zM225 206
q0 21 -14.5 35.5t-35.5 14.5t-35.5 -14.5t-14.5 -35.5t14.5 -35.5t35.5 -14.5t35.5 14.5t14.5 35.5zM345 86q0 21 -14.5 35.5t-35.5 14.5t-35.5 -14.5t-14.5 -35.5t14.5 -35.5t35.5 -14.5t35.5 14.5t14.5 35.5zM225 86q0 21 -14.5 35.5t-35.5 14.5t-35.5 -14.5t-14.5 -35.5
t14.5 -35.5t35.5 -14.5t35.5 14.5t14.5 35.5z" />
    <glyph glyph-name="f" unicode="f" horiz-adv-x="564" 
d="M539 283h-236v-308h-252v814h488v-206h-236v-94h236v-206zM465 686q0 21 -14.5 35.5t-35.5 14.5t-35.5 -14.5t-14.5 -35.5t14.5 -35.5t35.5 -14.5t35.5 14.5t14.5 35.5zM345 686q0 21 -14.5 35.5t-35.5 14.5t-35.5 -14.5t-14.5 -35.5t14.5 -35.5t35.5 -14.5t35.5 14.5
t14.5 35.5zM225 686q0 21 -14.5 35.5t-35.5 14.5t-35.5 -14.5t-14.5 -35.5t14.5 -35.5t35.5 -14.5t35.5 14.5t14.5 35.5zM465 386q0 21 -14.5 35.5t-35.5 14.5t-35.5 -14.5t-14.5 -35.5t14.5 -35.5t35.5 -14.5t35.5 14.5t14.5 35.5zM225 566q0 21 -14.5 35.5t-35.5 14.5
t-35.5 -14.5t-14.5 -35.5t14.5 -35.5t35.5 -14.5t35.5 14.5t14.5 35.5zM345 386q0 21 -14.5 35.5t-35.5 14.5t-35.5 -14.5t-14.5 -35.5t14.5 -35.5t35.5 -14.5t35.5 14.5t14.5 35.5zM225 446q0 21 -14.5 35.5t-35.5 14.5t-35.5 -14.5t-14.5 -35.5t14.5 -35.5t35.5 -14.5
t35.5 14.5t14.5 35.5zM225 326q0 21 -14.5 35.5t-35.5 14.5t-35.5 -14.5t-14.5 -35.5t14.5 -35.5t35.5 -14.5t35.5 14.5t14.5 35.5zM225 206q0 21 -14.5 35.5t-35.5 14.5t-35.5 -14.5t-14.5 -35.5t14.5 -35.5t35.5 -14.5t35.5 14.5t14.5 35.5zM225 86q0 21 -14.5 35.5
t-35.5 14.5t-35.5 -14.5t-14.5 -35.5t14.5 -35.5t35.5 -14.5t35.5 14.5t14.5 35.5z" />
    <glyph glyph-name="g" unicode="g" horiz-adv-x="926" 
d="M894 387q0 -188 -120.5 -307t-308.5 -119q-187 0 -308 117t-121 304q0 182 120.5 300t302.5 118q158 0 293 -102q60 -45 93 -95l-220 -129q-65 97 -166 97q-77 0 -125 -57q-44 -53 -44 -132q0 -83 49 -139t131 -56q91 0 143 71h-178v204h455zM727 589q0 21 -14.5 35.5
t-35.5 14.5t-35.5 -14.5t-14.5 -35.5t14.5 -35.5t35.5 -14.5q20 0 35 15t15 35zM636 661q0 21 -14.5 35.5t-35.5 14.5t-35.5 -14.5t-14.5 -35.5t14.5 -35.5t35.5 -14.5q20 0 35 15t15 35zM510 691q0 21 -14.5 35.5t-35.5 14.5q-20 0 -35 -15t-15 -35q0 -21 14.5 -35.5
t35.5 -14.5t35.5 14.5t14.5 35.5zM811 360q0 20 -15 35t-35 15q-21 0 -35.5 -14.5t-14.5 -35.5t14.5 -35.5t35.5 -14.5t35.5 14.5t14.5 35.5zM701 360q0 20 -15 35t-35 15q-21 0 -35.5 -14.5t-14.5 -35.5t14.5 -35.5t35.5 -14.5t35.5 14.5t14.5 35.5zM395 661
q0 21 -14.5 35.5t-35.5 14.5t-35.5 -14.5t-14.5 -35.5t14.5 -35.5t35.5 -14.5q20 0 35 15t15 35zM786 251q0 21 -14.5 35.5t-35.5 14.5t-35.5 -14.5t-14.5 -35.5t14.5 -35.5t35.5 -14.5t35.5 14.5t14.5 35.5zM591 360q0 20 -15 35t-35 15q-21 0 -35.5 -14.5t-14.5 -35.5
t14.5 -35.5t35.5 -14.5t35.5 14.5t14.5 35.5zM304 589q0 21 -14.5 35.5t-35.5 14.5t-35.5 -14.5t-14.5 -35.5t14.5 -35.5t35.5 -14.5q20 0 35 15t15 35zM718 159q0 21 -14.5 35.5t-35.5 14.5t-35.5 -14.5t-14.5 -35.5t14.5 -35.5t35.5 -14.5q20 0 35 15t15 35zM240 494
q0 21 -14.5 35.5t-35.5 14.5t-35.5 -14.5t-14.5 -35.5q0 -20 15 -35t35 -15q21 0 35.5 14.5t14.5 35.5zM627 94q0 21 -14.5 35.5t-35.5 14.5t-35.5 -14.5t-14.5 -35.5t14.5 -35.5t35.5 -14.5q20 0 35 15t15 35zM220 382q0 21 -14.5 35.5t-35.5 14.5t-35.5 -14.5t-14.5 -35.5
t14.5 -35.5t35.5 -14.5t35.5 14.5t14.5 35.5zM510 73q0 21 -14.5 35.5t-35.5 14.5t-35.5 -14.5t-14.5 -35.5t14.5 -35.5t35.5 -14.5t35.5 14.5t14.5 35.5zM240 269q0 21 -14.5 35.5t-35.5 14.5t-35.5 -14.5t-14.5 -35.5q0 -20 15 -35t35 -15q21 0 35.5 14.5t14.5 35.5z
M395 102q0 21 -14.5 35.5t-35.5 14.5t-35.5 -14.5t-14.5 -35.5t14.5 -35.5t35.5 -14.5q20 0 35 15t15 35zM304 174q0 21 -14.5 35.5t-35.5 14.5t-35.5 -14.5t-14.5 -35.5t14.5 -35.5t35.5 -14.5q20 0 35 15t15 35z" />
    <glyph glyph-name="h" unicode="h" horiz-adv-x="791" 
d="M739 -25h-252v306h-184v-306h-252v814h252v-295h184v295h252v-814zM666 686q0 21 -14.5 35.5t-35.5 14.5t-35.5 -14.5t-14.5 -35.5t14.5 -35.5t35.5 -14.5t35.5 14.5t14.5 35.5zM666 566q0 21 -14.5 35.5t-35.5 14.5t-35.5 -14.5t-14.5 -35.5t14.5 -35.5t35.5 -14.5
t35.5 14.5t14.5 35.5zM666 446q0 21 -14.5 35.5t-35.5 14.5t-35.5 -14.5t-14.5 -35.5t14.5 -35.5t35.5 -14.5t35.5 14.5t14.5 35.5zM666 326q0 21 -14.5 35.5t-35.5 14.5t-35.5 -14.5t-14.5 -35.5t14.5 -35.5t35.5 -14.5t35.5 14.5t14.5 35.5zM563 390q0 21 -14.5 35.5
t-35.5 14.5t-35.5 -14.5t-14.5 -35.5t14.5 -35.5t35.5 -14.5t35.5 14.5t14.5 35.5zM226 686q0 21 -14.5 35.5t-35.5 14.5t-35.5 -14.5t-14.5 -35.5t14.5 -35.5t35.5 -14.5t35.5 14.5t14.5 35.5zM666 206q0 21 -14.5 35.5t-35.5 14.5t-35.5 -14.5t-14.5 -35.5t14.5 -35.5
t35.5 -14.5t35.5 14.5t14.5 35.5zM453 390q0 21 -14.5 35.5t-35.5 14.5t-35.5 -14.5t-14.5 -35.5t14.5 -35.5t35.5 -14.5t35.5 14.5t14.5 35.5zM226 566q0 21 -14.5 35.5t-35.5 14.5t-35.5 -14.5t-14.5 -35.5t14.5 -35.5t35.5 -14.5t35.5 14.5t14.5 35.5zM666 86
q0 21 -14.5 35.5t-35.5 14.5t-35.5 -14.5t-14.5 -35.5t14.5 -35.5t35.5 -14.5t35.5 14.5t14.5 35.5zM343 390q0 21 -14.5 35.5t-35.5 14.5t-35.5 -14.5t-14.5 -35.5t14.5 -35.5t35.5 -14.5t35.5 14.5t14.5 35.5zM226 446q0 21 -14.5 35.5t-35.5 14.5t-35.5 -14.5
t-14.5 -35.5t14.5 -35.5t35.5 -14.5t35.5 14.5t14.5 35.5zM226 326q0 21 -14.5 35.5t-35.5 14.5t-35.5 -14.5t-14.5 -35.5t14.5 -35.5t35.5 -14.5t35.5 14.5t14.5 35.5zM226 206q0 21 -14.5 35.5t-35.5 14.5t-35.5 -14.5t-14.5 -35.5t14.5 -35.5t35.5 -14.5t35.5 14.5
t14.5 35.5zM226 86q0 21 -14.5 35.5t-35.5 14.5t-35.5 -14.5t-14.5 -35.5t14.5 -35.5t35.5 -14.5t35.5 14.5t14.5 35.5z" />
    <glyph glyph-name="i" unicode="i" horiz-adv-x="357" 
d="M305 -25h-254v814h254v-814zM225 686q0 21 -14.5 35.5t-35.5 14.5t-35.5 -14.5t-14.5 -35.5t14.5 -35.5t35.5 -14.5t35.5 14.5t14.5 35.5zM225 566q0 21 -14.5 35.5t-35.5 14.5t-35.5 -14.5t-14.5 -35.5t14.5 -35.5t35.5 -14.5t35.5 14.5t14.5 35.5zM225 446
q0 21 -14.5 35.5t-35.5 14.5t-35.5 -14.5t-14.5 -35.5t14.5 -35.5t35.5 -14.5t35.5 14.5t14.5 35.5zM225 326q0 21 -14.5 35.5t-35.5 14.5t-35.5 -14.5t-14.5 -35.5t14.5 -35.5t35.5 -14.5t35.5 14.5t14.5 35.5zM225 206q0 21 -14.5 35.5t-35.5 14.5t-35.5 -14.5
t-14.5 -35.5t14.5 -35.5t35.5 -14.5t35.5 14.5t14.5 35.5zM225 86q0 21 -14.5 35.5t-35.5 14.5t-35.5 -14.5t-14.5 -35.5t14.5 -35.5t35.5 -14.5t35.5 14.5t14.5 35.5z" />
    <glyph glyph-name="j" unicode="j" horiz-adv-x="503" 
d="M458 286q0 -156 -77 -240q-80 -86 -235 -86h-124v223h30q92 0 115 13q39 22 39 102v491h252v-503zM390 686q0 21 -14.5 35.5t-35.5 14.5t-35.5 -14.5t-14.5 -35.5t14.5 -35.5t35.5 -14.5t35.5 14.5t14.5 35.5zM390 566q0 21 -14.5 35.5t-35.5 14.5t-35.5 -14.5
t-14.5 -35.5t14.5 -35.5t35.5 -14.5t35.5 14.5t14.5 35.5zM390 446q0 21 -14.5 35.5t-35.5 14.5t-35.5 -14.5t-14.5 -35.5t14.5 -35.5t35.5 -14.5t35.5 14.5t14.5 35.5zM390 326q0 21 -14.5 35.5t-35.5 14.5t-35.5 -14.5t-14.5 -35.5t14.5 -35.5t35.5 -14.5t35.5 14.5
t14.5 35.5zM370 206q0 21 -14.5 35.5t-35.5 14.5t-35.5 -14.5t-14.5 -35.5t14.5 -35.5t35.5 -14.5t35.5 14.5t14.5 35.5zM310 106q0 21 -14.5 35.5t-35.5 14.5t-35.5 -14.5t-14.5 -35.5t14.5 -35.5t35.5 -14.5t35.5 14.5t14.5 35.5zM190 76q0 21 -14.5 35.5t-35.5 14.5
t-35.5 -14.5t-14.5 -35.5t14.5 -35.5t35.5 -14.5t35.5 14.5t14.5 35.5z" />
    <glyph glyph-name="k" unicode="k" horiz-adv-x="710" 
d="M668 -25h-280l-85 174v-174h-252v814h252v-147l74 147h284l-209 -384zM532 697q0 20 -15 35t-35 15q-21 0 -35.5 -14.5t-14.5 -35.5t14.5 -35.5t35.5 -14.5t35.5 14.5t14.5 35.5zM465 593q0 21 -14.5 35.5t-35.5 14.5t-35.5 -14.5t-14.5 -35.5t14.5 -35.5t35.5 -14.5
q20 0 35 15t15 35zM225 686q0 21 -14.5 35.5t-35.5 14.5t-35.5 -14.5t-14.5 -35.5t14.5 -35.5t35.5 -14.5t35.5 14.5t14.5 35.5zM402 495q0 21 -14.5 35.5t-35.5 14.5t-35.5 -14.5t-14.5 -35.5t14.5 -35.5t35.5 -14.5t35.5 14.5t14.5 35.5zM225 566q0 21 -14.5 35.5
t-35.5 14.5t-35.5 -14.5t-14.5 -35.5t14.5 -35.5t35.5 -14.5t35.5 14.5t14.5 35.5zM338 390q0 21 -14.5 35.5t-35.5 14.5t-35.5 -14.5t-14.5 -35.5t14.5 -35.5t35.5 -14.5t35.5 14.5t14.5 35.5zM409 284q0 21 -14.5 35.5t-35.5 14.5t-35.5 -14.5t-14.5 -35.5t14.5 -35.5
t35.5 -14.5t35.5 14.5t14.5 35.5zM225 446q0 21 -14.5 35.5t-35.5 14.5t-35.5 -14.5t-14.5 -35.5t14.5 -35.5t35.5 -14.5t35.5 14.5t14.5 35.5zM471 177q0 21 -14.5 35.5t-35.5 14.5t-35.5 -14.5t-14.5 -35.5t14.5 -35.5t35.5 -14.5t35.5 14.5t14.5 35.5zM529 73
q0 21 -14.5 35.5t-35.5 14.5t-35.5 -14.5t-14.5 -35.5t14.5 -35.5t35.5 -14.5t35.5 14.5t14.5 35.5zM225 326q0 21 -14.5 35.5t-35.5 14.5t-35.5 -14.5t-14.5 -35.5t14.5 -35.5t35.5 -14.5t35.5 14.5t14.5 35.5zM225 206q0 21 -14.5 35.5t-35.5 14.5t-35.5 -14.5
t-14.5 -35.5t14.5 -35.5t35.5 -14.5t35.5 14.5t14.5 35.5zM225 86q0 21 -14.5 35.5t-35.5 14.5t-35.5 -14.5t-14.5 -35.5t14.5 -35.5t35.5 -14.5t35.5 14.5t14.5 35.5z" />
    <glyph glyph-name="l" unicode="l" horiz-adv-x="517" 
d="M496 -25h-445v814h252v-601h193v-213zM225 686q0 21 -14.5 35.5t-35.5 14.5t-35.5 -14.5t-14.5 -35.5t14.5 -35.5t35.5 -14.5t35.5 14.5t14.5 35.5zM225 566q0 21 -14.5 35.5t-35.5 14.5t-35.5 -14.5t-14.5 -35.5t14.5 -35.5t35.5 -14.5t35.5 14.5t14.5 35.5zM225 446
q0 21 -14.5 35.5t-35.5 14.5t-35.5 -14.5t-14.5 -35.5t14.5 -35.5t35.5 -14.5t35.5 14.5t14.5 35.5zM225 326q0 21 -14.5 35.5t-35.5 14.5t-35.5 -14.5t-14.5 -35.5t14.5 -35.5t35.5 -14.5t35.5 14.5t14.5 35.5zM465 86q0 21 -14.5 35.5t-35.5 14.5t-35.5 -14.5t-14.5 -35.5
t14.5 -35.5t35.5 -14.5t35.5 14.5t14.5 35.5zM225 206q0 21 -14.5 35.5t-35.5 14.5t-35.5 -14.5t-14.5 -35.5t14.5 -35.5t35.5 -14.5t35.5 14.5t14.5 35.5zM345 86q0 21 -14.5 35.5t-35.5 14.5t-35.5 -14.5t-14.5 -35.5t14.5 -35.5t35.5 -14.5t35.5 14.5t14.5 35.5zM225 86
q0 21 -14.5 35.5t-35.5 14.5t-35.5 -14.5t-14.5 -35.5t14.5 -35.5t35.5 -14.5t35.5 14.5t14.5 35.5z" />
    <glyph glyph-name="m" unicode="m" horiz-adv-x="1005" 
d="M956 -25h-236v415l-219 -470l-216 468v-413h-236v814h285l169 -372l177 372h276v-814zM882 686q0 21 -14.5 35.5t-35.5 14.5t-35.5 -14.5t-14.5 -35.5t14.5 -35.5t35.5 -14.5t35.5 14.5t14.5 35.5zM882 566q0 21 -14.5 35.5t-35.5 14.5t-35.5 -14.5t-14.5 -35.5
t14.5 -35.5t35.5 -14.5t35.5 14.5t14.5 35.5zM769 627q0 21 -14.5 35.5t-35.5 14.5t-35.5 -14.5t-14.5 -35.5t14.5 -35.5t35.5 -14.5t35.5 14.5t14.5 35.5zM882 446q0 21 -14.5 35.5t-35.5 14.5t-35.5 -14.5t-14.5 -35.5t14.5 -35.5t35.5 -14.5t35.5 14.5t14.5 35.5z
M718 518q0 21 -14.5 35.5t-35.5 14.5t-35.5 -14.5t-14.5 -35.5t14.5 -35.5t35.5 -14.5t35.5 14.5t14.5 35.5zM882 326q0 21 -14.5 35.5t-35.5 14.5t-35.5 -14.5t-14.5 -35.5t14.5 -35.5t35.5 -14.5t35.5 14.5t14.5 35.5zM882 206q0 21 -14.5 35.5t-35.5 14.5t-35.5 -14.5
t-14.5 -35.5t14.5 -35.5t35.5 -14.5t35.5 14.5t14.5 35.5zM667 409q0 21 -14.5 35.5t-35.5 14.5t-35.5 -14.5t-14.5 -35.5q0 -20 15 -35t35 -15q21 0 35.5 14.5t14.5 35.5zM882 86q0 21 -14.5 35.5t-35.5 14.5t-35.5 -14.5t-14.5 -35.5t14.5 -35.5t35.5 -14.5t35.5 14.5
t14.5 35.5zM286 677q-21 0 -35.5 -14.5t-14.5 -35.5t14.5 -35.5t35.5 -14.5t35.5 14.5t14.5 35.5t-14.5 35.5t-35.5 14.5zM617 301q0 20 -15 35t-35 15q-21 0 -35.5 -14.5t-14.5 -35.5t14.5 -35.5t35.5 -14.5t35.5 14.5t14.5 35.5zM223 686q0 21 -14.5 35.5t-35.5 14.5
t-35.5 -14.5t-14.5 -35.5t14.5 -35.5t35.5 -14.5t35.5 14.5t14.5 35.5zM337 568q-21 0 -35.5 -14.5t-14.5 -35.5t14.5 -35.5t35.5 -14.5t35.5 14.5t14.5 35.5t-14.5 35.5t-35.5 14.5zM388 459q-21 0 -35.5 -14.5t-14.5 -35.5t14.5 -35.5t35.5 -14.5q20 0 35 15t15 35
q0 21 -14.5 35.5t-35.5 14.5zM438 351q-20 0 -35 -15t-15 -35q0 -21 14.5 -35.5t35.5 -14.5t35.5 14.5t14.5 35.5t-14.5 35.5t-35.5 14.5zM223 566q0 21 -14.5 35.5t-35.5 14.5t-35.5 -14.5t-14.5 -35.5t14.5 -35.5t35.5 -14.5t35.5 14.5t14.5 35.5zM499 242
q-21 0 -35.5 -14.5t-14.5 -35.5t14.5 -35.5t35.5 -14.5t35.5 14.5t14.5 35.5t-14.5 35.5t-35.5 14.5zM223 446q0 21 -14.5 35.5t-35.5 14.5t-35.5 -14.5t-14.5 -35.5t14.5 -35.5t35.5 -14.5t35.5 14.5t14.5 35.5zM223 326q0 21 -14.5 35.5t-35.5 14.5t-35.5 -14.5
t-14.5 -35.5t14.5 -35.5t35.5 -14.5t35.5 14.5t14.5 35.5zM223 206q0 21 -14.5 35.5t-35.5 14.5t-35.5 -14.5t-14.5 -35.5t14.5 -35.5t35.5 -14.5t35.5 14.5t14.5 35.5zM223 86q0 21 -14.5 35.5t-35.5 14.5t-35.5 -14.5t-14.5 -35.5t14.5 -35.5t35.5 -14.5t35.5 14.5
t14.5 35.5z" />
    <glyph glyph-name="n" unicode="n" horiz-adv-x="847" 
d="M795 -25h-235l-259 403v-403h-250v814h246l251 -408v408h247v-814zM725 686q0 21 -14.5 35.5t-35.5 14.5t-35.5 -14.5t-14.5 -35.5t14.5 -35.5t35.5 -14.5t35.5 14.5t14.5 35.5zM725 566q0 21 -14.5 35.5t-35.5 14.5t-35.5 -14.5t-14.5 -35.5t14.5 -35.5t35.5 -14.5
t35.5 14.5t14.5 35.5zM725 446q0 21 -14.5 35.5t-35.5 14.5t-35.5 -14.5t-14.5 -35.5t14.5 -35.5t35.5 -14.5t35.5 14.5t14.5 35.5zM725 326q0 21 -14.5 35.5t-35.5 14.5t-35.5 -14.5t-14.5 -35.5t14.5 -35.5t35.5 -14.5t35.5 14.5t14.5 35.5zM278 663q-21 0 -35.5 -14.5
t-14.5 -35.5q0 -20 15 -35t35 -15q21 0 35.5 14.5t14.5 35.5t-14.5 35.5t-35.5 14.5zM725 206q0 21 -14.5 35.5t-35.5 14.5t-35.5 -14.5t-14.5 -35.5t14.5 -35.5t35.5 -14.5t35.5 14.5t14.5 35.5zM225 686q0 21 -14.5 35.5t-35.5 14.5t-35.5 -14.5t-14.5 -35.5t14.5 -35.5
t35.5 -14.5t35.5 14.5t14.5 35.5zM342 551q-21 0 -35.5 -14.5t-14.5 -35.5t14.5 -35.5t35.5 -14.5t35.5 14.5t14.5 35.5t-14.5 35.5t-35.5 14.5zM416 440q-21 0 -35.5 -14.5t-14.5 -35.5t14.5 -35.5t35.5 -14.5t35.5 14.5t14.5 35.5q0 20 -15 35t-35 15zM499 318
q-20 0 -35 -15t-15 -35q0 -21 14.5 -35.5t35.5 -14.5t35.5 14.5t14.5 35.5t-14.5 35.5t-35.5 14.5zM725 86q0 21 -14.5 35.5t-35.5 14.5t-35.5 -14.5t-14.5 -35.5t14.5 -35.5t35.5 -14.5t35.5 14.5t14.5 35.5zM225 566q0 21 -14.5 35.5t-35.5 14.5t-35.5 -14.5t-14.5 -35.5
t14.5 -35.5t35.5 -14.5t35.5 14.5t14.5 35.5zM573 216q-21 0 -35.5 -14.5t-14.5 -35.5t14.5 -35.5t35.5 -14.5q20 0 35 15t15 35q0 21 -14.5 35.5t-35.5 14.5zM225 446q0 21 -14.5 35.5t-35.5 14.5t-35.5 -14.5t-14.5 -35.5t14.5 -35.5t35.5 -14.5t35.5 14.5t14.5 35.5z
M225 326q0 21 -14.5 35.5t-35.5 14.5t-35.5 -14.5t-14.5 -35.5t14.5 -35.5t35.5 -14.5t35.5 14.5t14.5 35.5zM225 206q0 21 -14.5 35.5t-35.5 14.5t-35.5 -14.5t-14.5 -35.5t14.5 -35.5t35.5 -14.5t35.5 14.5t14.5 35.5zM225 86q0 21 -14.5 35.5t-35.5 14.5t-35.5 -14.5
t-14.5 -35.5t14.5 -35.5t35.5 -14.5t35.5 14.5t14.5 35.5z" />
    <glyph glyph-name="o" unicode="o" horiz-adv-x="930" 
d="M894 382q0 -184 -122.5 -303t-306.5 -119t-306.5 119t-122.5 303q0 185 121.5 303.5t307.5 118.5q185 0 307 -119t122 -303zM727 589q0 21 -14.5 35.5t-35.5 14.5t-35.5 -14.5t-14.5 -35.5t14.5 -35.5t35.5 -14.5q20 0 35 15t15 35zM636 661q0 21 -14.5 35.5t-35.5 14.5
t-35.5 -14.5t-14.5 -35.5t14.5 -35.5t35.5 -14.5q20 0 35 15t15 35zM790 494q0 21 -14.5 35.5t-35.5 14.5t-35.5 -14.5t-14.5 -35.5t14.5 -35.5t35.5 -14.5t35.5 14.5t14.5 35.5zM510 691q0 21 -14.5 35.5t-35.5 14.5q-20 0 -35 -15t-15 -35q0 -21 14.5 -35.5t35.5 -14.5
t35.5 14.5t14.5 35.5zM811 382q0 20 -15 35t-35 15q-21 0 -35.5 -14.5t-14.5 -35.5t14.5 -35.5t35.5 -14.5t35.5 14.5t14.5 35.5zM790 269q0 21 -14.5 35.5t-35.5 14.5t-35.5 -14.5t-14.5 -35.5t14.5 -35.5t35.5 -14.5t35.5 14.5t14.5 35.5zM395 661q0 21 -14.5 35.5
t-35.5 14.5t-35.5 -14.5t-14.5 -35.5t14.5 -35.5t35.5 -14.5q20 0 35 15t15 35zM727 174q0 21 -14.5 35.5t-35.5 14.5t-35.5 -14.5t-14.5 -35.5t14.5 -35.5t35.5 -14.5q20 0 35 15t15 35zM465 189q81 0 130 57q47 54 47 136q0 83 -47 136q-49 57 -130 57t-130 -57
q-47 -53 -47 -136q0 -82 47 -136q49 -57 130 -57zM304 589q0 21 -14.5 35.5t-35.5 14.5t-35.5 -14.5t-14.5 -35.5t14.5 -35.5t35.5 -14.5q20 0 35 15t15 35zM636 102q0 21 -14.5 35.5t-35.5 14.5t-35.5 -14.5t-14.5 -35.5t14.5 -35.5t35.5 -14.5q20 0 35 15t15 35zM240 494
q0 21 -14.5 35.5t-35.5 14.5t-35.5 -14.5t-14.5 -35.5q0 -20 15 -35t35 -15q21 0 35.5 14.5t14.5 35.5zM220 382q0 21 -14.5 35.5t-35.5 14.5t-35.5 -14.5t-14.5 -35.5t14.5 -35.5t35.5 -14.5t35.5 14.5t14.5 35.5zM510 73q0 21 -14.5 35.5t-35.5 14.5t-35.5 -14.5
t-14.5 -35.5t14.5 -35.5t35.5 -14.5t35.5 14.5t14.5 35.5zM240 269q0 21 -14.5 35.5t-35.5 14.5t-35.5 -14.5t-14.5 -35.5q0 -20 15 -35t35 -15q21 0 35.5 14.5t14.5 35.5zM395 102q0 21 -14.5 35.5t-35.5 14.5t-35.5 -14.5t-14.5 -35.5t14.5 -35.5t35.5 -14.5q20 0 35 15
t15 35zM304 174q0 21 -14.5 35.5t-35.5 14.5t-35.5 -14.5t-14.5 -35.5t14.5 -35.5t35.5 -14.5q20 0 35 15t15 35z" />
    <glyph glyph-name="p" unicode="p" horiz-adv-x="661" 
d="M642 507q0 -141 -82 -215q-78 -71 -221 -71h-36v-246h-252v814h297q132 0 213 -75.5t81 -206.5zM536 615q0 21 -14.5 35.5t-35.5 14.5t-35.5 -14.5t-14.5 -35.5t14.5 -35.5t35.5 -14.5q20 0 35 15t15 35zM446 681q0 20 -15 35t-35 15q-21 0 -35.5 -14.5t-14.5 -35.5
t14.5 -35.5t35.5 -14.5t35.5 14.5t14.5 35.5zM561 511q0 21 -14.5 35.5t-35.5 14.5t-35.5 -14t-14.5 -35t14.5 -36t35.5 -15q20 0 35 15t15 35zM337 688q0 21 -14.5 35t-35.5 14t-35.5 -13.5t-14.5 -34.5t14.5 -35.5t35.5 -14.5q20 0 35 14.5t15 34.5zM548 403
q0 21 -14.5 35.5t-35.5 14.5q-20 0 -35 -15t-15 -35q0 -21 14.5 -35.5t35.5 -14.5t35.5 14.5t14.5 35.5zM225 686q0 21 -14.5 35.5t-35.5 14.5t-35.5 -14.5t-14.5 -35.5t14.5 -35.5t35.5 -14.5t35.5 14.5t14.5 35.5zM388 510q0 41 -23 57q-19 13 -62 15v-148q85 4 85 76z
M451 342q0 21 -14.5 35.5t-35.5 14.5t-35.5 -14.5t-14.5 -35.5q0 -20 15 -35t35 -15q21 0 35.5 14.5t14.5 35.5zM225 566q0 21 -14.5 35.5t-35.5 14.5t-35.5 -14.5t-14.5 -35.5t14.5 -35.5t35.5 -14.5t35.5 14.5t14.5 35.5zM341 331q0 21 -14.5 35.5t-35.5 14.5t-35.5 -14.5
t-14.5 -35.5t14.5 -35.5t35.5 -14.5t35.5 14.5t14.5 35.5zM225 446q0 21 -14.5 35.5t-35.5 14.5t-35.5 -14.5t-14.5 -35.5t14.5 -35.5t35.5 -14.5t35.5 14.5t14.5 35.5zM225 326q0 21 -14.5 35.5t-35.5 14.5t-35.5 -14.5t-14.5 -35.5t14.5 -35.5t35.5 -14.5t35.5 14.5
t14.5 35.5zM225 206q0 21 -14.5 35.5t-35.5 14.5t-35.5 -14.5t-14.5 -35.5t14.5 -35.5t35.5 -14.5t35.5 14.5t14.5 35.5zM225 86q0 21 -14.5 35.5t-35.5 14.5t-35.5 -14.5t-14.5 -35.5t14.5 -35.5t35.5 -14.5t35.5 14.5t14.5 35.5z" />
    <glyph glyph-name="q" unicode="q" horiz-adv-x="934" 
d="M894 382q0 -135 -70 -240l59 -60l-124 -125l-65 64q-102 -61 -229 -61q-184 0 -306.5 119t-122.5 303q0 185 121.5 303.5t307.5 118.5q185 0 307 -119t122 -303zM727 589q0 21 -14.5 35.5t-35.5 14.5t-35.5 -14.5t-14.5 -35.5t14.5 -35.5t35.5 -14.5q20 0 35 15t15 35z
M636 661q0 21 -14.5 35.5t-35.5 14.5t-35.5 -14.5t-14.5 -35.5t14.5 -35.5t35.5 -14.5q20 0 35 15t15 35zM790 494q0 21 -14.5 35.5t-35.5 14.5t-35.5 -14.5t-14.5 -35.5t14.5 -35.5t35.5 -14.5t35.5 14.5t14.5 35.5zM510 691q0 21 -14.5 35.5t-35.5 14.5q-20 0 -35 -15
t-15 -35q0 -21 14.5 -35.5t35.5 -14.5t35.5 14.5t14.5 35.5zM811 382q0 20 -15 35t-35 15q-21 0 -35.5 -14.5t-14.5 -35.5t14.5 -35.5t35.5 -14.5t35.5 14.5t14.5 35.5zM790 269q0 21 -14.5 35.5t-35.5 14.5t-35.5 -14.5t-14.5 -35.5t14.5 -35.5t35.5 -14.5t35.5 14.5
t14.5 35.5zM395 661q0 21 -14.5 35.5t-35.5 14.5t-35.5 -14.5t-14.5 -35.5t14.5 -35.5t35.5 -14.5q20 0 35 15t15 35zM727 174q0 21 -14.5 35.5t-35.5 14.5t-35.5 -14.5t-14.5 -35.5t14.5 -35.5t35.5 -14.5q20 0 35 15t15 35zM644 256q0 21 -14.5 35.5t-35.5 14.5
q-20 0 -35 -15t-15 -35q0 -21 14.5 -35.5t35.5 -14.5t35.5 14.5t14.5 35.5zM812 85q0 21 -14.5 35.5t-35.5 14.5t-35.5 -14.5t-14.5 -35.5t14.5 -35.5t35.5 -14.5q20 0 35 15t15 35zM637 331q5 25 5 51q0 83 -47 136q-49 57 -130 57t-130 -57q-47 -53 -47 -136
q0 -82 47 -136q49 -57 130 -57q28 0 53 7l-53 52l128 128zM304 589q0 21 -14.5 35.5t-35.5 14.5t-35.5 -14.5t-14.5 -35.5t14.5 -35.5t35.5 -14.5q20 0 35 15t15 35zM636 102q0 21 -14.5 35.5t-35.5 14.5t-35.5 -14.5t-14.5 -35.5t14.5 -35.5t35.5 -14.5q20 0 35 15t15 35z
M240 494q0 21 -14.5 35.5t-35.5 14.5t-35.5 -14.5t-14.5 -35.5q0 -20 15 -35t35 -15q21 0 35.5 14.5t14.5 35.5zM220 382q0 21 -14.5 35.5t-35.5 14.5t-35.5 -14.5t-14.5 -35.5t14.5 -35.5t35.5 -14.5t35.5 14.5t14.5 35.5zM510 73q0 21 -14.5 35.5t-35.5 14.5t-35.5 -14.5
t-14.5 -35.5t14.5 -35.5t35.5 -14.5t35.5 14.5t14.5 35.5zM240 269q0 21 -14.5 35.5t-35.5 14.5t-35.5 -14.5t-14.5 -35.5q0 -20 15 -35t35 -15q21 0 35.5 14.5t14.5 35.5zM395 102q0 21 -14.5 35.5t-35.5 14.5t-35.5 -14.5t-14.5 -35.5t14.5 -35.5t35.5 -14.5q20 0 35 15
t15 35zM304 174q0 21 -14.5 35.5t-35.5 14.5t-35.5 -14.5t-14.5 -35.5t14.5 -35.5t35.5 -14.5q20 0 35 15t15 35z" />
    <glyph glyph-name="r" unicode="r" horiz-adv-x="758" 
d="M726 -25h-304l-119 228v-228h-252v814h310q134 0 218 -68q91 -73 91 -204q0 -80 -37 -139q-40 -64 -113 -85zM566 615q0 21 -14.5 35.5t-35.5 14.5t-35.5 -14.5t-14.5 -35.5t14.5 -35.5t35.5 -14.5q20 0 35 15t15 35zM466 681q0 20 -15 35t-35 15q-21 0 -35.5 -14.5
t-14.5 -35.5t14.5 -35.5t35.5 -14.5t35.5 14.5t14.5 35.5zM591 506q0 21 -14.5 35.5t-35.5 14.5t-35.5 -14t-14.5 -35t14.5 -36t35.5 -15q20 0 35 15t15 35zM347 688q0 21 -14.5 35t-35.5 14t-35.5 -13.5t-14.5 -34.5t14.5 -35.5t35.5 -14.5q20 0 35 14.5t15 34.5zM545 399
q0 21 -14.5 35.5t-35.5 14.5q-20 0 -35 -15t-15 -35q0 -21 14.5 -35.5t35.5 -14.5t35.5 14.5t14.5 35.5zM415 510q0 72 -90 72h-22v-149h27q85 0 85 77zM225 686q0 21 -14.5 35.5t-35.5 14.5t-35.5 -14.5t-14.5 -35.5t14.5 -35.5t35.5 -14.5t35.5 14.5t14.5 35.5zM225 566
q0 21 -14.5 35.5t-35.5 14.5t-35.5 -14.5t-14.5 -35.5t14.5 -35.5t35.5 -14.5t35.5 14.5t14.5 35.5zM451 332q0 21 -14.5 35.5t-35.5 14.5q-20 0 -35 -15t-15 -35q0 -21 14.5 -35.5t35.5 -14.5t35.5 14.5t14.5 35.5zM499 207q0 21 -14.5 35.5t-35.5 14.5q-20 0 -35 -15
t-15 -35q0 -21 14.5 -35.5t35.5 -14.5t35.5 14.5t14.5 35.5zM225 446q0 21 -14.5 35.5t-35.5 14.5t-35.5 -14.5t-14.5 -35.5t14.5 -35.5t35.5 -14.5t35.5 14.5t14.5 35.5zM333 331q0 21 -14.5 35.5t-35.5 14.5t-35.5 -14.5t-14.5 -35.5t14.5 -35.5t35.5 -14.5t35.5 14.5
t14.5 35.5zM559 84q0 21 -14.5 35.5t-35.5 14.5q-20 0 -35 -15t-15 -35q0 -21 14.5 -35.5t35.5 -14.5t35.5 14.5t14.5 35.5zM225 326q0 21 -14.5 35.5t-35.5 14.5t-35.5 -14.5t-14.5 -35.5t14.5 -35.5t35.5 -14.5t35.5 14.5t14.5 35.5zM225 206q0 21 -14.5 35.5t-35.5 14.5
t-35.5 -14.5t-14.5 -35.5t14.5 -35.5t35.5 -14.5t35.5 14.5t14.5 35.5zM225 86q0 21 -14.5 35.5t-35.5 14.5t-35.5 -14.5t-14.5 -35.5t14.5 -35.5t35.5 -14.5t35.5 14.5t14.5 35.5z" />
    <glyph glyph-name="s" unicode="s" horiz-adv-x="672" 
d="M638 232q0 -130 -93 -205q-86 -68 -219 -68q-110 0 -183 50q-78 53 -103 157q16 4 71 25l155 59q0 -75 70 -75q20 0 38 9q22 10 22 28q0 30 -93 62q-124 43 -174 80q-93 69 -93 191q0 121 86 192q80 67 203 67q237 0 286 -193q-7 -1 -222 -92q-4 84 -61 84
q-19 0 -37.5 -12.5t-18.5 -30.5q0 -25 129 -72q118 -43 167 -87q70 -63 70 -169zM445 705q-21 0 -36.5 -15t-15.5 -36q0 -20 15 -35t35 -15q21 0 35.5 14.5t14.5 35.5q0 20 -14 35.5t-34 15.5zM331 744q-21 0 -35.5 -14.5t-14.5 -35.5q0 -20 15 -35t35 -15q21 0 35.5 14.5
t14.5 35.5t-14.5 35.5t-35.5 14.5zM214 702q-21 0 -35.5 -14.5t-14.5 -35.5q0 -20 15 -35t35 -15q21 0 35.5 14.5t14.5 35.5t-14.5 35.5t-35.5 14.5zM440 377q-21 0 -35.5 -14.5t-14.5 -35.5t14.5 -35.5t35.5 -14.5t35.5 14.5t14.5 35.5q0 20 -15 35t-35 15zM503 276
q-21 0 -35.5 -14.5t-14.5 -35.5t14.5 -35.5t35.5 -14.5q20 0 35 15t15 35q0 21 -14.5 35.5t-35.5 14.5zM328 436q-21 0 -35.5 -14.5t-14.5 -35.5t14.5 -35.5t35.5 -14.5q20 0 35 15t15 35q0 21 -14.5 35.5t-35.5 14.5zM161 598q-21 0 -35.5 -14.5t-14.5 -35.5t14.5 -35.5
t35.5 -14.5t35.5 14.5t14.5 35.5t-14.5 35.5t-35.5 14.5zM223 495q-21 0 -35.5 -14.5t-14.5 -35.5t14.5 -35.5t35.5 -14.5t35.5 14.5t14.5 35.5t-14.5 35.5t-35.5 14.5zM449 172q-20 0 -35 -15t-15 -35q0 -21 15 -35.5t36 -14.5t35 14.5t14 35.5t-14.5 35.5t-35.5 14.5z
M332 130q-20 0 -35 -15t-15 -35q0 -21 15 -35.5t36 -14.5t35 14.5t14 35.5t-14.5 35.5t-35.5 14.5zM220 170q-20 0 -35 -15t-15 -35t14.5 -35.5t34.5 -15.5q21 0 36 15t15 36t-14.5 35.5t-35.5 14.5z" />
    <glyph glyph-name="t" unicode="t" horiz-adv-x="731" 
d="M703 576h-212v-601h-252v601h-212v213h676v-213zM657 686q0 21 -14.5 35.5t-35.5 14.5t-35.5 -14.5t-14.5 -35.5t14.5 -35.5t35.5 -14.5t35.5 14.5t14.5 35.5zM537 686q0 21 -14.5 35.5t-35.5 14.5t-35.5 -14.5t-14.5 -35.5t14.5 -35.5t35.5 -14.5t35.5 14.5t14.5 35.5z
M417 686q0 21 -14.5 35.5t-35.5 14.5t-35.5 -14.5t-14.5 -35.5t14.5 -35.5t35.5 -14.5t35.5 14.5t14.5 35.5zM297 686q0 21 -14.5 35.5t-35.5 14.5t-35.5 -14.5t-14.5 -35.5t14.5 -35.5t35.5 -14.5t35.5 14.5t14.5 35.5zM417 566q0 21 -14.5 35.5t-35.5 14.5t-35.5 -14.5
t-14.5 -35.5t14.5 -35.5t35.5 -14.5t35.5 14.5t14.5 35.5zM177 686q0 21 -14.5 35.5t-35.5 14.5t-35.5 -14.5t-14.5 -35.5t14.5 -35.5t35.5 -14.5t35.5 14.5t14.5 35.5zM417 446q0 21 -14.5 35.5t-35.5 14.5t-35.5 -14.5t-14.5 -35.5t14.5 -35.5t35.5 -14.5t35.5 14.5
t14.5 35.5zM417 326q0 21 -14.5 35.5t-35.5 14.5t-35.5 -14.5t-14.5 -35.5t14.5 -35.5t35.5 -14.5t35.5 14.5t14.5 35.5zM417 206q0 21 -14.5 35.5t-35.5 14.5t-35.5 -14.5t-14.5 -35.5t14.5 -35.5t35.5 -14.5t35.5 14.5t14.5 35.5zM417 86q0 21 -14.5 35.5t-35.5 14.5
t-35.5 -14.5t-14.5 -35.5t14.5 -35.5t35.5 -14.5t35.5 14.5t14.5 35.5z" />
    <glyph glyph-name="u" unicode="u" horiz-adv-x="774" 
d="M728 275q0 -152 -96 -235q-91 -80 -245 -80t-245 80q-96 83 -96 235v514h253v-448q0 -72 11 -102q19 -52 77 -52q59 0 78 52q11 30 11 102v448h252v-514zM656 686q0 21 -14.5 35.5t-35.5 14.5t-35.5 -14.5t-14.5 -35.5t14.5 -35.5t35.5 -14.5t35.5 14.5t14.5 35.5z
M656 566q0 21 -14.5 35.5t-35.5 14.5t-35.5 -14.5t-14.5 -35.5t14.5 -35.5t35.5 -14.5t35.5 14.5t14.5 35.5zM656 446q0 21 -14.5 35.5t-35.5 14.5t-35.5 -14.5t-14.5 -35.5t14.5 -35.5t35.5 -14.5t35.5 14.5t14.5 35.5zM656 326q0 21 -14.5 35.5t-35.5 14.5t-35.5 -14.5
t-14.5 -35.5t14.5 -35.5t35.5 -14.5t35.5 14.5t14.5 35.5zM215 686q0 21 -14.5 35.5t-35.5 14.5t-35.5 -14.5t-14.5 -35.5t14.5 -35.5t35.5 -14.5t35.5 14.5t14.5 35.5zM627 206q0 21 -14.5 35.5t-35.5 14.5t-35.5 -14.5t-14.5 -35.5t14.5 -35.5t35.5 -14.5t35.5 14.5
t14.5 35.5zM215 566q0 21 -14.5 35.5t-35.5 14.5t-35.5 -14.5t-14.5 -35.5t14.5 -35.5t35.5 -14.5t35.5 14.5t14.5 35.5zM552 109q0 21 -14.5 35.5t-35.5 14.5t-35.5 -14.5t-14.5 -35.5t14.5 -35.5t35.5 -14.5t35.5 14.5t14.5 35.5zM215 446q0 21 -14.5 35.5t-35.5 14.5
t-35.5 -14.5t-14.5 -35.5t14.5 -35.5t35.5 -14.5t35.5 14.5t14.5 35.5zM215 326q0 21 -14.5 35.5t-35.5 14.5t-35.5 -14.5t-14.5 -35.5t14.5 -35.5t35.5 -14.5t35.5 14.5t14.5 35.5zM440 78q0 20 -15 35t-35 15q-21 0 -35.5 -14.5t-14.5 -35.5t14.5 -35.5t35.5 -14.5
t35.5 14.5t14.5 35.5zM244 206q0 21 -14.5 35.5t-35.5 14.5t-35.5 -14.5t-14.5 -35.5t14.5 -35.5t35.5 -14.5t35.5 14.5t14.5 35.5zM319 109q0 21 -14.5 35.5t-35.5 14.5t-35.5 -14.5t-14.5 -35.5t14.5 -35.5t35.5 -14.5q20 0 35 15t15 35z" />
    <glyph glyph-name="v" unicode="v" horiz-adv-x="793" 
d="M768 789l-257 -814h-229l-257 814h269l108 -437l109 437h257zM669 698q0 21 -14.5 35.5t-35.5 14.5t-35.5 -14.5t-14.5 -35.5t14.5 -35.5t35.5 -14.5q20 0 35 15t15 35zM634 594q0 21 -14.5 35.5t-35.5 14.5t-35.5 -14.5t-14.5 -35.5t14.5 -35.5t35.5 -14.5t35.5 14.5
t14.5 35.5zM599 490q0 21 -14.5 35.5t-35.5 14.5t-35.5 -14.5t-14.5 -35.5q0 -20 15 -35t35 -15q21 0 35.5 14.5t14.5 35.5zM567 386q0 21 -14.5 35.5t-35.5 14.5t-35.5 -14.5t-14.5 -35.5q0 -20 15 -35t35 -15q21 0 35.5 14.5t14.5 35.5zM185 748q-21 0 -35.5 -14.5
t-14.5 -35.5t14.5 -35.5t35.5 -14.5t35.5 14.5t14.5 35.5t-14.5 35.5t-35.5 14.5zM220 644q-21 0 -35.5 -14.5t-14.5 -35.5t14.5 -35.5t35.5 -14.5q20 0 35 15t15 35q0 21 -14.5 35.5t-35.5 14.5zM535 282q0 21 -14.5 35.5t-35.5 14.5t-35.5 -14.5t-14.5 -35.5t14.5 -35.5
t35.5 -14.5q20 0 35 15t15 35zM255 540q-21 0 -35.5 -14.5t-14.5 -35.5t14.5 -35.5t35.5 -14.5q20 0 35 15t15 35q0 21 -14.5 35.5t-35.5 14.5zM286 436q-21 0 -35.5 -14.5t-14.5 -35.5q0 -20 15 -35t35 -15q21 0 35.5 14.5t14.5 35.5t-14.5 35.5t-35.5 14.5zM507 178
q0 23 -17 37.5t-40 14.5q-19 0 -31 -16t-12 -36q0 -21 14.5 -35.5t35.5 -14.5q20 0 35 15t15 35zM319 332q-21 0 -35.5 -14.5t-14.5 -35.5q0 -20 15 -35t35 -15q21 0 35.5 14.5t14.5 35.5t-14.5 35.5t-35.5 14.5zM354 230q-23 0 -40 -14.5t-17 -37.5q0 -21 14.5 -35.5
t35.5 -14.5t35.5 14.5t14.5 35.5q0 20 -12 36t-31 16zM444 74q0 21 -14.5 35.5t-35.5 14.5t-35.5 -14.5t-14.5 -35.5t14.5 -35.5t35.5 -14.5q20 0 35 15t15 35z" />
    <glyph glyph-name="w" unicode="w" horiz-adv-x="1280" 
d="M1232 789l-257 -814h-229l-103 395l-109 -395h-229l-257 814h269l108 -437l109 437h224l108 -437l109 437h257zM1133 698q0 21 -14.5 35.5t-35.5 14.5t-35.5 -14.5t-14.5 -35.5t14.5 -35.5t35.5 -14.5q20 0 35 15t15 35zM1098 594q0 21 -14.5 35.5t-35.5 14.5
t-35.5 -14.5t-14.5 -35.5t14.5 -35.5t35.5 -14.5t35.5 14.5t14.5 35.5zM1063 490q0 21 -14.5 35.5t-35.5 14.5t-35.5 -14.5t-14.5 -35.5q0 -20 15 -35t35 -15q21 0 35.5 14.5t14.5 35.5zM1031 386q0 21 -14.5 35.5t-35.5 14.5t-35.5 -14.5t-14.5 -35.5q0 -20 15 -35t35 -15
q21 0 35.5 14.5t14.5 35.5zM649 748q-21 0 -35.5 -14.5t-14.5 -35.5t14.5 -35.5t35.5 -14.5t35.5 14.5t14.5 35.5t-14.5 35.5t-35.5 14.5zM684 644q-24 0 -39 -18q-15 18 -38 18q-21 0 -35.5 -14.5t-14.5 -35.5t14.5 -35.5t35.5 -14.5q23 0 38 18q15 -18 39 -18q20 0 35 15
t15 35q0 21 -14.5 35.5t-35.5 14.5zM999 282q0 21 -14.5 35.5t-35.5 14.5t-35.5 -14.5t-14.5 -35.5t14.5 -35.5t35.5 -14.5q20 0 35 15t15 35zM719 540q-21 0 -35.5 -14.5t-14.5 -35.5t14.5 -35.5t35.5 -14.5q20 0 35 15t15 35q0 21 -14.5 35.5t-35.5 14.5zM750 436
q-21 0 -35.5 -14.5t-14.5 -35.5q0 -20 15 -35t35 -15q21 0 35.5 14.5t14.5 35.5t-14.5 35.5t-35.5 14.5zM971 178q0 23 -17 37.5t-40 14.5q-19 0 -31 -16t-12 -36q0 -21 14.5 -35.5t35.5 -14.5q20 0 35 15t15 35zM783 332q-21 0 -35.5 -14.5t-14.5 -35.5q0 -20 15 -35
t35 -15q21 0 35.5 14.5t14.5 35.5t-14.5 35.5t-35.5 14.5zM622 490q0 21 -14.5 35.5t-35.5 14.5t-35.5 -14.5t-14.5 -35.5q0 -20 15 -35t35 -15q21 0 35.5 14.5t14.5 35.5zM818 230q-23 0 -40 -14.5t-17 -37.5q0 -21 14.5 -35.5t35.5 -14.5t35.5 14.5t14.5 35.5q0 20 -12 36
t-31 16zM908 74q0 21 -14.5 35.5t-35.5 14.5t-35.5 -14.5t-14.5 -35.5t14.5 -35.5t35.5 -14.5q20 0 35 15t15 35zM590 386q0 21 -14.5 35.5t-35.5 14.5t-35.5 -14.5t-14.5 -35.5q0 -20 15 -35t35 -15q21 0 35.5 14.5t14.5 35.5zM208 748q-21 0 -35.5 -14.5t-14.5 -35.5
t14.5 -35.5t35.5 -14.5t35.5 14.5t14.5 35.5t-14.5 35.5t-35.5 14.5zM243 644q-21 0 -35.5 -14.5t-14.5 -35.5t14.5 -35.5t35.5 -14.5q20 0 35 15t15 35q0 21 -14.5 35.5t-35.5 14.5zM558 282q0 21 -14.5 35.5t-35.5 14.5t-35.5 -14.5t-14.5 -35.5t14.5 -35.5t35.5 -14.5
q20 0 35 15t15 35zM278 540q-21 0 -35.5 -14.5t-14.5 -35.5t14.5 -35.5t35.5 -14.5q20 0 35 15t15 35q0 21 -14.5 35.5t-35.5 14.5zM309 436q-21 0 -35.5 -14.5t-14.5 -35.5q0 -20 15 -35t35 -15q21 0 35.5 14.5t14.5 35.5t-14.5 35.5t-35.5 14.5zM530 178q0 23 -17 37.5
t-40 14.5q-19 0 -31 -16t-12 -36q0 -21 14.5 -35.5t35.5 -14.5q20 0 35 15t15 35zM342 332q-21 0 -35.5 -14.5t-14.5 -35.5q0 -20 15 -35t35 -15q21 0 35.5 14.5t14.5 35.5t-14.5 35.5t-35.5 14.5zM377 230q-23 0 -40 -14.5t-17 -37.5q0 -21 14.5 -35.5t35.5 -14.5
t35.5 14.5t14.5 35.5q0 20 -12 36t-31 16zM467 74q0 21 -14.5 35.5t-35.5 14.5t-35.5 -14.5t-14.5 -35.5t14.5 -35.5t35.5 -14.5q20 0 35 15t15 35z" />
    <glyph glyph-name="x" unicode="x" horiz-adv-x="878" 
d="M837 -25h-294l-107 225l-106 -225h-289l248 435l-221 379h291l84 -175l82 175h288l-223 -379zM672 704q0 20 -15 35t-35 15q-21 0 -35.5 -14.5t-14.5 -35.5t14.5 -35.5t35.5 -14.5t35.5 14.5t14.5 35.5zM615 601q0 21 -14.5 35.5t-35.5 14.5t-35.5 -14.5t-14.5 -35.5
t14.5 -35.5t35.5 -14.5t35.5 14.5t14.5 35.5zM547 498q0 21 -14.5 35.5t-35.5 14.5t-35.5 -14.5t-14.5 -35.5t14.5 -35.5t35.5 -14.5t35.5 14.5t14.5 35.5zM252 754q-21 0 -35.5 -14.5t-14.5 -35.5t14.5 -35.5t35.5 -14.5t35.5 14.5t14.5 35.5t-14.5 35.5t-35.5 14.5z
M312 651q-21 0 -35.5 -14.5t-14.5 -35.5t14.5 -35.5t35.5 -14.5t35.5 14.5t14.5 35.5t-14.5 35.5t-35.5 14.5zM382 548q-21 0 -35.5 -14.5t-14.5 -35.5t14.5 -35.5t35.5 -14.5t35.5 14.5t14.5 35.5t-14.5 35.5t-35.5 14.5zM428 445q-21 0 -35.5 -14.5t-14.5 -35.5
t14.5 -35.5t35.5 -14.5t35.5 14.5t14.5 35.5t-14.5 35.5t-35.5 14.5zM506 342q-21 0 -35.5 -14.5t-14.5 -35.5q0 -20 15 -35t35 -15q21 0 35.5 14.5t14.5 35.5t-14.5 35.5t-35.5 14.5zM572 235q-21 0 -35.5 -14.5t-14.5 -35.5t14.5 -35.5t35.5 -14.5t35.5 14.5t14.5 35.5
t-14.5 35.5t-35.5 14.5zM624 131q-21 0 -35.5 -14.5t-14.5 -35.5t14.5 -35.5t35.5 -14.5t35.5 14.5t14.5 35.5t-14.5 35.5t-35.5 14.5zM422 292q0 21 -14.5 35.5t-35.5 14.5t-35.5 -14.5t-14.5 -35.5t14.5 -35.5t35.5 -14.5q20 0 35 15t15 35zM354 185q0 21 -14.5 35.5
t-35.5 14.5t-35.5 -14.5t-14.5 -35.5t14.5 -35.5t35.5 -14.5q20 0 35 15t15 35zM296 81q0 21 -14.5 35.5t-35.5 14.5t-35.5 -14.5t-14.5 -35.5t14.5 -35.5t35.5 -14.5t35.5 14.5t14.5 35.5z" />
    <glyph glyph-name="y" unicode="y" horiz-adv-x="825" 
d="M803 789l-264 -452v-362h-253v362l-264 452h287l104 -220l103 220h287zM666 704q0 20 -15 35t-35 15q-21 0 -35.5 -14.5t-14.5 -35.5t14.5 -35.5t35.5 -14.5t35.5 14.5t14.5 35.5zM609 591q0 21 -14.5 35.5t-35.5 14.5t-35.5 -14.5t-14.5 -35.5t14.5 -35.5t35.5 -14.5
t35.5 14.5t14.5 35.5zM541 478q0 21 -14.5 35.5t-35.5 14.5t-35.5 -14.5t-14.5 -35.5t14.5 -35.5t35.5 -14.5t35.5 14.5t14.5 35.5zM216 754q-21 0 -35.5 -14.5t-14.5 -35.5t14.5 -35.5t35.5 -14.5t35.5 14.5t14.5 35.5q0 20 -15 35t-35 15zM276 641q-21 0 -35.5 -14.5
t-14.5 -35.5t14.5 -35.5t35.5 -14.5t35.5 14.5t14.5 35.5t-14.5 35.5t-35.5 14.5zM335 528q-21 0 -35.5 -14.5t-14.5 -35.5t15 -35.5t36 -14.5t35 14.5t14 35.5t-14.5 35.5t-35.5 14.5zM412 415q-21 0 -35.5 -14.5t-14.5 -35.5t14.5 -35.5t35.5 -14.5t35.5 14.5t14.5 35.5
t-14.5 35.5t-35.5 14.5zM412 275q-21 0 -35.5 -14.5t-14.5 -35.5t14.5 -35.5t35.5 -14.5t35.5 14.5t14.5 35.5t-14.5 35.5t-35.5 14.5zM412 145q-21 0 -35.5 -14.5t-14.5 -35.5t14.5 -35.5t35.5 -14.5t35.5 14.5t14.5 35.5t-14.5 35.5t-35.5 14.5z" />
    <glyph glyph-name="z" unicode="z" horiz-adv-x="796" 
d="M753 789l-321 -601h283v-213h-671l322 607h-299v207h686zM585 675q0 20 -15 35t-35 15q-21 0 -35.5 -14.5t-14.5 -35.5t14.5 -35.5t35.5 -14.5t35.5 14.5t14.5 35.5zM463 674q0 21 -14.5 35.5t-35.5 14.5q-20 0 -35 -15t-15 -35q0 -21 14.5 -35.5t35.5 -14.5t35.5 14.5
t14.5 35.5zM542 554q0 20 -15 35t-35 15q-21 0 -35.5 -14.5t-14.5 -35.5t14.5 -35.5t35.5 -14.5t35.5 14.5t14.5 35.5zM343 674q0 21 -14.5 35.5t-35.5 14.5q-20 0 -35 -15t-15 -35q0 -21 14.5 -35.5t35.5 -14.5t35.5 14.5t14.5 35.5zM479 442q0 21 -14.5 35.5t-35.5 14.5
t-35.5 -14.5t-14.5 -35.5t14.5 -35.5t35.5 -14.5q20 0 35 15t15 35zM223 674q0 21 -14.5 35.5t-35.5 14.5q-20 0 -35 -15t-15 -35q0 -21 14.5 -35.5t35.5 -14.5t35.5 14.5t14.5 35.5zM426 331q0 21 -14.5 35.5t-35.5 14.5t-35.5 -14.5t-14.5 -35.5t14.5 -35.5t35.5 -14.5
t35.5 14.5t14.5 35.5zM654 90q0 21 -14.5 35.5t-35.5 14.5t-35.5 -14.5t-14.5 -35.5t14.5 -35.5t35.5 -14.5q20 0 35 15t15 35zM534 90q0 21 -14.5 35.5t-35.5 14.5t-35.5 -14.5t-14.5 -35.5t14.5 -35.5t35.5 -14.5q20 0 35 15t15 35zM356 214q0 20 -15 35t-35 15
q-21 0 -35.5 -14.5t-14.5 -35.5t14.5 -35.5t35.5 -14.5t35.5 14.5t14.5 35.5zM414 90q0 21 -14.5 35.5t-35.5 14.5t-35.5 -14.5t-14.5 -35.5t14.5 -35.5t35.5 -14.5q20 0 35 15t15 35zM294 90q0 21 -14.5 35.5t-35.5 14.5t-35.5 -14.5t-14.5 -35.5t14.5 -35.5t35.5 -14.5
q20 0 35 15t15 35z" />
    <glyph glyph-name="ellipsis" unicode="&#x2026;" horiz-adv-x="1598" 
d="M162 -70q-56 0 -91.5 35t-35.5 91t35.5 92.5t91.5 36.5q55 0 91 -37t36 -92q0 -56 -35.5 -91t-91.5 -35zM217 60q0 21 -14.5 35.5t-35.5 14.5t-35.5 -14.5t-14.5 -35.5t14.5 -35.5t35.5 -14.5t35.5 14.5t14.5 35.5zM801 -70q-56 0 -91.5 35t-35.5 91t35.5 92.5t91.5 36.5
q55 0 91 -37t36 -92q0 -56 -35.5 -91t-91.5 -35zM856 60q0 21 -14.5 35.5t-35.5 14.5t-35.5 -14.5t-14.5 -35.5t14.5 -35.5t35.5 -14.5t35.5 14.5t14.5 35.5zM1440 -70q-56 0 -91.5 35t-35.5 91t35.5 92.5t91.5 36.5q55 0 91 -37t36 -92q0 -56 -35.5 -91t-91.5 -35zM1495 60
q0 21 -14.5 35.5t-35.5 14.5t-35.5 -14.5t-14.5 -35.5t14.5 -35.5t35.5 -14.5t35.5 14.5t14.5 35.5z" />
    <glyph glyph-name="quoteleft" unicode="&#x2018;" horiz-adv-x="203" 
d="M215 433h-167v354h167v-354zM181 720q0 21 -14.5 35.5t-35.5 14.5t-35.5 -14.5t-14.5 -35.5t14.5 -35.5t35.5 -14.5t35.5 14.5t14.5 35.5zM181 610q0 21 -14.5 35.5t-35.5 14.5t-35.5 -14.5t-14.5 -35.5t14.5 -35.5t35.5 -14.5t35.5 14.5t14.5 35.5zM181 500
q0 21 -14.5 35.5t-35.5 14.5t-35.5 -14.5t-14.5 -35.5t14.5 -35.5t35.5 -14.5t35.5 14.5t14.5 35.5z" />
    <glyph glyph-name="quoteright" unicode="&#x2019;" horiz-adv-x="203" 
d="M215 433h-167v354h167v-354zM181 720q0 21 -14.5 35.5t-35.5 14.5t-35.5 -14.5t-14.5 -35.5t14.5 -35.5t35.5 -14.5t35.5 14.5t14.5 35.5zM181 610q0 21 -14.5 35.5t-35.5 14.5t-35.5 -14.5t-14.5 -35.5t14.5 -35.5t35.5 -14.5t35.5 14.5t14.5 35.5zM181 500
q0 21 -14.5 35.5t-35.5 14.5t-35.5 -14.5t-14.5 -35.5t14.5 -35.5t35.5 -14.5t35.5 14.5t14.5 35.5z" />
    <glyph glyph-name="quotedblleft" unicode="&#x201c;" horiz-adv-x="397" 
d="M433 433h-169v354h169v-354zM401 720q0 21 -14.5 35.5t-35.5 14.5t-35.5 -14.5t-14.5 -35.5t14.5 -35.5t35.5 -14.5t35.5 14.5t14.5 35.5zM401 610q0 21 -14.5 35.5t-35.5 14.5t-35.5 -14.5t-14.5 -35.5t14.5 -35.5t35.5 -14.5t35.5 14.5t14.5 35.5zM401 500
q0 21 -14.5 35.5t-35.5 14.5t-35.5 -14.5t-14.5 -35.5t14.5 -35.5t35.5 -14.5t35.5 14.5t14.5 35.5zM215 433h-167v354h167v-354zM181 720q0 21 -14.5 35.5t-35.5 14.5t-35.5 -14.5t-14.5 -35.5t14.5 -35.5t35.5 -14.5t35.5 14.5t14.5 35.5zM181 610q0 21 -14.5 35.5
t-35.5 14.5t-35.5 -14.5t-14.5 -35.5t14.5 -35.5t35.5 -14.5t35.5 14.5t14.5 35.5zM181 500q0 21 -14.5 35.5t-35.5 14.5t-35.5 -14.5t-14.5 -35.5t14.5 -35.5t35.5 -14.5t35.5 14.5t14.5 35.5z" />
    <glyph glyph-name="quotedblright" unicode="&#x201d;" horiz-adv-x="397" 
d="M433 433h-169v354h169v-354zM401 720q0 21 -14.5 35.5t-35.5 14.5t-35.5 -14.5t-14.5 -35.5t14.5 -35.5t35.5 -14.5t35.5 14.5t14.5 35.5zM401 610q0 21 -14.5 35.5t-35.5 14.5t-35.5 -14.5t-14.5 -35.5t14.5 -35.5t35.5 -14.5t35.5 14.5t14.5 35.5zM401 500
q0 21 -14.5 35.5t-35.5 14.5t-35.5 -14.5t-14.5 -35.5t14.5 -35.5t35.5 -14.5t35.5 14.5t14.5 35.5zM215 433h-167v354h167v-354zM181 720q0 21 -14.5 35.5t-35.5 14.5t-35.5 -14.5t-14.5 -35.5t14.5 -35.5t35.5 -14.5t35.5 14.5t14.5 35.5zM181 610q0 21 -14.5 35.5
t-35.5 14.5t-35.5 -14.5t-14.5 -35.5t14.5 -35.5t35.5 -14.5t35.5 14.5t14.5 35.5zM181 500q0 21 -14.5 35.5t-35.5 14.5t-35.5 -14.5t-14.5 -35.5t14.5 -35.5t35.5 -14.5t35.5 14.5t14.5 35.5z" />
    <glyph glyph-name="germandbls" unicode="&#xdf;" horiz-adv-x="1312" 
d="M636 232q0 -130 -93 -205q-86 -68 -219 -68q-110 0 -183 50q-78 53 -103 157q16 4 71 25l155 59q0 -75 70 -75q20 0 38 9q22 10 22 28q0 30 -93 62q-124 43 -174 80q-93 69 -93 191q0 121 86 192q80 67 203 67q237 0 286 -193q-7 -1 -222 -92q-4 84 -61 84
q-19 0 -37.5 -12.5t-18.5 -30.5q0 -25 129 -72q118 -43 167 -87q70 -63 70 -169zM443 705q-21 0 -36.5 -15t-15.5 -36q0 -20 15 -35t35 -15q21 0 35.5 14.5t14.5 35.5q0 20 -14 35.5t-34 15.5zM329 744q-21 0 -35.5 -14.5t-14.5 -35.5q0 -20 15 -35t35 -15q21 0 35.5 14.5
t14.5 35.5t-14.5 35.5t-35.5 14.5zM212 702q-21 0 -35.5 -14.5t-14.5 -35.5q0 -20 15 -35t35 -15q21 0 35.5 14.5t14.5 35.5t-14.5 35.5t-35.5 14.5zM438 377q-21 0 -35.5 -14.5t-14.5 -35.5t14.5 -35.5t35.5 -14.5t35.5 14.5t14.5 35.5q0 20 -15 35t-35 15zM501 276
q-21 0 -35.5 -14.5t-14.5 -35.5t14.5 -35.5t35.5 -14.5q20 0 35 15t15 35q0 21 -14.5 35.5t-35.5 14.5zM326 436q-21 0 -35.5 -14.5t-14.5 -35.5t14.5 -35.5t35.5 -14.5q20 0 35 15t15 35q0 21 -14.5 35.5t-35.5 14.5zM159 598q-21 0 -35.5 -14.5t-14.5 -35.5t14.5 -35.5
t35.5 -14.5t35.5 14.5t14.5 35.5t-14.5 35.5t-35.5 14.5zM221 495q-21 0 -35.5 -14.5t-14.5 -35.5t14.5 -35.5t35.5 -14.5t35.5 14.5t14.5 35.5t-14.5 35.5t-35.5 14.5zM447 172q-20 0 -35 -15t-15 -35q0 -21 15 -35.5t36 -14.5t35 14.5t14 35.5t-14.5 35.5t-35.5 14.5z
M330 130q-20 0 -35 -15t-15 -35q0 -21 15 -35.5t36 -14.5t35 14.5t14 35.5t-14.5 35.5t-35.5 14.5zM218 170q-20 0 -35 -15t-15 -35t14.5 -35.5t34.5 -15.5q21 0 36 15t15 36t-14.5 35.5t-35.5 14.5zM1292 232q0 -130 -93 -205q-86 -68 -219 -68q-110 0 -183 50
q-78 53 -103 157q16 4 71 25l155 59q0 -75 70 -75q20 0 38 9q22 10 22 28q0 30 -93 62q-124 43 -174 80q-93 69 -93 191q0 121 86 192q80 67 203 67q237 0 286 -193q-7 -1 -222 -92q-4 84 -61 84q-19 0 -37.5 -12.5t-18.5 -30.5q0 -25 129 -72q118 -43 167 -87
q70 -63 70 -169zM1099 705q-21 0 -36.5 -15t-15.5 -36q0 -20 15 -35t35 -15q21 0 35.5 14.5t14.5 35.5q0 20 -14 35.5t-34 15.5zM985 744q-21 0 -35.5 -14.5t-14.5 -35.5q0 -20 15 -35t35 -15q21 0 35.5 14.5t14.5 35.5t-14.5 35.5t-35.5 14.5zM868 702q-21 0 -35.5 -14.5
t-14.5 -35.5q0 -20 15 -35t35 -15q21 0 35.5 14.5t14.5 35.5t-14.5 35.5t-35.5 14.5zM1094 377q-21 0 -35.5 -14.5t-14.5 -35.5t14.5 -35.5t35.5 -14.5t35.5 14.5t14.5 35.5q0 20 -15 35t-35 15zM1157 276q-21 0 -35.5 -14.5t-14.5 -35.5t14.5 -35.5t35.5 -14.5q20 0 35 15
t15 35q0 21 -14.5 35.5t-35.5 14.5zM982 436q-21 0 -35.5 -14.5t-14.5 -35.5t14.5 -35.5t35.5 -14.5q20 0 35 15t15 35q0 21 -14.5 35.5t-35.5 14.5zM815 598q-21 0 -35.5 -14.5t-14.5 -35.5t14.5 -35.5t35.5 -14.5t35.5 14.5t14.5 35.5t-14.5 35.5t-35.5 14.5zM877 495
q-21 0 -35.5 -14.5t-14.5 -35.5t14.5 -35.5t35.5 -14.5t35.5 14.5t14.5 35.5t-14.5 35.5t-35.5 14.5zM1103 172q-20 0 -35 -15t-15 -35q0 -21 15 -35.5t36 -14.5t35 14.5t14 35.5t-14.5 35.5t-35.5 14.5zM986 130q-20 0 -35 -15t-15 -35q0 -21 15 -35.5t36 -14.5t35 14.5
t14 35.5t-14.5 35.5t-35.5 14.5zM874 170q-20 0 -35 -15t-15 -35t14.5 -35.5t34.5 -15.5q21 0 36 15t15 36t-14.5 35.5t-35.5 14.5z" />
    <glyph glyph-name="exclamdown" unicode="&#xa1;" horiz-adv-x="337" 
d="M51 512h234v-583h-234v583zM113 -2q0 -21 14.5 -35.5t35.5 -14.5t35.5 14.5t14.5 35.5t-14.5 35.5t-35.5 14.5t-35.5 -14.5t-14.5 -35.5zM113 108q0 -21 14.5 -35.5t35.5 -14.5t35.5 14.5t14.5 35.5t-14.5 35.5t-35.5 14.5t-35.5 -14.5t-14.5 -35.5zM113 218
q0 -21 14.5 -35.5t35.5 -14.5t35.5 14.5t14.5 35.5t-14.5 35.5t-35.5 14.5t-35.5 -14.5t-14.5 -35.5zM113 328q0 -21 14.5 -35.5t35.5 -14.5t35.5 14.5t14.5 35.5t-14.5 35.5t-35.5 14.5t-35.5 -14.5t-14.5 -35.5zM113 438q0 -21 14.5 -35.5t35.5 -14.5t35.5 14.5t14.5 35.5
t-14.5 35.5t-35.5 14.5t-35.5 -14.5t-14.5 -35.5zM168 788q56 0 91.5 -35t35.5 -91t-35.5 -92.5t-91.5 -36.5q-55 0 -91 37t-36 92q0 56 35.5 91t91.5 35zM113 658q0 -21 14.5 -35.5t35.5 -14.5t35.5 14.5t14.5 35.5t-14.5 35.5t-35.5 14.5t-35.5 -14.5t-14.5 -35.5z" />
    <glyph glyph-name="questiondown" unicode="&#xbf;" horiz-adv-x="577" 
d="M22 205q0 79 46 138q24 30 84 77q46 36 46 56v70h235v-92q0 -62 -44 -115q-18 -22 -81 -76q-44 -38 -44 -61q0 -26 33 -26q44 0 55 63l204 -91q-32 -88 -101.5 -138.5t-162.5 -50.5q-111 0 -188 67q-82 70 -82 179zM135 114q0 -21 14.5 -35.5t35.5 -14.5t35.5 14.5
t14.5 35.5q0 20 -15 35t-35 15q-21 0 -35.5 -14.5t-14.5 -35.5zM74 208q0 -21 14.5 -35.5t35.5 -14.5t35.5 14.5t14.5 35.5t-14.5 35.5t-35.5 14.5t-35.5 -14.5t-14.5 -35.5zM245 84q0 -21 14.5 -35.5t35.5 -14.5t35.5 14.5t14.5 35.5q0 20 -15 35t-35 15q-21 0 -35.5 -14.5
t-14.5 -35.5zM137 299q0 -20 15 -35t35 -15q21 0 35.5 14.5t14.5 35.5t-14.5 35.5t-35.5 14.5t-35.5 -14.5t-14.5 -35.5zM355 124q0 -21 14.5 -35.5t35.5 -14.5t35.5 14.5t14.5 35.5q0 20 -15 35t-35 15q-21 0 -35.5 -14.5t-14.5 -35.5zM208 374q0 -20 15 -35t35 -15
q21 0 35.5 14.5t14.5 35.5t-14.5 35.5t-35.5 14.5t-35.5 -14.5t-14.5 -35.5zM260 470q0 -21 14.5 -35.5t35.5 -14.5t35.5 14.5t14.5 35.5q0 20 -15 35t-35 15q-21 0 -35.5 -14.5t-14.5 -35.5zM313 818q56 0 91.5 -35.5t35.5 -91.5t-35.5 -92t-91.5 -36t-91.5 36t-35.5 92
t35.5 91.5t91.5 35.5zM284 694q0 -21 14.5 -36t35.5 -15t35.5 14.5t14.5 35.5t-14.5 35.5t-35.5 14.5q-20 0 -35 -14.5t-15 -34.5z" />
    <glyph glyph-name="circumflex" unicode="&#x2c6;" horiz-adv-x="324" 
d="M121 906l-59 -78h-74l97 115h71l99 -115h-75z" />
    <glyph glyph-name="guilsinglleft" unicode="&#x2039;" horiz-adv-x="230" 
d="M95 302l102 -48v-60l-156 77v59l156 81v-62z" />
    <glyph glyph-name="bullet" unicode="&#x2022;" horiz-adv-x="530" 
d="M138 319q0 25 9.5 46.5t25.5 37.5t37.5 25.5t46.5 9.5t46.5 -9.5t37.5 -25.5t25.5 -37.5t9.5 -46.5t-9.5 -46.5t-25.5 -37.5t-37.5 -25.5t-46.5 -9.5t-46.5 9.5t-37.5 25.5t-25.5 37.5t-9.5 46.5z" />
    <glyph glyph-name="endash" unicode="&#x2013;" 
d="M47 340h264v-82h-264v82z" />
    <glyph glyph-name="emdash" unicode="&#x2014;" horiz-adv-x="596" 
d="M47 340h514v-82h-514v82z" />
    <glyph glyph-name="tilde" unicode="&#x2dc;" horiz-adv-x="376" 
d="M292 886q-21 -57 -87 -57q-17 0 -29.5 5.5t-24.5 12t-24 12t-25 5.5q-15 0 -29.5 -9t-28.5 -32l-42 36q18 33 40 47.5t50 14.5q22 0 35.5 -4.5t25 -11.5t22.5 -11.5t26 -4.5q35 0 54 41z" />
    <glyph glyph-name="trademark" unicode="&#x2122;" horiz-adv-x="561" 
d="M173 484v-223h-59v223h-71v54h199v-54h-69zM448 414l-60 -154l-66 160v-158h-55v277h67l53 -143l52 143h65v-277h-56v152z" />
    <glyph glyph-name="guilsinglright" unicode="&#x203a;" horiz-adv-x="230" 
d="M143 304l-102 47v60l156 -77v-59l-156 -81v62z" />
    <glyph glyph-name="dieresis" unicode="&#xa8;" horiz-adv-x="403" 
d="M79 841q-24 0 -39 16t-15 39q0 24 15 39.5t39 15.5q23 0 39 -15.5t16 -39.5q0 -23 -16 -39t-39 -16zM244 841q-21 0 -37.5 16t-16.5 39q0 24 16.5 39.5t37.5 15.5q24 0 39 -15.5t15 -39.5q0 -23 -15 -39t-39 -16z" />
    <glyph glyph-name="copyright" unicode="&#xa9;" horiz-adv-x="635" 
d="M41 277q0 57 22 108t59.5 88.5t88.5 59.5t108 22t108 -22t88.5 -59.5t59.5 -88.5t22 -108t-22 -108t-59.5 -88.5t-88.5 -59.5t-108 -22t-108 22t-88.5 59.5t-59.5 88.5t-22 108zM74 276q0 -51 19.5 -96t52.5 -78t78 -52.5t96 -19.5t96 19.5t78.5 52.5t53 78t19.5 96
t-19.5 96t-53 79t-78.5 53.5t-96 19.5t-96 -19.5t-78 -53.5t-52.5 -79t-19.5 -96zM378 346q-26 36 -63 36q-35 0 -56 -29t-21 -80q0 -48 22.5 -78t55.5 -30q17 0 33.5 8.5t28.5 22.5l50 -34q-38 -62 -113 -62q-30 0 -55.5 13t-44 36.5t-29 55t-10.5 68.5t9.5 69t27.5 55.5
t44 36.5t58 13q78 0 115 -67z" />
    <glyph glyph-name="guillemotleft" unicode="&#xab;" horiz-adv-x="374" 
d="M95 302l102 -48v-60l-156 77v59l156 81v-62zM243 302l102 -48v-60l-156 77v59l156 81v-62z" />
    <glyph glyph-name="cedilla" unicode="&#xb8;" horiz-adv-x="260" 
d="M149 -19v-52q72 0 72 -65q0 -42 -21.5 -58.5t-68.5 -16.5q-16 0 -29.5 2.5t-21.5 5.5l15 49q12 -6 35 -6q40 0 40 21q0 11 -6.5 15t-24.5 4h-17q-2 0 -7.5 -0.5t-12.5 -1.5v103h47z" />
    <glyph glyph-name="acute" unicode="&#xb4;" horiz-adv-x="186" 
d="M68 817h-46l66 116h82z" />
    <glyph glyph-name="registered" unicode="&#xae;" horiz-adv-x="540" 
d="M270 524q-42 0 -75.5 -15t-57 -39t-36 -55t-12.5 -62q0 -32 12.5 -63t36 -55t57 -39t75.5 -15q39 0 74.5 13t61.5 36.5t41.5 55t15.5 67.5q0 31 -14.5 62t-40 55t-61 39t-77.5 15zM271 142q-49 0 -90 17.5t-71 46.5t-46.5 67t-16.5 80q0 43 16.5 81.5t46.5 67.5t71 46
t90 17t91 -16.5t72.5 -45t47.5 -67t17 -83.5q0 -42 -17.5 -80t-48 -67t-72.5 -46.5t-90 -17.5zM246 418v-52h38q24 0 24 25q0 27 -24 27h-38zM270 319h-24v-84h-45v229h82q32 0 51.5 -19t19.5 -54q0 -23 -9 -37.5t-29 -27.5l41 -91h-48z" />
    <glyph glyph-name="guillemotright" unicode="&#xbb;" horiz-adv-x="386" 
d="M302 304l-102 47v60l156 -77v-59l-156 -81v62zM154 304l-102 47v60l156 -77v-59l-156 -81v62z" />
    <glyph glyph-name="ring" unicode="&#x2da;" horiz-adv-x="229" 
d="M115 572q-15 0 -27 -12t-12 -29q0 -18 11.5 -29.5t27.5 -11.5q17 0 29 11.5t12 29.5q0 17 -12.5 29t-28.5 12zM114 469q-26 0 -43 17t-17 43q0 27 17 45.5t43 18.5t43.5 -19t17.5 -45t-17.5 -43t-43.5 -17z" />
    <glyph glyph-name="dotlessi" unicode="&#x131;" 
d="M302 -25h-254v814h254v-814zM222 686q0 21 -14.5 35.5t-35.5 14.5t-35.5 -14.5t-14.5 -35.5t14.5 -35.5t35.5 -14.5t35.5 14.5t14.5 35.5zM222 566q0 21 -14.5 35.5t-35.5 14.5t-35.5 -14.5t-14.5 -35.5t14.5 -35.5t35.5 -14.5t35.5 14.5t14.5 35.5zM222 446
q0 21 -14.5 35.5t-35.5 14.5t-35.5 -14.5t-14.5 -35.5t14.5 -35.5t35.5 -14.5t35.5 14.5t14.5 35.5zM222 326q0 21 -14.5 35.5t-35.5 14.5t-35.5 -14.5t-14.5 -35.5t14.5 -35.5t35.5 -14.5t35.5 14.5t14.5 35.5zM222 206q0 21 -14.5 35.5t-35.5 14.5t-35.5 -14.5
t-14.5 -35.5t14.5 -35.5t35.5 -14.5t35.5 14.5t14.5 35.5zM222 86q0 21 -14.5 35.5t-35.5 14.5t-35.5 -14.5t-14.5 -35.5t14.5 -35.5t35.5 -14.5t35.5 14.5t14.5 35.5z" />
    <glyph glyph-name="Ydieresis" unicode="&#x178;" horiz-adv-x="822" 
d="M801 789l-264 -452v-362h-253v362l-264 452h287l104 -220l103 220h287zM664 704q0 20 -15 35t-35 15q-21 0 -35.5 -14.5t-14.5 -35.5t14.5 -35.5t35.5 -14.5t35.5 14.5t14.5 35.5zM607 591q0 21 -14.5 35.5t-35.5 14.5t-35.5 -14.5t-14.5 -35.5t14.5 -35.5t35.5 -14.5
t35.5 14.5t14.5 35.5zM539 478q0 21 -14.5 35.5t-35.5 14.5t-35.5 -14.5t-14.5 -35.5t14.5 -35.5t35.5 -14.5t35.5 14.5t14.5 35.5zM214 754q-21 0 -35.5 -14.5t-14.5 -35.5t14.5 -35.5t35.5 -14.5t35.5 14.5t14.5 35.5q0 20 -15 35t-35 15zM274 641q-21 0 -35.5 -14.5
t-14.5 -35.5t14.5 -35.5t35.5 -14.5t35.5 14.5t14.5 35.5t-14.5 35.5t-35.5 14.5zM333 528q-21 0 -35.5 -14.5t-14.5 -35.5t15 -35.5t36 -14.5t35 14.5t14 35.5t-14.5 35.5t-35.5 14.5zM410 415q-21 0 -35.5 -14.5t-14.5 -35.5t14.5 -35.5t35.5 -14.5t35.5 14.5t14.5 35.5
t-14.5 35.5t-35.5 14.5zM410 275q-21 0 -35.5 -14.5t-14.5 -35.5t14.5 -35.5t35.5 -14.5t35.5 14.5t14.5 35.5t-14.5 35.5t-35.5 14.5zM410 145q-21 0 -35.5 -14.5t-14.5 -35.5t14.5 -35.5t35.5 -14.5t35.5 14.5t14.5 35.5t-14.5 35.5t-35.5 14.5zM322 841q-24 0 -39 16
t-15 39q0 24 15 39.5t39 15.5q23 0 39 -15.5t16 -39.5q0 -23 -16 -39t-39 -16zM487 841q-21 0 -37.5 16t-16.5 39q0 24 16.5 39.5t37.5 15.5q24 0 39 -15.5t15 -39.5q0 -23 -15 -39t-39 -16z" />
    <glyph glyph-name="Agrave" unicode="&#xc0;" horiz-adv-x="893" 
d="M869 -25h-267l-26 86h-258l-27 -86h-267l283 814h279zM551 690q0 20 -15 35t-35 15q-21 0 -35.5 -14.5t-14.5 -35.5t14.5 -35.5t35.5 -14.5t35.5 14.5t14.5 35.5zM530 636q-20 0 -35 -15t-15 -35q0 -21 14.5 -35.5t35.5 -14.5t35.5 14.5t14.5 35.5t-14.5 35.5t-35.5 14.5
zM441 690q0 20 -15 35t-35 15q-21 0 -35.5 -14.5t-14.5 -35.5t14.5 -35.5t35.5 -14.5t35.5 14.5t14.5 35.5zM566 532q-20 0 -35 -15t-15 -35q0 -21 14.5 -35.5t35.5 -14.5t35.5 14.5t14.5 35.5t-14.5 35.5t-35.5 14.5zM602 428q-21 0 -35.5 -14.5t-14.5 -35.5t14.5 -35.5
t35.5 -14.5t35.5 14.5t14.5 35.5t-14.5 35.5t-35.5 14.5zM407 586q0 21 -15 35.5t-36 14.5q-17 0 -30 -8q-16 -10 -16 -26q0 -66 47 -66q21 0 35.5 14.5t14.5 35.5zM638 324q-21 0 -35.5 -14.5t-14.5 -35.5t14.5 -35.5t35.5 -14.5t35.5 14.5t14.5 35.5q0 20 -15 35t-35 15z
M674 220q-21 0 -35.5 -14.5t-14.5 -35.5t14.5 -35.5t35.5 -14.5t35.5 14.5t14.5 35.5q0 20 -15 35t-35 15zM516 264l-70 236l-69 -236h139zM371 482q0 21 -15 35.5t-36 14.5q-17 0 -30 -8q-16 -10 -16 -26q0 -66 47 -66q21 0 35.5 14.5t14.5 35.5zM709 116q-20 0 -35 -15
t-15 -35q0 -21 14.5 -35.5t35.5 -14.5t35.5 14.5t14.5 35.5t-14.5 35.5t-35.5 14.5zM613 165q0 21 -14.5 35.5t-35.5 14.5t-35.5 -14.5t-14.5 -35.5q0 -20 15 -35t35 -15q21 0 35.5 14.5t14.5 35.5zM335 378q0 21 -14.5 35.5t-35.5 14.5q-20 0 -35 -15t-15 -35
q0 -21 14.5 -35.5t35.5 -14.5t35.5 14.5t14.5 35.5zM494 165q0 21 -14.5 35.5t-35.5 14.5t-35.5 -14.5t-14.5 -35.5q0 -20 15 -35t35 -15q21 0 35.5 14.5t14.5 35.5zM300 274q0 21 -15 35.5t-36 14.5q-20 0 -35 -15t-15 -35q0 -21 14.5 -35.5t35.5 -14.5t36 14.5t15 35.5z
M377 165q0 21 -14.5 35.5t-35.5 14.5t-35.5 -14.5t-14.5 -35.5q0 -20 15 -35t35 -15q21 0 35.5 14.5t14.5 35.5zM264 170q0 20 -15 35t-35 15q-21 0 -35.5 -14.5t-14.5 -35.5t14.5 -35.5t35.5 -14.5t35.5 14.5t14.5 35.5zM228 66q0 20 -15 35t-35 15q-21 0 -35.5 -14.5
t-14.5 -35.5t14.5 -35.5t35.5 -14.5t35.5 14.5t14.5 35.5zM340 931h81l66 -117h-45z" />
    <glyph glyph-name="Aacute" unicode="&#xc1;" horiz-adv-x="893" 
d="M869 -25h-267l-26 86h-258l-27 -86h-267l283 814h279zM551 690q0 20 -15 35t-35 15q-21 0 -35.5 -14.5t-14.5 -35.5t14.5 -35.5t35.5 -14.5t35.5 14.5t14.5 35.5zM530 636q-20 0 -35 -15t-15 -35q0 -21 14.5 -35.5t35.5 -14.5t35.5 14.5t14.5 35.5t-14.5 35.5t-35.5 14.5
zM441 690q0 20 -15 35t-35 15q-21 0 -35.5 -14.5t-14.5 -35.5t14.5 -35.5t35.5 -14.5t35.5 14.5t14.5 35.5zM566 532q-20 0 -35 -15t-15 -35q0 -21 14.5 -35.5t35.5 -14.5t35.5 14.5t14.5 35.5t-14.5 35.5t-35.5 14.5zM602 428q-21 0 -35.5 -14.5t-14.5 -35.5t14.5 -35.5
t35.5 -14.5t35.5 14.5t14.5 35.5t-14.5 35.5t-35.5 14.5zM407 586q0 21 -15 35.5t-36 14.5q-17 0 -30 -8q-16 -10 -16 -26q0 -66 47 -66q21 0 35.5 14.5t14.5 35.5zM638 324q-21 0 -35.5 -14.5t-14.5 -35.5t14.5 -35.5t35.5 -14.5t35.5 14.5t14.5 35.5q0 20 -15 35t-35 15z
M674 220q-21 0 -35.5 -14.5t-14.5 -35.5t14.5 -35.5t35.5 -14.5t35.5 14.5t14.5 35.5q0 20 -15 35t-35 15zM516 264l-70 236l-69 -236h139zM371 482q0 21 -15 35.5t-36 14.5q-17 0 -30 -8q-16 -10 -16 -26q0 -66 47 -66q21 0 35.5 14.5t14.5 35.5zM709 116q-20 0 -35 -15
t-15 -35q0 -21 14.5 -35.5t35.5 -14.5t35.5 14.5t14.5 35.5t-14.5 35.5t-35.5 14.5zM613 165q0 21 -14.5 35.5t-35.5 14.5t-35.5 -14.5t-14.5 -35.5q0 -20 15 -35t35 -15q21 0 35.5 14.5t14.5 35.5zM335 378q0 21 -14.5 35.5t-35.5 14.5q-20 0 -35 -15t-15 -35
q0 -21 14.5 -35.5t35.5 -14.5t35.5 14.5t14.5 35.5zM494 165q0 21 -14.5 35.5t-35.5 14.5t-35.5 -14.5t-14.5 -35.5q0 -20 15 -35t35 -15q21 0 35.5 14.5t14.5 35.5zM300 274q0 21 -15 35.5t-36 14.5q-20 0 -35 -15t-15 -35q0 -21 14.5 -35.5t35.5 -14.5t36 14.5t15 35.5z
M377 165q0 21 -14.5 35.5t-35.5 14.5t-35.5 -14.5t-14.5 -35.5q0 -20 15 -35t35 -15q21 0 35.5 14.5t14.5 35.5zM264 170q0 20 -15 35t-35 15q-21 0 -35.5 -14.5t-14.5 -35.5t14.5 -35.5t35.5 -14.5t35.5 14.5t14.5 35.5zM228 66q0 20 -15 35t-35 15q-21 0 -35.5 -14.5
t-14.5 -35.5t14.5 -35.5t35.5 -14.5t35.5 14.5t14.5 35.5zM401 817h-46l66 116h82z" />
    <glyph glyph-name="Acircumflex" unicode="&#xc2;" horiz-adv-x="893" 
d="M869 -25h-267l-26 86h-258l-27 -86h-267l283 814h279zM551 690q0 20 -15 35t-35 15q-21 0 -35.5 -14.5t-14.5 -35.5t14.5 -35.5t35.5 -14.5t35.5 14.5t14.5 35.5zM530 636q-20 0 -35 -15t-15 -35q0 -21 14.5 -35.5t35.5 -14.5t35.5 14.5t14.5 35.5t-14.5 35.5t-35.5 14.5
zM441 690q0 20 -15 35t-35 15q-21 0 -35.5 -14.5t-14.5 -35.5t14.5 -35.5t35.5 -14.5t35.5 14.5t14.5 35.5zM566 532q-20 0 -35 -15t-15 -35q0 -21 14.5 -35.5t35.5 -14.5t35.5 14.5t14.5 35.5t-14.5 35.5t-35.5 14.5zM602 428q-21 0 -35.5 -14.5t-14.5 -35.5t14.5 -35.5
t35.5 -14.5t35.5 14.5t14.5 35.5t-14.5 35.5t-35.5 14.5zM407 586q0 21 -15 35.5t-36 14.5q-17 0 -30 -8q-16 -10 -16 -26q0 -66 47 -66q21 0 35.5 14.5t14.5 35.5zM638 324q-21 0 -35.5 -14.5t-14.5 -35.5t14.5 -35.5t35.5 -14.5t35.5 14.5t14.5 35.5q0 20 -15 35t-35 15z
M674 220q-21 0 -35.5 -14.5t-14.5 -35.5t14.5 -35.5t35.5 -14.5t35.5 14.5t14.5 35.5q0 20 -15 35t-35 15zM516 264l-70 236l-69 -236h139zM371 482q0 21 -15 35.5t-36 14.5q-17 0 -30 -8q-16 -10 -16 -26q0 -66 47 -66q21 0 35.5 14.5t14.5 35.5zM709 116q-20 0 -35 -15
t-15 -35q0 -21 14.5 -35.5t35.5 -14.5t35.5 14.5t14.5 35.5t-14.5 35.5t-35.5 14.5zM613 165q0 21 -14.5 35.5t-35.5 14.5t-35.5 -14.5t-14.5 -35.5q0 -20 15 -35t35 -15q21 0 35.5 14.5t14.5 35.5zM335 378q0 21 -14.5 35.5t-35.5 14.5q-20 0 -35 -15t-15 -35
q0 -21 14.5 -35.5t35.5 -14.5t35.5 14.5t14.5 35.5zM494 165q0 21 -14.5 35.5t-35.5 14.5t-35.5 -14.5t-14.5 -35.5q0 -20 15 -35t35 -15q21 0 35.5 14.5t14.5 35.5zM300 274q0 21 -15 35.5t-36 14.5q-20 0 -35 -15t-15 -35q0 -21 14.5 -35.5t35.5 -14.5t36 14.5t15 35.5z
M377 165q0 21 -14.5 35.5t-35.5 14.5t-35.5 -14.5t-14.5 -35.5q0 -20 15 -35t35 -15q21 0 35.5 14.5t14.5 35.5zM264 170q0 20 -15 35t-35 15q-21 0 -35.5 -14.5t-14.5 -35.5t14.5 -35.5t35.5 -14.5t35.5 14.5t14.5 35.5zM228 66q0 20 -15 35t-35 15q-21 0 -35.5 -14.5
t-14.5 -35.5t14.5 -35.5t35.5 -14.5t35.5 14.5t14.5 35.5zM433 906l-59 -78h-74l97 115h71l99 -115h-75z" />
    <glyph glyph-name="Atilde" unicode="&#xc3;" horiz-adv-x="893" 
d="M869 -25h-267l-26 86h-258l-27 -86h-267l283 814h279zM551 690q0 20 -15 35t-35 15q-21 0 -35.5 -14.5t-14.5 -35.5t14.5 -35.5t35.5 -14.5t35.5 14.5t14.5 35.5zM530 636q-20 0 -35 -15t-15 -35q0 -21 14.5 -35.5t35.5 -14.5t35.5 14.5t14.5 35.5t-14.5 35.5t-35.5 14.5
zM441 690q0 20 -15 35t-35 15q-21 0 -35.5 -14.5t-14.5 -35.5t14.5 -35.5t35.5 -14.5t35.5 14.5t14.5 35.5zM566 532q-20 0 -35 -15t-15 -35q0 -21 14.5 -35.5t35.5 -14.5t35.5 14.5t14.5 35.5t-14.5 35.5t-35.5 14.5zM602 428q-21 0 -35.5 -14.5t-14.5 -35.5t14.5 -35.5
t35.5 -14.5t35.5 14.5t14.5 35.5t-14.5 35.5t-35.5 14.5zM407 586q0 21 -15 35.5t-36 14.5q-17 0 -30 -8q-16 -10 -16 -26q0 -66 47 -66q21 0 35.5 14.5t14.5 35.5zM638 324q-21 0 -35.5 -14.5t-14.5 -35.5t14.5 -35.5t35.5 -14.5t35.5 14.5t14.5 35.5q0 20 -15 35t-35 15z
M674 220q-21 0 -35.5 -14.5t-14.5 -35.5t14.5 -35.5t35.5 -14.5t35.5 14.5t14.5 35.5q0 20 -15 35t-35 15zM516 264l-70 236l-69 -236h139zM371 482q0 21 -15 35.5t-36 14.5q-17 0 -30 -8q-16 -10 -16 -26q0 -66 47 -66q21 0 35.5 14.5t14.5 35.5zM709 116q-20 0 -35 -15
t-15 -35q0 -21 14.5 -35.5t35.5 -14.5t35.5 14.5t14.5 35.5t-14.5 35.5t-35.5 14.5zM613 165q0 21 -14.5 35.5t-35.5 14.5t-35.5 -14.5t-14.5 -35.5q0 -20 15 -35t35 -15q21 0 35.5 14.5t14.5 35.5zM335 378q0 21 -14.5 35.5t-35.5 14.5q-20 0 -35 -15t-15 -35
q0 -21 14.5 -35.5t35.5 -14.5t35.5 14.5t14.5 35.5zM494 165q0 21 -14.5 35.5t-35.5 14.5t-35.5 -14.5t-14.5 -35.5q0 -20 15 -35t35 -15q21 0 35.5 14.5t14.5 35.5zM300 274q0 21 -15 35.5t-36 14.5q-20 0 -35 -15t-15 -35q0 -21 14.5 -35.5t35.5 -14.5t36 14.5t15 35.5z
M377 165q0 21 -14.5 35.5t-35.5 14.5t-35.5 -14.5t-14.5 -35.5q0 -20 15 -35t35 -15q21 0 35.5 14.5t14.5 35.5zM264 170q0 20 -15 35t-35 15q-21 0 -35.5 -14.5t-14.5 -35.5t14.5 -35.5t35.5 -14.5t35.5 14.5t14.5 35.5zM228 66q0 20 -15 35t-35 15q-21 0 -35.5 -14.5
t-14.5 -35.5t14.5 -35.5t35.5 -14.5t35.5 14.5t14.5 35.5zM582 886q-21 -57 -87 -57q-17 0 -29.5 5.5t-24.5 12t-24 12t-25 5.5q-15 0 -29.5 -9t-28.5 -32l-42 36q18 33 40 47.5t50 14.5q22 0 35.5 -4.5t25 -11.5t22.5 -11.5t26 -4.5q35 0 54 41z" />
    <glyph glyph-name="Adieresis" unicode="&#xc4;" horiz-adv-x="893" 
d="M869 -25h-267l-26 86h-258l-27 -86h-267l283 814h279zM551 690q0 20 -15 35t-35 15q-21 0 -35.5 -14.5t-14.5 -35.5t14.5 -35.5t35.5 -14.5t35.5 14.5t14.5 35.5zM530 636q-20 0 -35 -15t-15 -35q0 -21 14.5 -35.5t35.5 -14.5t35.5 14.5t14.5 35.5t-14.5 35.5t-35.5 14.5
zM441 690q0 20 -15 35t-35 15q-21 0 -35.5 -14.5t-14.5 -35.5t14.5 -35.5t35.5 -14.5t35.5 14.5t14.5 35.5zM566 532q-20 0 -35 -15t-15 -35q0 -21 14.5 -35.5t35.5 -14.5t35.5 14.5t14.5 35.5t-14.5 35.5t-35.5 14.5zM602 428q-21 0 -35.5 -14.5t-14.5 -35.5t14.5 -35.5
t35.5 -14.5t35.5 14.5t14.5 35.5t-14.5 35.5t-35.5 14.5zM407 586q0 21 -15 35.5t-36 14.5q-17 0 -30 -8q-16 -10 -16 -26q0 -66 47 -66q21 0 35.5 14.5t14.5 35.5zM638 324q-21 0 -35.5 -14.5t-14.5 -35.5t14.5 -35.5t35.5 -14.5t35.5 14.5t14.5 35.5q0 20 -15 35t-35 15z
M674 220q-21 0 -35.5 -14.5t-14.5 -35.5t14.5 -35.5t35.5 -14.5t35.5 14.5t14.5 35.5q0 20 -15 35t-35 15zM516 264l-70 236l-69 -236h139zM371 482q0 21 -15 35.5t-36 14.5q-17 0 -30 -8q-16 -10 -16 -26q0 -66 47 -66q21 0 35.5 14.5t14.5 35.5zM709 116q-20 0 -35 -15
t-15 -35q0 -21 14.5 -35.5t35.5 -14.5t35.5 14.5t14.5 35.5t-14.5 35.5t-35.5 14.5zM613 165q0 21 -14.5 35.5t-35.5 14.5t-35.5 -14.5t-14.5 -35.5q0 -20 15 -35t35 -15q21 0 35.5 14.5t14.5 35.5zM335 378q0 21 -14.5 35.5t-35.5 14.5q-20 0 -35 -15t-15 -35
q0 -21 14.5 -35.5t35.5 -14.5t35.5 14.5t14.5 35.5zM494 165q0 21 -14.5 35.5t-35.5 14.5t-35.5 -14.5t-14.5 -35.5q0 -20 15 -35t35 -15q21 0 35.5 14.5t14.5 35.5zM300 274q0 21 -15 35.5t-36 14.5q-20 0 -35 -15t-15 -35q0 -21 14.5 -35.5t35.5 -14.5t36 14.5t15 35.5z
M377 165q0 21 -14.5 35.5t-35.5 14.5t-35.5 -14.5t-14.5 -35.5q0 -20 15 -35t35 -15q21 0 35.5 14.5t14.5 35.5zM264 170q0 20 -15 35t-35 15q-21 0 -35.5 -14.5t-14.5 -35.5t14.5 -35.5t35.5 -14.5t35.5 14.5t14.5 35.5zM228 66q0 20 -15 35t-35 15q-21 0 -35.5 -14.5
t-14.5 -35.5t14.5 -35.5t35.5 -14.5t35.5 14.5t14.5 35.5zM357 841q-24 0 -39 16t-15 39q0 24 15 39.5t39 15.5q23 0 39 -15.5t16 -39.5q0 -23 -16 -39t-39 -16zM522 841q-21 0 -37.5 16t-16.5 39q0 24 16.5 39.5t37.5 15.5q24 0 39 -15.5t15 -39.5q0 -23 -15 -39t-39 -16z
" />
    <glyph glyph-name="Aring" unicode="&#xc5;" horiz-adv-x="893" 
d="M869 -25h-267l-26 86h-258l-27 -86h-267l283 814h279zM551 690q0 20 -15 35t-35 15q-21 0 -35.5 -14.5t-14.5 -35.5t14.5 -35.5t35.5 -14.5t35.5 14.5t14.5 35.5zM530 636q-20 0 -35 -15t-15 -35q0 -21 14.5 -35.5t35.5 -14.5t35.5 14.5t14.5 35.5t-14.5 35.5t-35.5 14.5
zM441 690q0 20 -15 35t-35 15q-21 0 -35.5 -14.5t-14.5 -35.5t14.5 -35.5t35.5 -14.5t35.5 14.5t14.5 35.5zM566 532q-20 0 -35 -15t-15 -35q0 -21 14.5 -35.5t35.5 -14.5t35.5 14.5t14.5 35.5t-14.5 35.5t-35.5 14.5zM602 428q-21 0 -35.5 -14.5t-14.5 -35.5t14.5 -35.5
t35.5 -14.5t35.5 14.5t14.5 35.5t-14.5 35.5t-35.5 14.5zM407 586q0 21 -15 35.5t-36 14.5q-17 0 -30 -8q-16 -10 -16 -26q0 -66 47 -66q21 0 35.5 14.5t14.5 35.5zM638 324q-21 0 -35.5 -14.5t-14.5 -35.5t14.5 -35.5t35.5 -14.5t35.5 14.5t14.5 35.5q0 20 -15 35t-35 15z
M674 220q-21 0 -35.5 -14.5t-14.5 -35.5t14.5 -35.5t35.5 -14.5t35.5 14.5t14.5 35.5q0 20 -15 35t-35 15zM516 264l-70 236l-69 -236h139zM371 482q0 21 -15 35.5t-36 14.5q-17 0 -30 -8q-16 -10 -16 -26q0 -66 47 -66q21 0 35.5 14.5t14.5 35.5zM709 116q-20 0 -35 -15
t-15 -35q0 -21 14.5 -35.5t35.5 -14.5t35.5 14.5t14.5 35.5t-14.5 35.5t-35.5 14.5zM613 165q0 21 -14.5 35.5t-35.5 14.5t-35.5 -14.5t-14.5 -35.5q0 -20 15 -35t35 -15q21 0 35.5 14.5t14.5 35.5zM335 378q0 21 -14.5 35.5t-35.5 14.5q-20 0 -35 -15t-15 -35
q0 -21 14.5 -35.5t35.5 -14.5t35.5 14.5t14.5 35.5zM494 165q0 21 -14.5 35.5t-35.5 14.5t-35.5 -14.5t-14.5 -35.5q0 -20 15 -35t35 -15q21 0 35.5 14.5t14.5 35.5zM300 274q0 21 -15 35.5t-36 14.5q-20 0 -35 -15t-15 -35q0 -21 14.5 -35.5t35.5 -14.5t36 14.5t15 35.5z
M377 165q0 21 -14.5 35.5t-35.5 14.5t-35.5 -14.5t-14.5 -35.5q0 -20 15 -35t35 -15q21 0 35.5 14.5t14.5 35.5zM264 170q0 20 -15 35t-35 15q-21 0 -35.5 -14.5t-14.5 -35.5t14.5 -35.5t35.5 -14.5t35.5 14.5t14.5 35.5zM228 66q0 20 -15 35t-35 15q-21 0 -35.5 -14.5
t-14.5 -35.5t14.5 -35.5t35.5 -14.5t35.5 14.5t14.5 35.5zM447 903q-15 0 -27 -12t-12 -29q0 -18 11.5 -29.5t27.5 -11.5q17 0 29 11.5t12 29.5q0 17 -12.5 29t-28.5 12zM446 800q-26 0 -43 17t-17 43q0 27 17 45.5t43 18.5t43.5 -19t17.5 -45t-17.5 -43t-43.5 -17z" />
    <glyph glyph-name="Ccedilla" unicode="&#xc7;" horiz-adv-x="863" 
d="M835 163q-55 -91 -160 -147t-214 -56q-184 0 -306 119t-122 303q0 185 121 303.5t307 118.5q100 0 195 -45t161 -122l-184 -176q-51 114 -166 114q-82 0 -132 -55t-50 -138t50 -138t132 -55q52 0 102 38q47 36 66 86zM724 589q0 21 -14.5 35.5t-35.5 14.5t-35.5 -14.5
t-14.5 -35.5t14.5 -35.5t35.5 -14.5q20 0 35 15t15 35zM633 661q0 21 -14.5 35.5t-35.5 14.5t-35.5 -14.5t-14.5 -35.5t14.5 -35.5t35.5 -14.5q20 0 35 15t15 35zM507 691q0 21 -14.5 35.5t-35.5 14.5q-20 0 -35 -15t-15 -35q0 -21 14.5 -35.5t35.5 -14.5t35.5 14.5
t14.5 35.5zM392 661q0 21 -14.5 35.5t-35.5 14.5t-35.5 -14.5t-14.5 -35.5t14.5 -35.5t35.5 -14.5q20 0 35 15t15 35zM724 174q0 21 -14.5 35.5t-35.5 14.5t-35.5 -14.5t-14.5 -35.5t14.5 -35.5t35.5 -14.5q20 0 35 15t15 35zM301 589q0 21 -14.5 35.5t-35.5 14.5
t-35.5 -14.5t-14.5 -35.5t14.5 -35.5t35.5 -14.5q20 0 35 15t15 35zM633 102q0 21 -14.5 35.5t-35.5 14.5t-35.5 -14.5t-14.5 -35.5t14.5 -35.5t35.5 -14.5q20 0 35 15t15 35zM237 494q0 21 -14.5 35.5t-35.5 14.5t-35.5 -14.5t-14.5 -35.5q0 -20 15 -35t35 -15
q21 0 35.5 14.5t14.5 35.5zM217 382q0 21 -14.5 35.5t-35.5 14.5t-35.5 -14.5t-14.5 -35.5t14.5 -35.5t35.5 -14.5t35.5 14.5t14.5 35.5zM507 73q0 21 -14.5 35.5t-35.5 14.5t-35.5 -14.5t-14.5 -35.5t14.5 -35.5t35.5 -14.5t35.5 14.5t14.5 35.5zM237 269q0 21 -14.5 35.5
t-35.5 14.5t-35.5 -14.5t-14.5 -35.5q0 -20 15 -35t35 -15q21 0 35.5 14.5t14.5 35.5zM392 102q0 21 -14.5 35.5t-35.5 14.5t-35.5 -14.5t-14.5 -35.5t14.5 -35.5t35.5 -14.5q20 0 35 15t15 35zM301 174q0 21 -14.5 35.5t-35.5 14.5t-35.5 -14.5t-14.5 -35.5t14.5 -35.5
t35.5 -14.5q20 0 35 15t15 35zM476 -19v-52q72 0 72 -65q0 -42 -21.5 -58.5t-68.5 -16.5q-16 0 -29.5 2.5t-21.5 5.5l15 49q12 -6 35 -6q40 0 40 21q0 11 -6.5 15t-24.5 4h-17q-2 0 -7.5 -0.5t-12.5 -1.5v103h47z" />
    <glyph glyph-name="Egrave" unicode="&#xc8;" horiz-adv-x="575" 
d="M536 -25h-488v814h488v-206h-236v-94h236v-206h-236v-95h236v-213zM462 686q0 21 -14.5 35.5t-35.5 14.5t-35.5 -14.5t-14.5 -35.5t14.5 -35.5t35.5 -14.5t35.5 14.5t14.5 35.5zM342 686q0 21 -14.5 35.5t-35.5 14.5t-35.5 -14.5t-14.5 -35.5t14.5 -35.5t35.5 -14.5
t35.5 14.5t14.5 35.5zM222 686q0 21 -14.5 35.5t-35.5 14.5t-35.5 -14.5t-14.5 -35.5t14.5 -35.5t35.5 -14.5t35.5 14.5t14.5 35.5zM462 386q0 21 -14.5 35.5t-35.5 14.5t-35.5 -14.5t-14.5 -35.5t14.5 -35.5t35.5 -14.5t35.5 14.5t14.5 35.5zM222 566q0 21 -14.5 35.5
t-35.5 14.5t-35.5 -14.5t-14.5 -35.5t14.5 -35.5t35.5 -14.5t35.5 14.5t14.5 35.5zM342 386q0 21 -14.5 35.5t-35.5 14.5t-35.5 -14.5t-14.5 -35.5t14.5 -35.5t35.5 -14.5t35.5 14.5t14.5 35.5zM222 446q0 21 -14.5 35.5t-35.5 14.5t-35.5 -14.5t-14.5 -35.5t14.5 -35.5
t35.5 -14.5t35.5 14.5t14.5 35.5zM222 326q0 21 -14.5 35.5t-35.5 14.5t-35.5 -14.5t-14.5 -35.5t14.5 -35.5t35.5 -14.5t35.5 14.5t14.5 35.5zM462 86q0 21 -14.5 35.5t-35.5 14.5t-35.5 -14.5t-14.5 -35.5t14.5 -35.5t35.5 -14.5t35.5 14.5t14.5 35.5zM222 206
q0 21 -14.5 35.5t-35.5 14.5t-35.5 -14.5t-14.5 -35.5t14.5 -35.5t35.5 -14.5t35.5 14.5t14.5 35.5zM342 86q0 21 -14.5 35.5t-35.5 14.5t-35.5 -14.5t-14.5 -35.5t14.5 -35.5t35.5 -14.5t35.5 14.5t14.5 35.5zM222 86q0 21 -14.5 35.5t-35.5 14.5t-35.5 -14.5t-14.5 -35.5
t14.5 -35.5t35.5 -14.5t35.5 14.5t14.5 35.5zM181 931h81l66 -117h-45z" />
    <glyph glyph-name="Eacute" unicode="&#xc9;" horiz-adv-x="575" 
d="M536 -25h-488v814h488v-206h-236v-94h236v-206h-236v-95h236v-213zM462 686q0 21 -14.5 35.5t-35.5 14.5t-35.5 -14.5t-14.5 -35.5t14.5 -35.5t35.5 -14.5t35.5 14.5t14.5 35.5zM342 686q0 21 -14.5 35.5t-35.5 14.5t-35.5 -14.5t-14.5 -35.5t14.5 -35.5t35.5 -14.5
t35.5 14.5t14.5 35.5zM222 686q0 21 -14.5 35.5t-35.5 14.5t-35.5 -14.5t-14.5 -35.5t14.5 -35.5t35.5 -14.5t35.5 14.5t14.5 35.5zM462 386q0 21 -14.5 35.5t-35.5 14.5t-35.5 -14.5t-14.5 -35.5t14.5 -35.5t35.5 -14.5t35.5 14.5t14.5 35.5zM222 566q0 21 -14.5 35.5
t-35.5 14.5t-35.5 -14.5t-14.5 -35.5t14.5 -35.5t35.5 -14.5t35.5 14.5t14.5 35.5zM342 386q0 21 -14.5 35.5t-35.5 14.5t-35.5 -14.5t-14.5 -35.5t14.5 -35.5t35.5 -14.5t35.5 14.5t14.5 35.5zM222 446q0 21 -14.5 35.5t-35.5 14.5t-35.5 -14.5t-14.5 -35.5t14.5 -35.5
t35.5 -14.5t35.5 14.5t14.5 35.5zM222 326q0 21 -14.5 35.5t-35.5 14.5t-35.5 -14.5t-14.5 -35.5t14.5 -35.5t35.5 -14.5t35.5 14.5t14.5 35.5zM462 86q0 21 -14.5 35.5t-35.5 14.5t-35.5 -14.5t-14.5 -35.5t14.5 -35.5t35.5 -14.5t35.5 14.5t14.5 35.5zM222 206
q0 21 -14.5 35.5t-35.5 14.5t-35.5 -14.5t-14.5 -35.5t14.5 -35.5t35.5 -14.5t35.5 14.5t14.5 35.5zM342 86q0 21 -14.5 35.5t-35.5 14.5t-35.5 -14.5t-14.5 -35.5t14.5 -35.5t35.5 -14.5t35.5 14.5t14.5 35.5zM222 86q0 21 -14.5 35.5t-35.5 14.5t-35.5 -14.5t-14.5 -35.5
t14.5 -35.5t35.5 -14.5t35.5 14.5t14.5 35.5zM242 817h-46l66 116h82z" />
    <glyph glyph-name="Ecircumflex" unicode="&#xca;" horiz-adv-x="575" 
d="M536 -25h-488v814h488v-206h-236v-94h236v-206h-236v-95h236v-213zM462 686q0 21 -14.5 35.5t-35.5 14.5t-35.5 -14.5t-14.5 -35.5t14.5 -35.5t35.5 -14.5t35.5 14.5t14.5 35.5zM342 686q0 21 -14.5 35.5t-35.5 14.5t-35.5 -14.5t-14.5 -35.5t14.5 -35.5t35.5 -14.5
t35.5 14.5t14.5 35.5zM222 686q0 21 -14.5 35.5t-35.5 14.5t-35.5 -14.5t-14.5 -35.5t14.5 -35.5t35.5 -14.5t35.5 14.5t14.5 35.5zM462 386q0 21 -14.5 35.5t-35.5 14.5t-35.5 -14.5t-14.5 -35.5t14.5 -35.5t35.5 -14.5t35.5 14.5t14.5 35.5zM222 566q0 21 -14.5 35.5
t-35.5 14.5t-35.5 -14.5t-14.5 -35.5t14.5 -35.5t35.5 -14.5t35.5 14.5t14.5 35.5zM342 386q0 21 -14.5 35.5t-35.5 14.5t-35.5 -14.5t-14.5 -35.5t14.5 -35.5t35.5 -14.5t35.5 14.5t14.5 35.5zM222 446q0 21 -14.5 35.5t-35.5 14.5t-35.5 -14.5t-14.5 -35.5t14.5 -35.5
t35.5 -14.5t35.5 14.5t14.5 35.5zM222 326q0 21 -14.5 35.5t-35.5 14.5t-35.5 -14.5t-14.5 -35.5t14.5 -35.5t35.5 -14.5t35.5 14.5t14.5 35.5zM462 86q0 21 -14.5 35.5t-35.5 14.5t-35.5 -14.5t-14.5 -35.5t14.5 -35.5t35.5 -14.5t35.5 14.5t14.5 35.5zM222 206
q0 21 -14.5 35.5t-35.5 14.5t-35.5 -14.5t-14.5 -35.5t14.5 -35.5t35.5 -14.5t35.5 14.5t14.5 35.5zM342 86q0 21 -14.5 35.5t-35.5 14.5t-35.5 -14.5t-14.5 -35.5t14.5 -35.5t35.5 -14.5t35.5 14.5t14.5 35.5zM222 86q0 21 -14.5 35.5t-35.5 14.5t-35.5 -14.5t-14.5 -35.5
t14.5 -35.5t35.5 -14.5t35.5 14.5t14.5 35.5zM274 906l-59 -78h-74l97 115h71l99 -115h-75z" />
    <glyph glyph-name="Edieresis" unicode="&#xcb;" horiz-adv-x="575" 
d="M536 -25h-488v814h488v-206h-236v-94h236v-206h-236v-95h236v-213zM462 686q0 21 -14.5 35.5t-35.5 14.5t-35.5 -14.5t-14.5 -35.5t14.5 -35.5t35.5 -14.5t35.5 14.5t14.5 35.5zM342 686q0 21 -14.5 35.5t-35.5 14.5t-35.5 -14.5t-14.5 -35.5t14.5 -35.5t35.5 -14.5
t35.5 14.5t14.5 35.5zM222 686q0 21 -14.5 35.5t-35.5 14.5t-35.5 -14.5t-14.5 -35.5t14.5 -35.5t35.5 -14.5t35.5 14.5t14.5 35.5zM462 386q0 21 -14.5 35.5t-35.5 14.5t-35.5 -14.5t-14.5 -35.5t14.5 -35.5t35.5 -14.5t35.5 14.5t14.5 35.5zM222 566q0 21 -14.5 35.5
t-35.5 14.5t-35.5 -14.5t-14.5 -35.5t14.5 -35.5t35.5 -14.5t35.5 14.5t14.5 35.5zM342 386q0 21 -14.5 35.5t-35.5 14.5t-35.5 -14.5t-14.5 -35.5t14.5 -35.5t35.5 -14.5t35.5 14.5t14.5 35.5zM222 446q0 21 -14.5 35.5t-35.5 14.5t-35.5 -14.5t-14.5 -35.5t14.5 -35.5
t35.5 -14.5t35.5 14.5t14.5 35.5zM222 326q0 21 -14.5 35.5t-35.5 14.5t-35.5 -14.5t-14.5 -35.5t14.5 -35.5t35.5 -14.5t35.5 14.5t14.5 35.5zM462 86q0 21 -14.5 35.5t-35.5 14.5t-35.5 -14.5t-14.5 -35.5t14.5 -35.5t35.5 -14.5t35.5 14.5t14.5 35.5zM222 206
q0 21 -14.5 35.5t-35.5 14.5t-35.5 -14.5t-14.5 -35.5t14.5 -35.5t35.5 -14.5t35.5 14.5t14.5 35.5zM342 86q0 21 -14.5 35.5t-35.5 14.5t-35.5 -14.5t-14.5 -35.5t14.5 -35.5t35.5 -14.5t35.5 14.5t14.5 35.5zM222 86q0 21 -14.5 35.5t-35.5 14.5t-35.5 -14.5t-14.5 -35.5
t14.5 -35.5t35.5 -14.5t35.5 14.5t14.5 35.5zM198 841q-24 0 -39 16t-15 39q0 24 15 39.5t39 15.5q23 0 39 -15.5t16 -39.5q0 -23 -16 -39t-39 -16zM363 841q-21 0 -37.5 16t-16.5 39q0 24 16.5 39.5t37.5 15.5q24 0 39 -15.5t15 -39.5q0 -23 -15 -39t-39 -16z" />
    <glyph glyph-name="Igrave" unicode="&#xcc;" 
d="M302 -25h-254v814h254v-814zM222 686q0 21 -14.5 35.5t-35.5 14.5t-35.5 -14.5t-14.5 -35.5t14.5 -35.5t35.5 -14.5t35.5 14.5t14.5 35.5zM222 566q0 21 -14.5 35.5t-35.5 14.5t-35.5 -14.5t-14.5 -35.5t14.5 -35.5t35.5 -14.5t35.5 14.5t14.5 35.5zM222 446
q0 21 -14.5 35.5t-35.5 14.5t-35.5 -14.5t-14.5 -35.5t14.5 -35.5t35.5 -14.5t35.5 14.5t14.5 35.5zM222 326q0 21 -14.5 35.5t-35.5 14.5t-35.5 -14.5t-14.5 -35.5t14.5 -35.5t35.5 -14.5t35.5 14.5t14.5 35.5zM222 206q0 21 -14.5 35.5t-35.5 14.5t-35.5 -14.5
t-14.5 -35.5t14.5 -35.5t35.5 -14.5t35.5 14.5t14.5 35.5zM222 86q0 21 -14.5 35.5t-35.5 14.5t-35.5 -14.5t-14.5 -35.5t14.5 -35.5t35.5 -14.5t35.5 14.5t14.5 35.5zM69 931h81l66 -117h-45z" />
    <glyph glyph-name="Iacute" unicode="&#xcd;" 
d="M302 -25h-254v814h254v-814zM222 686q0 21 -14.5 35.5t-35.5 14.5t-35.5 -14.5t-14.5 -35.5t14.5 -35.5t35.5 -14.5t35.5 14.5t14.5 35.5zM222 566q0 21 -14.5 35.5t-35.5 14.5t-35.5 -14.5t-14.5 -35.5t14.5 -35.5t35.5 -14.5t35.5 14.5t14.5 35.5zM222 446
q0 21 -14.5 35.5t-35.5 14.5t-35.5 -14.5t-14.5 -35.5t14.5 -35.5t35.5 -14.5t35.5 14.5t14.5 35.5zM222 326q0 21 -14.5 35.5t-35.5 14.5t-35.5 -14.5t-14.5 -35.5t14.5 -35.5t35.5 -14.5t35.5 14.5t14.5 35.5zM222 206q0 21 -14.5 35.5t-35.5 14.5t-35.5 -14.5
t-14.5 -35.5t14.5 -35.5t35.5 -14.5t35.5 14.5t14.5 35.5zM222 86q0 21 -14.5 35.5t-35.5 14.5t-35.5 -14.5t-14.5 -35.5t14.5 -35.5t35.5 -14.5t35.5 14.5t14.5 35.5zM130 817h-46l66 116h82z" />
    <glyph glyph-name="Icircumflex" unicode="&#xce;" 
d="M302 -25h-254v814h254v-814zM222 686q0 21 -14.5 35.5t-35.5 14.5t-35.5 -14.5t-14.5 -35.5t14.5 -35.5t35.5 -14.5t35.5 14.5t14.5 35.5zM222 566q0 21 -14.5 35.5t-35.5 14.5t-35.5 -14.5t-14.5 -35.5t14.5 -35.5t35.5 -14.5t35.5 14.5t14.5 35.5zM222 446
q0 21 -14.5 35.5t-35.5 14.5t-35.5 -14.5t-14.5 -35.5t14.5 -35.5t35.5 -14.5t35.5 14.5t14.5 35.5zM222 326q0 21 -14.5 35.5t-35.5 14.5t-35.5 -14.5t-14.5 -35.5t14.5 -35.5t35.5 -14.5t35.5 14.5t14.5 35.5zM222 206q0 21 -14.5 35.5t-35.5 14.5t-35.5 -14.5
t-14.5 -35.5t14.5 -35.5t35.5 -14.5t35.5 14.5t14.5 35.5zM222 86q0 21 -14.5 35.5t-35.5 14.5t-35.5 -14.5t-14.5 -35.5t14.5 -35.5t35.5 -14.5t35.5 14.5t14.5 35.5zM162 906l-59 -78h-74l97 115h71l99 -115h-75z" />
    <glyph glyph-name="Idieresis" unicode="&#xcf;" 
d="M302 -25h-254v814h254v-814zM222 686q0 21 -14.5 35.5t-35.5 14.5t-35.5 -14.5t-14.5 -35.5t14.5 -35.5t35.5 -14.5t35.5 14.5t14.5 35.5zM222 566q0 21 -14.5 35.5t-35.5 14.5t-35.5 -14.5t-14.5 -35.5t14.5 -35.5t35.5 -14.5t35.5 14.5t14.5 35.5zM222 446
q0 21 -14.5 35.5t-35.5 14.5t-35.5 -14.5t-14.5 -35.5t14.5 -35.5t35.5 -14.5t35.5 14.5t14.5 35.5zM222 326q0 21 -14.5 35.5t-35.5 14.5t-35.5 -14.5t-14.5 -35.5t14.5 -35.5t35.5 -14.5t35.5 14.5t14.5 35.5zM222 206q0 21 -14.5 35.5t-35.5 14.5t-35.5 -14.5
t-14.5 -35.5t14.5 -35.5t35.5 -14.5t35.5 14.5t14.5 35.5zM222 86q0 21 -14.5 35.5t-35.5 14.5t-35.5 -14.5t-14.5 -35.5t14.5 -35.5t35.5 -14.5t35.5 14.5t14.5 35.5zM86 841q-24 0 -39 16t-15 39q0 24 15 39.5t39 15.5q23 0 39 -15.5t16 -39.5q0 -23 -16 -39t-39 -16z
M251 841q-21 0 -37.5 16t-16.5 39q0 24 16.5 39.5t37.5 15.5q24 0 39 -15.5t15 -39.5q0 -23 -15 -39t-39 -16z" />
    <glyph glyph-name="Ntilde" unicode="&#xd1;" horiz-adv-x="840" 
d="M792 -25h-235l-259 403v-403h-250v814h246l251 -408v408h247v-814zM722 686q0 21 -14.5 35.5t-35.5 14.5t-35.5 -14.5t-14.5 -35.5t14.5 -35.5t35.5 -14.5t35.5 14.5t14.5 35.5zM722 566q0 21 -14.5 35.5t-35.5 14.5t-35.5 -14.5t-14.5 -35.5t14.5 -35.5t35.5 -14.5
t35.5 14.5t14.5 35.5zM722 446q0 21 -14.5 35.5t-35.5 14.5t-35.5 -14.5t-14.5 -35.5t14.5 -35.5t35.5 -14.5t35.5 14.5t14.5 35.5zM722 326q0 21 -14.5 35.5t-35.5 14.5t-35.5 -14.5t-14.5 -35.5t14.5 -35.5t35.5 -14.5t35.5 14.5t14.5 35.5zM275 663q-21 0 -35.5 -14.5
t-14.5 -35.5q0 -20 15 -35t35 -15q21 0 35.5 14.5t14.5 35.5t-14.5 35.5t-35.5 14.5zM722 206q0 21 -14.5 35.5t-35.5 14.5t-35.5 -14.5t-14.5 -35.5t14.5 -35.5t35.5 -14.5t35.5 14.5t14.5 35.5zM222 686q0 21 -14.5 35.5t-35.5 14.5t-35.5 -14.5t-14.5 -35.5t14.5 -35.5
t35.5 -14.5t35.5 14.5t14.5 35.5zM339 551q-21 0 -35.5 -14.5t-14.5 -35.5t14.5 -35.5t35.5 -14.5t35.5 14.5t14.5 35.5t-14.5 35.5t-35.5 14.5zM413 440q-21 0 -35.5 -14.5t-14.5 -35.5t14.5 -35.5t35.5 -14.5t35.5 14.5t14.5 35.5q0 20 -15 35t-35 15zM496 318
q-20 0 -35 -15t-15 -35q0 -21 14.5 -35.5t35.5 -14.5t35.5 14.5t14.5 35.5t-14.5 35.5t-35.5 14.5zM722 86q0 21 -14.5 35.5t-35.5 14.5t-35.5 -14.5t-14.5 -35.5t14.5 -35.5t35.5 -14.5t35.5 14.5t14.5 35.5zM222 566q0 21 -14.5 35.5t-35.5 14.5t-35.5 -14.5t-14.5 -35.5
t14.5 -35.5t35.5 -14.5t35.5 14.5t14.5 35.5zM570 216q-21 0 -35.5 -14.5t-14.5 -35.5t14.5 -35.5t35.5 -14.5q20 0 35 15t15 35q0 21 -14.5 35.5t-35.5 14.5zM222 446q0 21 -14.5 35.5t-35.5 14.5t-35.5 -14.5t-14.5 -35.5t14.5 -35.5t35.5 -14.5t35.5 14.5t14.5 35.5z
M222 326q0 21 -14.5 35.5t-35.5 14.5t-35.5 -14.5t-14.5 -35.5t14.5 -35.5t35.5 -14.5t35.5 14.5t14.5 35.5zM222 206q0 21 -14.5 35.5t-35.5 14.5t-35.5 -14.5t-14.5 -35.5t14.5 -35.5t35.5 -14.5t35.5 14.5t14.5 35.5zM222 86q0 21 -14.5 35.5t-35.5 14.5t-35.5 -14.5
t-14.5 -35.5t14.5 -35.5t35.5 -14.5t35.5 14.5t14.5 35.5zM556 886q-21 -57 -87 -57q-17 0 -29.5 5.5t-24.5 12t-24 12t-25 5.5q-15 0 -29.5 -9t-28.5 -32l-42 36q18 33 40 47.5t50 14.5q22 0 35.5 -4.5t25 -11.5t22.5 -11.5t26 -4.5q35 0 54 41z" />
    <glyph glyph-name="Ograve" unicode="&#xd2;" horiz-adv-x="926" 
d="M892 382q0 -184 -122.5 -303t-306.5 -119t-306.5 119t-122.5 303q0 185 121.5 303.5t307.5 118.5q185 0 307 -119t122 -303zM725 589q0 21 -14.5 35.5t-35.5 14.5t-35.5 -14.5t-14.5 -35.5t14.5 -35.5t35.5 -14.5q20 0 35 15t15 35zM634 661q0 21 -14.5 35.5t-35.5 14.5
t-35.5 -14.5t-14.5 -35.5t14.5 -35.5t35.5 -14.5q20 0 35 15t15 35zM788 494q0 21 -14.5 35.5t-35.5 14.5t-35.5 -14.5t-14.5 -35.5t14.5 -35.5t35.5 -14.5t35.5 14.5t14.5 35.5zM508 691q0 21 -14.5 35.5t-35.5 14.5q-20 0 -35 -15t-15 -35q0 -21 14.5 -35.5t35.5 -14.5
t35.5 14.5t14.5 35.5zM809 382q0 20 -15 35t-35 15q-21 0 -35.5 -14.5t-14.5 -35.5t14.5 -35.5t35.5 -14.5t35.5 14.5t14.5 35.5zM788 269q0 21 -14.5 35.5t-35.5 14.5t-35.5 -14.5t-14.5 -35.5t14.5 -35.5t35.5 -14.5t35.5 14.5t14.5 35.5zM393 661q0 21 -14.5 35.5
t-35.5 14.5t-35.5 -14.5t-14.5 -35.5t14.5 -35.5t35.5 -14.5q20 0 35 15t15 35zM725 174q0 21 -14.5 35.5t-35.5 14.5t-35.5 -14.5t-14.5 -35.5t14.5 -35.5t35.5 -14.5q20 0 35 15t15 35zM463 189q81 0 130 57q47 54 47 136q0 83 -47 136q-49 57 -130 57t-130 -57
q-47 -53 -47 -136q0 -82 47 -136q49 -57 130 -57zM302 589q0 21 -14.5 35.5t-35.5 14.5t-35.5 -14.5t-14.5 -35.5t14.5 -35.5t35.5 -14.5q20 0 35 15t15 35zM634 102q0 21 -14.5 35.5t-35.5 14.5t-35.5 -14.5t-14.5 -35.5t14.5 -35.5t35.5 -14.5q20 0 35 15t15 35zM238 494
q0 21 -14.5 35.5t-35.5 14.5t-35.5 -14.5t-14.5 -35.5q0 -20 15 -35t35 -15q21 0 35.5 14.5t14.5 35.5zM218 382q0 21 -14.5 35.5t-35.5 14.5t-35.5 -14.5t-14.5 -35.5t14.5 -35.5t35.5 -14.5t35.5 14.5t14.5 35.5zM508 73q0 21 -14.5 35.5t-35.5 14.5t-35.5 -14.5
t-14.5 -35.5t14.5 -35.5t35.5 -14.5t35.5 14.5t14.5 35.5zM238 269q0 21 -14.5 35.5t-35.5 14.5t-35.5 -14.5t-14.5 -35.5q0 -20 15 -35t35 -15q21 0 35.5 14.5t14.5 35.5zM393 102q0 21 -14.5 35.5t-35.5 14.5t-35.5 -14.5t-14.5 -35.5t14.5 -35.5t35.5 -14.5q20 0 35 15
t15 35zM302 174q0 21 -14.5 35.5t-35.5 14.5t-35.5 -14.5t-14.5 -35.5t14.5 -35.5t35.5 -14.5q20 0 35 15t15 35zM356 931h81l66 -117h-45z" />
    <glyph glyph-name="Oacute" unicode="&#xd3;" horiz-adv-x="926" 
d="M892 382q0 -184 -122.5 -303t-306.5 -119t-306.5 119t-122.5 303q0 185 121.5 303.5t307.5 118.5q185 0 307 -119t122 -303zM725 589q0 21 -14.5 35.5t-35.5 14.5t-35.5 -14.5t-14.5 -35.5t14.5 -35.5t35.5 -14.5q20 0 35 15t15 35zM634 661q0 21 -14.5 35.5t-35.5 14.5
t-35.5 -14.5t-14.5 -35.5t14.5 -35.5t35.5 -14.5q20 0 35 15t15 35zM788 494q0 21 -14.5 35.5t-35.5 14.5t-35.5 -14.5t-14.5 -35.5t14.5 -35.5t35.5 -14.5t35.5 14.5t14.5 35.5zM508 691q0 21 -14.5 35.5t-35.5 14.5q-20 0 -35 -15t-15 -35q0 -21 14.5 -35.5t35.5 -14.5
t35.5 14.5t14.5 35.5zM809 382q0 20 -15 35t-35 15q-21 0 -35.5 -14.5t-14.5 -35.5t14.5 -35.5t35.5 -14.5t35.5 14.5t14.5 35.5zM788 269q0 21 -14.5 35.5t-35.5 14.5t-35.5 -14.5t-14.5 -35.5t14.5 -35.5t35.5 -14.5t35.5 14.5t14.5 35.5zM393 661q0 21 -14.5 35.5
t-35.5 14.5t-35.5 -14.5t-14.5 -35.5t14.5 -35.5t35.5 -14.5q20 0 35 15t15 35zM725 174q0 21 -14.5 35.5t-35.5 14.5t-35.5 -14.5t-14.5 -35.5t14.5 -35.5t35.5 -14.5q20 0 35 15t15 35zM463 189q81 0 130 57q47 54 47 136q0 83 -47 136q-49 57 -130 57t-130 -57
q-47 -53 -47 -136q0 -82 47 -136q49 -57 130 -57zM302 589q0 21 -14.5 35.5t-35.5 14.5t-35.5 -14.5t-14.5 -35.5t14.5 -35.5t35.5 -14.5q20 0 35 15t15 35zM634 102q0 21 -14.5 35.5t-35.5 14.5t-35.5 -14.5t-14.5 -35.5t14.5 -35.5t35.5 -14.5q20 0 35 15t15 35zM238 494
q0 21 -14.5 35.5t-35.5 14.5t-35.5 -14.5t-14.5 -35.5q0 -20 15 -35t35 -15q21 0 35.5 14.5t14.5 35.5zM218 382q0 21 -14.5 35.5t-35.5 14.5t-35.5 -14.5t-14.5 -35.5t14.5 -35.5t35.5 -14.5t35.5 14.5t14.5 35.5zM508 73q0 21 -14.5 35.5t-35.5 14.5t-35.5 -14.5
t-14.5 -35.5t14.5 -35.5t35.5 -14.5t35.5 14.5t14.5 35.5zM238 269q0 21 -14.5 35.5t-35.5 14.5t-35.5 -14.5t-14.5 -35.5q0 -20 15 -35t35 -15q21 0 35.5 14.5t14.5 35.5zM393 102q0 21 -14.5 35.5t-35.5 14.5t-35.5 -14.5t-14.5 -35.5t14.5 -35.5t35.5 -14.5q20 0 35 15
t15 35zM302 174q0 21 -14.5 35.5t-35.5 14.5t-35.5 -14.5t-14.5 -35.5t14.5 -35.5t35.5 -14.5q20 0 35 15t15 35zM417 817h-46l66 116h82z" />
    <glyph glyph-name="Ocircumflex" unicode="&#xd4;" horiz-adv-x="926" 
d="M892 382q0 -184 -122.5 -303t-306.5 -119t-306.5 119t-122.5 303q0 185 121.5 303.5t307.5 118.5q185 0 307 -119t122 -303zM725 589q0 21 -14.5 35.5t-35.5 14.5t-35.5 -14.5t-14.5 -35.5t14.5 -35.5t35.5 -14.5q20 0 35 15t15 35zM634 661q0 21 -14.5 35.5t-35.5 14.5
t-35.5 -14.5t-14.5 -35.5t14.5 -35.5t35.5 -14.5q20 0 35 15t15 35zM788 494q0 21 -14.5 35.5t-35.5 14.5t-35.5 -14.5t-14.5 -35.5t14.5 -35.5t35.5 -14.5t35.5 14.5t14.5 35.5zM508 691q0 21 -14.5 35.5t-35.5 14.5q-20 0 -35 -15t-15 -35q0 -21 14.5 -35.5t35.5 -14.5
t35.5 14.5t14.5 35.5zM809 382q0 20 -15 35t-35 15q-21 0 -35.5 -14.5t-14.5 -35.5t14.5 -35.5t35.5 -14.5t35.5 14.5t14.5 35.5zM788 269q0 21 -14.5 35.5t-35.5 14.5t-35.5 -14.5t-14.5 -35.5t14.5 -35.5t35.5 -14.5t35.5 14.5t14.5 35.5zM393 661q0 21 -14.5 35.5
t-35.5 14.5t-35.5 -14.5t-14.5 -35.5t14.5 -35.5t35.5 -14.5q20 0 35 15t15 35zM725 174q0 21 -14.5 35.5t-35.5 14.5t-35.5 -14.5t-14.5 -35.5t14.5 -35.5t35.5 -14.5q20 0 35 15t15 35zM463 189q81 0 130 57q47 54 47 136q0 83 -47 136q-49 57 -130 57t-130 -57
q-47 -53 -47 -136q0 -82 47 -136q49 -57 130 -57zM302 589q0 21 -14.5 35.5t-35.5 14.5t-35.5 -14.5t-14.5 -35.5t14.5 -35.5t35.5 -14.5q20 0 35 15t15 35zM634 102q0 21 -14.5 35.5t-35.5 14.5t-35.5 -14.5t-14.5 -35.5t14.5 -35.5t35.5 -14.5q20 0 35 15t15 35zM238 494
q0 21 -14.5 35.5t-35.5 14.5t-35.5 -14.5t-14.5 -35.5q0 -20 15 -35t35 -15q21 0 35.5 14.5t14.5 35.5zM218 382q0 21 -14.5 35.5t-35.5 14.5t-35.5 -14.5t-14.5 -35.5t14.5 -35.5t35.5 -14.5t35.5 14.5t14.5 35.5zM508 73q0 21 -14.5 35.5t-35.5 14.5t-35.5 -14.5
t-14.5 -35.5t14.5 -35.5t35.5 -14.5t35.5 14.5t14.5 35.5zM238 269q0 21 -14.5 35.5t-35.5 14.5t-35.5 -14.5t-14.5 -35.5q0 -20 15 -35t35 -15q21 0 35.5 14.5t14.5 35.5zM393 102q0 21 -14.5 35.5t-35.5 14.5t-35.5 -14.5t-14.5 -35.5t14.5 -35.5t35.5 -14.5q20 0 35 15
t15 35zM302 174q0 21 -14.5 35.5t-35.5 14.5t-35.5 -14.5t-14.5 -35.5t14.5 -35.5t35.5 -14.5q20 0 35 15t15 35zM449 906l-59 -78h-74l97 115h71l99 -115h-75z" />
    <glyph glyph-name="Otilde" unicode="&#xd5;" horiz-adv-x="926" 
d="M892 382q0 -184 -122.5 -303t-306.5 -119t-306.5 119t-122.5 303q0 185 121.5 303.5t307.5 118.5q185 0 307 -119t122 -303zM725 589q0 21 -14.5 35.5t-35.5 14.5t-35.5 -14.5t-14.5 -35.5t14.5 -35.5t35.5 -14.5q20 0 35 15t15 35zM634 661q0 21 -14.5 35.5t-35.5 14.5
t-35.5 -14.5t-14.5 -35.5t14.5 -35.5t35.5 -14.5q20 0 35 15t15 35zM788 494q0 21 -14.5 35.5t-35.5 14.5t-35.5 -14.5t-14.5 -35.5t14.5 -35.5t35.5 -14.5t35.5 14.5t14.5 35.5zM508 691q0 21 -14.5 35.5t-35.5 14.5q-20 0 -35 -15t-15 -35q0 -21 14.5 -35.5t35.5 -14.5
t35.5 14.5t14.5 35.5zM809 382q0 20 -15 35t-35 15q-21 0 -35.5 -14.5t-14.5 -35.5t14.5 -35.5t35.5 -14.5t35.5 14.5t14.5 35.5zM788 269q0 21 -14.5 35.5t-35.5 14.5t-35.5 -14.5t-14.5 -35.5t14.5 -35.5t35.5 -14.5t35.5 14.5t14.5 35.5zM393 661q0 21 -14.5 35.5
t-35.5 14.5t-35.5 -14.5t-14.5 -35.5t14.5 -35.5t35.5 -14.5q20 0 35 15t15 35zM725 174q0 21 -14.5 35.5t-35.5 14.5t-35.5 -14.5t-14.5 -35.5t14.5 -35.5t35.5 -14.5q20 0 35 15t15 35zM463 189q81 0 130 57q47 54 47 136q0 83 -47 136q-49 57 -130 57t-130 -57
q-47 -53 -47 -136q0 -82 47 -136q49 -57 130 -57zM302 589q0 21 -14.5 35.5t-35.5 14.5t-35.5 -14.5t-14.5 -35.5t14.5 -35.5t35.5 -14.5q20 0 35 15t15 35zM634 102q0 21 -14.5 35.5t-35.5 14.5t-35.5 -14.5t-14.5 -35.5t14.5 -35.5t35.5 -14.5q20 0 35 15t15 35zM238 494
q0 21 -14.5 35.5t-35.5 14.5t-35.5 -14.5t-14.5 -35.5q0 -20 15 -35t35 -15q21 0 35.5 14.5t14.5 35.5zM218 382q0 21 -14.5 35.5t-35.5 14.5t-35.5 -14.5t-14.5 -35.5t14.5 -35.5t35.5 -14.5t35.5 14.5t14.5 35.5zM508 73q0 21 -14.5 35.5t-35.5 14.5t-35.5 -14.5
t-14.5 -35.5t14.5 -35.5t35.5 -14.5t35.5 14.5t14.5 35.5zM238 269q0 21 -14.5 35.5t-35.5 14.5t-35.5 -14.5t-14.5 -35.5q0 -20 15 -35t35 -15q21 0 35.5 14.5t14.5 35.5zM393 102q0 21 -14.5 35.5t-35.5 14.5t-35.5 -14.5t-14.5 -35.5t14.5 -35.5t35.5 -14.5q20 0 35 15
t15 35zM302 174q0 21 -14.5 35.5t-35.5 14.5t-35.5 -14.5t-14.5 -35.5t14.5 -35.5t35.5 -14.5q20 0 35 15t15 35zM599 886q-21 -57 -87 -57q-17 0 -29.5 5.5t-24.5 12t-24 12t-25 5.5q-15 0 -29.5 -9t-28.5 -32l-42 36q18 33 40 47.5t50 14.5q22 0 35.5 -4.5t25 -11.5
t22.5 -11.5t26 -4.5q35 0 54 41z" />
    <glyph glyph-name="Odieresis" unicode="&#xd6;" horiz-adv-x="926" 
d="M892 382q0 -184 -122.5 -303t-306.5 -119t-306.5 119t-122.5 303q0 185 121.5 303.5t307.5 118.5q185 0 307 -119t122 -303zM725 589q0 21 -14.5 35.5t-35.5 14.5t-35.5 -14.5t-14.5 -35.5t14.5 -35.5t35.5 -14.5q20 0 35 15t15 35zM634 661q0 21 -14.5 35.5t-35.5 14.5
t-35.5 -14.5t-14.5 -35.5t14.5 -35.5t35.5 -14.5q20 0 35 15t15 35zM788 494q0 21 -14.5 35.5t-35.5 14.5t-35.5 -14.5t-14.5 -35.5t14.5 -35.5t35.5 -14.5t35.5 14.5t14.5 35.5zM508 691q0 21 -14.5 35.5t-35.5 14.5q-20 0 -35 -15t-15 -35q0 -21 14.5 -35.5t35.5 -14.5
t35.5 14.5t14.5 35.5zM809 382q0 20 -15 35t-35 15q-21 0 -35.5 -14.5t-14.5 -35.5t14.5 -35.5t35.5 -14.5t35.5 14.5t14.5 35.5zM788 269q0 21 -14.5 35.5t-35.5 14.5t-35.5 -14.5t-14.5 -35.5t14.5 -35.5t35.5 -14.5t35.5 14.5t14.5 35.5zM393 661q0 21 -14.5 35.5
t-35.5 14.5t-35.5 -14.5t-14.5 -35.5t14.5 -35.5t35.5 -14.5q20 0 35 15t15 35zM725 174q0 21 -14.5 35.5t-35.5 14.5t-35.5 -14.5t-14.5 -35.5t14.5 -35.5t35.5 -14.5q20 0 35 15t15 35zM463 189q81 0 130 57q47 54 47 136q0 83 -47 136q-49 57 -130 57t-130 -57
q-47 -53 -47 -136q0 -82 47 -136q49 -57 130 -57zM302 589q0 21 -14.5 35.5t-35.5 14.5t-35.5 -14.5t-14.5 -35.5t14.5 -35.5t35.5 -14.5q20 0 35 15t15 35zM634 102q0 21 -14.5 35.5t-35.5 14.5t-35.5 -14.5t-14.5 -35.5t14.5 -35.5t35.5 -14.5q20 0 35 15t15 35zM238 494
q0 21 -14.5 35.5t-35.5 14.5t-35.5 -14.5t-14.5 -35.5q0 -20 15 -35t35 -15q21 0 35.5 14.5t14.5 35.5zM218 382q0 21 -14.5 35.5t-35.5 14.5t-35.5 -14.5t-14.5 -35.5t14.5 -35.5t35.5 -14.5t35.5 14.5t14.5 35.5zM508 73q0 21 -14.5 35.5t-35.5 14.5t-35.5 -14.5
t-14.5 -35.5t14.5 -35.5t35.5 -14.5t35.5 14.5t14.5 35.5zM238 269q0 21 -14.5 35.5t-35.5 14.5t-35.5 -14.5t-14.5 -35.5q0 -20 15 -35t35 -15q21 0 35.5 14.5t14.5 35.5zM393 102q0 21 -14.5 35.5t-35.5 14.5t-35.5 -14.5t-14.5 -35.5t14.5 -35.5t35.5 -14.5q20 0 35 15
t15 35zM302 174q0 21 -14.5 35.5t-35.5 14.5t-35.5 -14.5t-14.5 -35.5t14.5 -35.5t35.5 -14.5q20 0 35 15t15 35zM374 841q-24 0 -39 16t-15 39q0 24 15 39.5t39 15.5q23 0 39 -15.5t16 -39.5q0 -23 -16 -39t-39 -16zM539 841q-21 0 -37.5 16t-16.5 39q0 24 16.5 39.5
t37.5 15.5q24 0 39 -15.5t15 -39.5q0 -23 -15 -39t-39 -16z" />
    <glyph glyph-name="Ugrave" unicode="&#xd9;" horiz-adv-x="769" 
d="M725 275q0 -152 -96 -235q-91 -80 -245 -80t-245 80q-96 83 -96 235v514h253v-448q0 -72 11 -102q19 -52 77 -52q59 0 78 52q11 30 11 102v448h252v-514zM653 686q0 21 -14.5 35.5t-35.5 14.5t-35.5 -14.5t-14.5 -35.5t14.5 -35.5t35.5 -14.5t35.5 14.5t14.5 35.5z
M653 566q0 21 -14.5 35.5t-35.5 14.5t-35.5 -14.5t-14.5 -35.5t14.5 -35.5t35.5 -14.5t35.5 14.5t14.5 35.5zM653 446q0 21 -14.5 35.5t-35.5 14.5t-35.5 -14.5t-14.5 -35.5t14.5 -35.5t35.5 -14.5t35.5 14.5t14.5 35.5zM653 326q0 21 -14.5 35.5t-35.5 14.5t-35.5 -14.5
t-14.5 -35.5t14.5 -35.5t35.5 -14.5t35.5 14.5t14.5 35.5zM212 686q0 21 -14.5 35.5t-35.5 14.5t-35.5 -14.5t-14.5 -35.5t14.5 -35.5t35.5 -14.5t35.5 14.5t14.5 35.5zM624 206q0 21 -14.5 35.5t-35.5 14.5t-35.5 -14.5t-14.5 -35.5t14.5 -35.5t35.5 -14.5t35.5 14.5
t14.5 35.5zM212 566q0 21 -14.5 35.5t-35.5 14.5t-35.5 -14.5t-14.5 -35.5t14.5 -35.5t35.5 -14.5t35.5 14.5t14.5 35.5zM549 109q0 21 -14.5 35.5t-35.5 14.5t-35.5 -14.5t-14.5 -35.5t14.5 -35.5t35.5 -14.5t35.5 14.5t14.5 35.5zM212 446q0 21 -14.5 35.5t-35.5 14.5
t-35.5 -14.5t-14.5 -35.5t14.5 -35.5t35.5 -14.5t35.5 14.5t14.5 35.5zM212 326q0 21 -14.5 35.5t-35.5 14.5t-35.5 -14.5t-14.5 -35.5t14.5 -35.5t35.5 -14.5t35.5 14.5t14.5 35.5zM437 78q0 20 -15 35t-35 15q-21 0 -35.5 -14.5t-14.5 -35.5t14.5 -35.5t35.5 -14.5
t35.5 14.5t14.5 35.5zM241 206q0 21 -14.5 35.5t-35.5 14.5t-35.5 -14.5t-14.5 -35.5t14.5 -35.5t35.5 -14.5t35.5 14.5t14.5 35.5zM316 109q0 21 -14.5 35.5t-35.5 14.5t-35.5 -14.5t-14.5 -35.5t14.5 -35.5t35.5 -14.5q20 0 35 15t15 35zM278 931h81l66 -117h-45z" />
    <glyph glyph-name="Uacute" unicode="&#xda;" horiz-adv-x="769" 
d="M725 275q0 -152 -96 -235q-91 -80 -245 -80t-245 80q-96 83 -96 235v514h253v-448q0 -72 11 -102q19 -52 77 -52q59 0 78 52q11 30 11 102v448h252v-514zM653 686q0 21 -14.5 35.5t-35.5 14.5t-35.5 -14.5t-14.5 -35.5t14.5 -35.5t35.5 -14.5t35.5 14.5t14.5 35.5z
M653 566q0 21 -14.5 35.5t-35.5 14.5t-35.5 -14.5t-14.5 -35.5t14.5 -35.5t35.5 -14.5t35.5 14.5t14.5 35.5zM653 446q0 21 -14.5 35.5t-35.5 14.5t-35.5 -14.5t-14.5 -35.5t14.5 -35.5t35.5 -14.5t35.5 14.5t14.5 35.5zM653 326q0 21 -14.5 35.5t-35.5 14.5t-35.5 -14.5
t-14.5 -35.5t14.5 -35.5t35.5 -14.5t35.5 14.5t14.5 35.5zM212 686q0 21 -14.5 35.5t-35.5 14.5t-35.5 -14.5t-14.5 -35.5t14.5 -35.5t35.5 -14.5t35.5 14.5t14.5 35.5zM624 206q0 21 -14.5 35.5t-35.5 14.5t-35.5 -14.5t-14.5 -35.5t14.5 -35.5t35.5 -14.5t35.5 14.5
t14.5 35.5zM212 566q0 21 -14.5 35.5t-35.5 14.5t-35.5 -14.5t-14.5 -35.5t14.5 -35.5t35.5 -14.5t35.5 14.5t14.5 35.5zM549 109q0 21 -14.5 35.5t-35.5 14.5t-35.5 -14.5t-14.5 -35.5t14.5 -35.5t35.5 -14.5t35.5 14.5t14.5 35.5zM212 446q0 21 -14.5 35.5t-35.5 14.5
t-35.5 -14.5t-14.5 -35.5t14.5 -35.5t35.5 -14.5t35.5 14.5t14.5 35.5zM212 326q0 21 -14.5 35.5t-35.5 14.5t-35.5 -14.5t-14.5 -35.5t14.5 -35.5t35.5 -14.5t35.5 14.5t14.5 35.5zM437 78q0 20 -15 35t-35 15q-21 0 -35.5 -14.5t-14.5 -35.5t14.5 -35.5t35.5 -14.5
t35.5 14.5t14.5 35.5zM241 206q0 21 -14.5 35.5t-35.5 14.5t-35.5 -14.5t-14.5 -35.5t14.5 -35.5t35.5 -14.5t35.5 14.5t14.5 35.5zM316 109q0 21 -14.5 35.5t-35.5 14.5t-35.5 -14.5t-14.5 -35.5t14.5 -35.5t35.5 -14.5q20 0 35 15t15 35zM339 817h-46l66 116h82z" />
    <glyph glyph-name="Ucircumflex" unicode="&#xdb;" horiz-adv-x="769" 
d="M725 275q0 -152 -96 -235q-91 -80 -245 -80t-245 80q-96 83 -96 235v514h253v-448q0 -72 11 -102q19 -52 77 -52q59 0 78 52q11 30 11 102v448h252v-514zM653 686q0 21 -14.5 35.5t-35.5 14.5t-35.5 -14.5t-14.5 -35.5t14.5 -35.5t35.5 -14.5t35.5 14.5t14.5 35.5z
M653 566q0 21 -14.5 35.5t-35.5 14.5t-35.5 -14.5t-14.5 -35.5t14.5 -35.5t35.5 -14.5t35.5 14.5t14.5 35.5zM653 446q0 21 -14.5 35.5t-35.5 14.5t-35.5 -14.5t-14.5 -35.5t14.5 -35.5t35.5 -14.5t35.5 14.5t14.5 35.5zM653 326q0 21 -14.5 35.5t-35.5 14.5t-35.5 -14.5
t-14.5 -35.5t14.5 -35.5t35.5 -14.5t35.5 14.5t14.5 35.5zM212 686q0 21 -14.5 35.5t-35.5 14.5t-35.5 -14.5t-14.5 -35.5t14.5 -35.5t35.5 -14.5t35.5 14.5t14.5 35.5zM624 206q0 21 -14.5 35.5t-35.5 14.5t-35.5 -14.5t-14.5 -35.5t14.5 -35.5t35.5 -14.5t35.5 14.5
t14.5 35.5zM212 566q0 21 -14.5 35.5t-35.5 14.5t-35.5 -14.5t-14.5 -35.5t14.5 -35.5t35.5 -14.5t35.5 14.5t14.5 35.5zM549 109q0 21 -14.5 35.5t-35.5 14.5t-35.5 -14.5t-14.5 -35.5t14.5 -35.5t35.5 -14.5t35.5 14.5t14.5 35.5zM212 446q0 21 -14.5 35.5t-35.5 14.5
t-35.5 -14.5t-14.5 -35.5t14.5 -35.5t35.5 -14.5t35.5 14.5t14.5 35.5zM212 326q0 21 -14.5 35.5t-35.5 14.5t-35.5 -14.5t-14.5 -35.5t14.5 -35.5t35.5 -14.5t35.5 14.5t14.5 35.5zM437 78q0 20 -15 35t-35 15q-21 0 -35.5 -14.5t-14.5 -35.5t14.5 -35.5t35.5 -14.5
t35.5 14.5t14.5 35.5zM241 206q0 21 -14.5 35.5t-35.5 14.5t-35.5 -14.5t-14.5 -35.5t14.5 -35.5t35.5 -14.5t35.5 14.5t14.5 35.5zM316 109q0 21 -14.5 35.5t-35.5 14.5t-35.5 -14.5t-14.5 -35.5t14.5 -35.5t35.5 -14.5q20 0 35 15t15 35zM371 906l-59 -78h-74l97 115h71
l99 -115h-75z" />
    <glyph glyph-name="Udieresis" unicode="&#xdc;" horiz-adv-x="769" 
d="M725 275q0 -152 -96 -235q-91 -80 -245 -80t-245 80q-96 83 -96 235v514h253v-448q0 -72 11 -102q19 -52 77 -52q59 0 78 52q11 30 11 102v448h252v-514zM653 686q0 21 -14.5 35.5t-35.5 14.5t-35.5 -14.5t-14.5 -35.5t14.5 -35.5t35.5 -14.5t35.5 14.5t14.5 35.5z
M653 566q0 21 -14.5 35.5t-35.5 14.5t-35.5 -14.5t-14.5 -35.5t14.5 -35.5t35.5 -14.5t35.5 14.5t14.5 35.5zM653 446q0 21 -14.5 35.5t-35.5 14.5t-35.5 -14.5t-14.5 -35.5t14.5 -35.5t35.5 -14.5t35.5 14.5t14.5 35.5zM653 326q0 21 -14.5 35.5t-35.5 14.5t-35.5 -14.5
t-14.5 -35.5t14.5 -35.5t35.5 -14.5t35.5 14.5t14.5 35.5zM212 686q0 21 -14.5 35.5t-35.5 14.5t-35.5 -14.5t-14.5 -35.5t14.5 -35.5t35.5 -14.5t35.5 14.5t14.5 35.5zM624 206q0 21 -14.5 35.5t-35.5 14.5t-35.5 -14.5t-14.5 -35.5t14.5 -35.5t35.5 -14.5t35.5 14.5
t14.5 35.5zM212 566q0 21 -14.5 35.5t-35.5 14.5t-35.5 -14.5t-14.5 -35.5t14.5 -35.5t35.5 -14.5t35.5 14.5t14.5 35.5zM549 109q0 21 -14.5 35.5t-35.5 14.5t-35.5 -14.5t-14.5 -35.5t14.5 -35.5t35.5 -14.5t35.5 14.5t14.5 35.5zM212 446q0 21 -14.5 35.5t-35.5 14.5
t-35.5 -14.5t-14.5 -35.5t14.5 -35.5t35.5 -14.5t35.5 14.5t14.5 35.5zM212 326q0 21 -14.5 35.5t-35.5 14.5t-35.5 -14.5t-14.5 -35.5t14.5 -35.5t35.5 -14.5t35.5 14.5t14.5 35.5zM437 78q0 20 -15 35t-35 15q-21 0 -35.5 -14.5t-14.5 -35.5t14.5 -35.5t35.5 -14.5
t35.5 14.5t14.5 35.5zM241 206q0 21 -14.5 35.5t-35.5 14.5t-35.5 -14.5t-14.5 -35.5t14.5 -35.5t35.5 -14.5t35.5 14.5t14.5 35.5zM316 109q0 21 -14.5 35.5t-35.5 14.5t-35.5 -14.5t-14.5 -35.5t14.5 -35.5t35.5 -14.5q20 0 35 15t15 35zM295 841q-24 0 -39 16t-15 39
q0 24 15 39.5t39 15.5q23 0 39 -15.5t16 -39.5q0 -23 -16 -39t-39 -16zM460 841q-21 0 -37.5 16t-16.5 39q0 24 16.5 39.5t37.5 15.5q24 0 39 -15.5t15 -39.5q0 -23 -15 -39t-39 -16z" />
    <glyph glyph-name="Yacute" unicode="&#xdd;" horiz-adv-x="822" 
d="M801 789l-264 -452v-362h-253v362l-264 452h287l104 -220l103 220h287zM664 704q0 20 -15 35t-35 15q-21 0 -35.5 -14.5t-14.5 -35.5t14.5 -35.5t35.5 -14.5t35.5 14.5t14.5 35.5zM607 591q0 21 -14.5 35.5t-35.5 14.5t-35.5 -14.5t-14.5 -35.5t14.5 -35.5t35.5 -14.5
t35.5 14.5t14.5 35.5zM539 478q0 21 -14.5 35.5t-35.5 14.5t-35.5 -14.5t-14.5 -35.5t14.5 -35.5t35.5 -14.5t35.5 14.5t14.5 35.5zM214 754q-21 0 -35.5 -14.5t-14.5 -35.5t14.5 -35.5t35.5 -14.5t35.5 14.5t14.5 35.5q0 20 -15 35t-35 15zM274 641q-21 0 -35.5 -14.5
t-14.5 -35.5t14.5 -35.5t35.5 -14.5t35.5 14.5t14.5 35.5t-14.5 35.5t-35.5 14.5zM333 528q-21 0 -35.5 -14.5t-14.5 -35.5t15 -35.5t36 -14.5t35 14.5t14 35.5t-14.5 35.5t-35.5 14.5zM410 415q-21 0 -35.5 -14.5t-14.5 -35.5t14.5 -35.5t35.5 -14.5t35.5 14.5t14.5 35.5
t-14.5 35.5t-35.5 14.5zM410 275q-21 0 -35.5 -14.5t-14.5 -35.5t14.5 -35.5t35.5 -14.5t35.5 14.5t14.5 35.5t-14.5 35.5t-35.5 14.5zM410 145q-21 0 -35.5 -14.5t-14.5 -35.5t14.5 -35.5t35.5 -14.5t35.5 14.5t14.5 35.5t-14.5 35.5t-35.5 14.5zM365 817h-46l66 116h82z
" />
    <glyph glyph-name="agrave" unicode="&#xe0;" horiz-adv-x="790" 
d="M871 -25h-267l-26 86h-258l-27 -86h-267l283 814h279zM553 690q0 20 -15 35t-35 15q-21 0 -35.5 -14.5t-14.5 -35.5t14.5 -35.5t35.5 -14.5t35.5 14.5t14.5 35.5zM532 636q-20 0 -35 -15t-15 -35q0 -21 14.5 -35.5t35.5 -14.5t35.5 14.5t14.5 35.5t-14.5 35.5t-35.5 14.5
zM443 690q0 20 -15 35t-35 15q-21 0 -35.5 -14.5t-14.5 -35.5t14.5 -35.5t35.5 -14.5t35.5 14.5t14.5 35.5zM568 532q-20 0 -35 -15t-15 -35q0 -21 14.5 -35.5t35.5 -14.5t35.5 14.5t14.5 35.5t-14.5 35.5t-35.5 14.5zM604 428q-21 0 -35.5 -14.5t-14.5 -35.5t14.5 -35.5
t35.5 -14.5t35.5 14.5t14.5 35.5t-14.5 35.5t-35.5 14.5zM409 586q0 21 -15 35.5t-36 14.5q-17 0 -30 -8q-16 -10 -16 -26q0 -66 47 -66q21 0 35.5 14.5t14.5 35.5zM640 324q-21 0 -35.5 -14.5t-14.5 -35.5t14.5 -35.5t35.5 -14.5t35.5 14.5t14.5 35.5q0 20 -15 35t-35 15z
M676 220q-21 0 -35.5 -14.5t-14.5 -35.5t14.5 -35.5t35.5 -14.5t35.5 14.5t14.5 35.5q0 20 -15 35t-35 15zM518 264l-70 236l-69 -236h139zM373 482q0 21 -15 35.5t-36 14.5q-17 0 -30 -8q-16 -10 -16 -26q0 -66 47 -66q21 0 35.5 14.5t14.5 35.5zM711 116q-20 0 -35 -15
t-15 -35q0 -21 14.5 -35.5t35.5 -14.5t35.5 14.5t14.5 35.5t-14.5 35.5t-35.5 14.5zM615 165q0 21 -14.5 35.5t-35.5 14.5t-35.5 -14.5t-14.5 -35.5q0 -20 15 -35t35 -15q21 0 35.5 14.5t14.5 35.5zM337 378q0 21 -14.5 35.5t-35.5 14.5q-20 0 -35 -15t-15 -35
q0 -21 14.5 -35.5t35.5 -14.5t35.5 14.5t14.5 35.5zM496 165q0 21 -14.5 35.5t-35.5 14.5t-35.5 -14.5t-14.5 -35.5q0 -20 15 -35t35 -15q21 0 35.5 14.5t14.5 35.5zM302 274q0 21 -15 35.5t-36 14.5q-20 0 -35 -15t-15 -35q0 -21 14.5 -35.5t35.5 -14.5t36 14.5t15 35.5z
M379 165q0 21 -14.5 35.5t-35.5 14.5t-35.5 -14.5t-14.5 -35.5q0 -20 15 -35t35 -15q21 0 35.5 14.5t14.5 35.5zM266 170q0 20 -15 35t-35 15q-21 0 -35.5 -14.5t-14.5 -35.5t14.5 -35.5t35.5 -14.5t35.5 14.5t14.5 35.5zM230 66q0 20 -15 35t-35 15q-21 0 -35.5 -14.5
t-14.5 -35.5t14.5 -35.5t35.5 -14.5t35.5 14.5t14.5 35.5zM334 931h81l66 -117h-45z" />
    <glyph glyph-name="aacute" unicode="&#xe1;" horiz-adv-x="790" 
d="M871 -25h-267l-26 86h-258l-27 -86h-267l283 814h279zM553 690q0 20 -15 35t-35 15q-21 0 -35.5 -14.5t-14.5 -35.5t14.5 -35.5t35.5 -14.5t35.5 14.5t14.5 35.5zM532 636q-20 0 -35 -15t-15 -35q0 -21 14.5 -35.5t35.5 -14.5t35.5 14.5t14.5 35.5t-14.5 35.5t-35.5 14.5
zM443 690q0 20 -15 35t-35 15q-21 0 -35.5 -14.5t-14.5 -35.5t14.5 -35.5t35.5 -14.5t35.5 14.5t14.5 35.5zM568 532q-20 0 -35 -15t-15 -35q0 -21 14.5 -35.5t35.5 -14.5t35.5 14.5t14.5 35.5t-14.5 35.5t-35.5 14.5zM604 428q-21 0 -35.5 -14.5t-14.5 -35.5t14.5 -35.5
t35.5 -14.5t35.5 14.5t14.5 35.5t-14.5 35.5t-35.5 14.5zM409 586q0 21 -15 35.5t-36 14.5q-17 0 -30 -8q-16 -10 -16 -26q0 -66 47 -66q21 0 35.5 14.5t14.5 35.5zM640 324q-21 0 -35.5 -14.5t-14.5 -35.5t14.5 -35.5t35.5 -14.5t35.5 14.5t14.5 35.5q0 20 -15 35t-35 15z
M676 220q-21 0 -35.5 -14.5t-14.5 -35.5t14.5 -35.5t35.5 -14.5t35.5 14.5t14.5 35.5q0 20 -15 35t-35 15zM518 264l-70 236l-69 -236h139zM373 482q0 21 -15 35.5t-36 14.5q-17 0 -30 -8q-16 -10 -16 -26q0 -66 47 -66q21 0 35.5 14.5t14.5 35.5zM711 116q-20 0 -35 -15
t-15 -35q0 -21 14.5 -35.5t35.5 -14.5t35.5 14.5t14.5 35.5t-14.5 35.5t-35.5 14.5zM615 165q0 21 -14.5 35.5t-35.5 14.5t-35.5 -14.5t-14.5 -35.5q0 -20 15 -35t35 -15q21 0 35.5 14.5t14.5 35.5zM337 378q0 21 -14.5 35.5t-35.5 14.5q-20 0 -35 -15t-15 -35
q0 -21 14.5 -35.5t35.5 -14.5t35.5 14.5t14.5 35.5zM496 165q0 21 -14.5 35.5t-35.5 14.5t-35.5 -14.5t-14.5 -35.5q0 -20 15 -35t35 -15q21 0 35.5 14.5t14.5 35.5zM302 274q0 21 -15 35.5t-36 14.5q-20 0 -35 -15t-15 -35q0 -21 14.5 -35.5t35.5 -14.5t36 14.5t15 35.5z
M379 165q0 21 -14.5 35.5t-35.5 14.5t-35.5 -14.5t-14.5 -35.5q0 -20 15 -35t35 -15q21 0 35.5 14.5t14.5 35.5zM266 170q0 20 -15 35t-35 15q-21 0 -35.5 -14.5t-14.5 -35.5t14.5 -35.5t35.5 -14.5t35.5 14.5t14.5 35.5zM230 66q0 20 -15 35t-35 15q-21 0 -35.5 -14.5
t-14.5 -35.5t14.5 -35.5t35.5 -14.5t35.5 14.5t14.5 35.5zM445 817h-46l66 116h82z" />
    <glyph glyph-name="acircumflex" unicode="&#xe2;" horiz-adv-x="790" 
d="M871 -25h-267l-26 86h-258l-27 -86h-267l283 814h279zM553 690q0 20 -15 35t-35 15q-21 0 -35.5 -14.5t-14.5 -35.5t14.5 -35.5t35.5 -14.5t35.5 14.5t14.5 35.5zM532 636q-20 0 -35 -15t-15 -35q0 -21 14.5 -35.5t35.5 -14.5t35.5 14.5t14.5 35.5t-14.5 35.5t-35.5 14.5
zM443 690q0 20 -15 35t-35 15q-21 0 -35.5 -14.5t-14.5 -35.5t14.5 -35.5t35.5 -14.5t35.5 14.5t14.5 35.5zM568 532q-20 0 -35 -15t-15 -35q0 -21 14.5 -35.5t35.5 -14.5t35.5 14.5t14.5 35.5t-14.5 35.5t-35.5 14.5zM604 428q-21 0 -35.5 -14.5t-14.5 -35.5t14.5 -35.5
t35.5 -14.5t35.5 14.5t14.5 35.5t-14.5 35.5t-35.5 14.5zM409 586q0 21 -15 35.5t-36 14.5q-17 0 -30 -8q-16 -10 -16 -26q0 -66 47 -66q21 0 35.5 14.5t14.5 35.5zM640 324q-21 0 -35.5 -14.5t-14.5 -35.5t14.5 -35.5t35.5 -14.5t35.5 14.5t14.5 35.5q0 20 -15 35t-35 15z
M676 220q-21 0 -35.5 -14.5t-14.5 -35.5t14.5 -35.5t35.5 -14.5t35.5 14.5t14.5 35.5q0 20 -15 35t-35 15zM518 264l-70 236l-69 -236h139zM373 482q0 21 -15 35.5t-36 14.5q-17 0 -30 -8q-16 -10 -16 -26q0 -66 47 -66q21 0 35.5 14.5t14.5 35.5zM711 116q-20 0 -35 -15
t-15 -35q0 -21 14.5 -35.5t35.5 -14.5t35.5 14.5t14.5 35.5t-14.5 35.5t-35.5 14.5zM615 165q0 21 -14.5 35.5t-35.5 14.5t-35.5 -14.5t-14.5 -35.5q0 -20 15 -35t35 -15q21 0 35.5 14.5t14.5 35.5zM337 378q0 21 -14.5 35.5t-35.5 14.5q-20 0 -35 -15t-15 -35
q0 -21 14.5 -35.5t35.5 -14.5t35.5 14.5t14.5 35.5zM496 165q0 21 -14.5 35.5t-35.5 14.5t-35.5 -14.5t-14.5 -35.5q0 -20 15 -35t35 -15q21 0 35.5 14.5t14.5 35.5zM302 274q0 21 -15 35.5t-36 14.5q-20 0 -35 -15t-15 -35q0 -21 14.5 -35.5t35.5 -14.5t36 14.5t15 35.5z
M379 165q0 21 -14.5 35.5t-35.5 14.5t-35.5 -14.5t-14.5 -35.5q0 -20 15 -35t35 -15q21 0 35.5 14.5t14.5 35.5zM266 170q0 20 -15 35t-35 15q-21 0 -35.5 -14.5t-14.5 -35.5t14.5 -35.5t35.5 -14.5t35.5 14.5t14.5 35.5zM230 66q0 20 -15 35t-35 15q-21 0 -35.5 -14.5
t-14.5 -35.5t14.5 -35.5t35.5 -14.5t35.5 14.5t14.5 35.5zM449 906l-59 -78h-74l97 115h71l99 -115h-75z" />
    <glyph glyph-name="atilde" unicode="&#xe3;" horiz-adv-x="790" 
d="M871 -25h-267l-26 86h-258l-27 -86h-267l283 814h279zM553 690q0 20 -15 35t-35 15q-21 0 -35.5 -14.5t-14.5 -35.5t14.5 -35.5t35.5 -14.5t35.5 14.5t14.5 35.5zM532 636q-20 0 -35 -15t-15 -35q0 -21 14.5 -35.5t35.5 -14.5t35.5 14.5t14.5 35.5t-14.5 35.5t-35.5 14.5
zM443 690q0 20 -15 35t-35 15q-21 0 -35.5 -14.5t-14.5 -35.5t14.5 -35.5t35.5 -14.5t35.5 14.5t14.5 35.5zM568 532q-20 0 -35 -15t-15 -35q0 -21 14.5 -35.5t35.5 -14.5t35.5 14.5t14.5 35.5t-14.5 35.5t-35.5 14.5zM604 428q-21 0 -35.5 -14.5t-14.5 -35.5t14.5 -35.5
t35.5 -14.5t35.5 14.5t14.5 35.5t-14.5 35.5t-35.5 14.5zM409 586q0 21 -15 35.5t-36 14.5q-17 0 -30 -8q-16 -10 -16 -26q0 -66 47 -66q21 0 35.5 14.5t14.5 35.5zM640 324q-21 0 -35.5 -14.5t-14.5 -35.5t14.5 -35.5t35.5 -14.5t35.5 14.5t14.5 35.5q0 20 -15 35t-35 15z
M676 220q-21 0 -35.5 -14.5t-14.5 -35.5t14.5 -35.5t35.5 -14.5t35.5 14.5t14.5 35.5q0 20 -15 35t-35 15zM518 264l-70 236l-69 -236h139zM373 482q0 21 -15 35.5t-36 14.5q-17 0 -30 -8q-16 -10 -16 -26q0 -66 47 -66q21 0 35.5 14.5t14.5 35.5zM711 116q-20 0 -35 -15
t-15 -35q0 -21 14.5 -35.5t35.5 -14.5t35.5 14.5t14.5 35.5t-14.5 35.5t-35.5 14.5zM615 165q0 21 -14.5 35.5t-35.5 14.5t-35.5 -14.5t-14.5 -35.5q0 -20 15 -35t35 -15q21 0 35.5 14.5t14.5 35.5zM337 378q0 21 -14.5 35.5t-35.5 14.5q-20 0 -35 -15t-15 -35
q0 -21 14.5 -35.5t35.5 -14.5t35.5 14.5t14.5 35.5zM496 165q0 21 -14.5 35.5t-35.5 14.5t-35.5 -14.5t-14.5 -35.5q0 -20 15 -35t35 -15q21 0 35.5 14.5t14.5 35.5zM302 274q0 21 -15 35.5t-36 14.5q-20 0 -35 -15t-15 -35q0 -21 14.5 -35.5t35.5 -14.5t36 14.5t15 35.5z
M379 165q0 21 -14.5 35.5t-35.5 14.5t-35.5 -14.5t-14.5 -35.5q0 -20 15 -35t35 -15q21 0 35.5 14.5t14.5 35.5zM266 170q0 20 -15 35t-35 15q-21 0 -35.5 -14.5t-14.5 -35.5t14.5 -35.5t35.5 -14.5t35.5 14.5t14.5 35.5zM230 66q0 20 -15 35t-35 15q-21 0 -35.5 -14.5
t-14.5 -35.5t14.5 -35.5t35.5 -14.5t35.5 14.5t14.5 35.5zM589 886q-21 -57 -87 -57q-17 0 -29.5 5.5t-24.5 12t-24 12t-25 5.5q-15 0 -29.5 -9t-28.5 -32l-42 36q18 33 40 47.5t50 14.5q22 0 35.5 -4.5t25 -11.5t22.5 -11.5t26 -4.5q35 0 54 41z" />
    <glyph glyph-name="adieresis" unicode="&#xe4;" horiz-adv-x="790" 
d="M871 -25h-267l-26 86h-258l-27 -86h-267l283 814h279zM553 690q0 20 -15 35t-35 15q-21 0 -35.5 -14.5t-14.5 -35.5t14.5 -35.5t35.5 -14.5t35.5 14.5t14.5 35.5zM532 636q-20 0 -35 -15t-15 -35q0 -21 14.5 -35.5t35.5 -14.5t35.5 14.5t14.5 35.5t-14.5 35.5t-35.5 14.5
zM443 690q0 20 -15 35t-35 15q-21 0 -35.5 -14.5t-14.5 -35.5t14.5 -35.5t35.5 -14.5t35.5 14.5t14.5 35.5zM568 532q-20 0 -35 -15t-15 -35q0 -21 14.5 -35.5t35.5 -14.5t35.5 14.5t14.5 35.5t-14.5 35.5t-35.5 14.5zM604 428q-21 0 -35.5 -14.5t-14.5 -35.5t14.5 -35.5
t35.5 -14.5t35.5 14.5t14.5 35.5t-14.5 35.5t-35.5 14.5zM409 586q0 21 -15 35.5t-36 14.5q-17 0 -30 -8q-16 -10 -16 -26q0 -66 47 -66q21 0 35.5 14.5t14.5 35.5zM640 324q-21 0 -35.5 -14.5t-14.5 -35.5t14.5 -35.5t35.5 -14.5t35.5 14.5t14.5 35.5q0 20 -15 35t-35 15z
M676 220q-21 0 -35.5 -14.5t-14.5 -35.5t14.5 -35.5t35.5 -14.5t35.5 14.5t14.5 35.5q0 20 -15 35t-35 15zM518 264l-70 236l-69 -236h139zM373 482q0 21 -15 35.5t-36 14.5q-17 0 -30 -8q-16 -10 -16 -26q0 -66 47 -66q21 0 35.5 14.5t14.5 35.5zM711 116q-20 0 -35 -15
t-15 -35q0 -21 14.5 -35.5t35.5 -14.5t35.5 14.5t14.5 35.5t-14.5 35.5t-35.5 14.5zM615 165q0 21 -14.5 35.5t-35.5 14.5t-35.5 -14.5t-14.5 -35.5q0 -20 15 -35t35 -15q21 0 35.5 14.5t14.5 35.5zM337 378q0 21 -14.5 35.5t-35.5 14.5q-20 0 -35 -15t-15 -35
q0 -21 14.5 -35.5t35.5 -14.5t35.5 14.5t14.5 35.5zM496 165q0 21 -14.5 35.5t-35.5 14.5t-35.5 -14.5t-14.5 -35.5q0 -20 15 -35t35 -15q21 0 35.5 14.5t14.5 35.5zM302 274q0 21 -15 35.5t-36 14.5q-20 0 -35 -15t-15 -35q0 -21 14.5 -35.5t35.5 -14.5t36 14.5t15 35.5z
M379 165q0 21 -14.5 35.5t-35.5 14.5t-35.5 -14.5t-14.5 -35.5q0 -20 15 -35t35 -15q21 0 35.5 14.5t14.5 35.5zM266 170q0 20 -15 35t-35 15q-21 0 -35.5 -14.5t-14.5 -35.5t14.5 -35.5t35.5 -14.5t35.5 14.5t14.5 35.5zM230 66q0 20 -15 35t-35 15q-21 0 -35.5 -14.5
t-14.5 -35.5t14.5 -35.5t35.5 -14.5t35.5 14.5t14.5 35.5zM365 841q-24 0 -39 16t-15 39q0 24 15 39.5t39 15.5q23 0 39 -15.5t16 -39.5q0 -23 -16 -39t-39 -16zM530 841q-21 0 -37.5 16t-16.5 39q0 24 16.5 39.5t37.5 15.5q24 0 39 -15.5t15 -39.5q0 -23 -15 -39t-39 -16z
" />
    <glyph glyph-name="aring" unicode="&#xe5;" horiz-adv-x="790" 
d="M871 -25h-267l-26 86h-258l-27 -86h-267l283 814h279zM553 690q0 20 -15 35t-35 15q-21 0 -35.5 -14.5t-14.5 -35.5t14.5 -35.5t35.5 -14.5t35.5 14.5t14.5 35.5zM532 636q-20 0 -35 -15t-15 -35q0 -21 14.5 -35.5t35.5 -14.5t35.5 14.5t14.5 35.5t-14.5 35.5t-35.5 14.5
zM443 690q0 20 -15 35t-35 15q-21 0 -35.5 -14.5t-14.5 -35.5t14.5 -35.5t35.5 -14.5t35.5 14.5t14.5 35.5zM568 532q-20 0 -35 -15t-15 -35q0 -21 14.5 -35.5t35.5 -14.5t35.5 14.5t14.5 35.5t-14.5 35.5t-35.5 14.5zM604 428q-21 0 -35.5 -14.5t-14.5 -35.5t14.5 -35.5
t35.5 -14.5t35.5 14.5t14.5 35.5t-14.5 35.5t-35.5 14.5zM409 586q0 21 -15 35.5t-36 14.5q-17 0 -30 -8q-16 -10 -16 -26q0 -66 47 -66q21 0 35.5 14.5t14.5 35.5zM640 324q-21 0 -35.5 -14.5t-14.5 -35.5t14.5 -35.5t35.5 -14.5t35.5 14.5t14.5 35.5q0 20 -15 35t-35 15z
M676 220q-21 0 -35.5 -14.5t-14.5 -35.5t14.5 -35.5t35.5 -14.5t35.5 14.5t14.5 35.5q0 20 -15 35t-35 15zM518 264l-70 236l-69 -236h139zM373 482q0 21 -15 35.5t-36 14.5q-17 0 -30 -8q-16 -10 -16 -26q0 -66 47 -66q21 0 35.5 14.5t14.5 35.5zM711 116q-20 0 -35 -15
t-15 -35q0 -21 14.5 -35.5t35.5 -14.5t35.5 14.5t14.5 35.5t-14.5 35.5t-35.5 14.5zM615 165q0 21 -14.5 35.5t-35.5 14.5t-35.5 -14.5t-14.5 -35.5q0 -20 15 -35t35 -15q21 0 35.5 14.5t14.5 35.5zM337 378q0 21 -14.5 35.5t-35.5 14.5q-20 0 -35 -15t-15 -35
q0 -21 14.5 -35.5t35.5 -14.5t35.5 14.5t14.5 35.5zM496 165q0 21 -14.5 35.5t-35.5 14.5t-35.5 -14.5t-14.5 -35.5q0 -20 15 -35t35 -15q21 0 35.5 14.5t14.5 35.5zM302 274q0 21 -15 35.5t-36 14.5q-20 0 -35 -15t-15 -35q0 -21 14.5 -35.5t35.5 -14.5t36 14.5t15 35.5z
M379 165q0 21 -14.5 35.5t-35.5 14.5t-35.5 -14.5t-14.5 -35.5q0 -20 15 -35t35 -15q21 0 35.5 14.5t14.5 35.5zM266 170q0 20 -15 35t-35 15q-21 0 -35.5 -14.5t-14.5 -35.5t14.5 -35.5t35.5 -14.5t35.5 14.5t14.5 35.5zM230 66q0 20 -15 35t-35 15q-21 0 -35.5 -14.5
t-14.5 -35.5t14.5 -35.5t35.5 -14.5t35.5 14.5t14.5 35.5zM453 917q-15 0 -27 -12t-12 -29q0 -18 11.5 -29.5t27.5 -11.5q17 0 29 11.5t12 29.5q0 17 -12.5 29t-28.5 12zM452 814q-26 0 -43 17t-17 43q0 27 17 45.5t43 18.5t43.5 -19t17.5 -45t-17.5 -43t-43.5 -17z" />
    <glyph glyph-name="ccedilla" unicode="&#xe7;" horiz-adv-x="783" 
d="M837 163q-55 -91 -160 -147t-214 -56q-184 0 -306 119t-122 303q0 185 121 303.5t307 118.5q100 0 195 -45t161 -122l-184 -176q-51 114 -166 114q-82 0 -132 -55t-50 -138t50 -138t132 -55q52 0 102 38q47 36 66 86zM726 589q0 21 -14.5 35.5t-35.5 14.5t-35.5 -14.5
t-14.5 -35.5t14.5 -35.5t35.5 -14.5q20 0 35 15t15 35zM635 661q0 21 -14.5 35.5t-35.5 14.5t-35.5 -14.5t-14.5 -35.5t14.5 -35.5t35.5 -14.5q20 0 35 15t15 35zM509 691q0 21 -14.5 35.5t-35.5 14.5q-20 0 -35 -15t-15 -35q0 -21 14.5 -35.5t35.5 -14.5t35.5 14.5
t14.5 35.5zM394 661q0 21 -14.5 35.5t-35.5 14.5t-35.5 -14.5t-14.5 -35.5t14.5 -35.5t35.5 -14.5q20 0 35 15t15 35zM726 174q0 21 -14.5 35.5t-35.5 14.5t-35.5 -14.5t-14.5 -35.5t14.5 -35.5t35.5 -14.5q20 0 35 15t15 35zM303 589q0 21 -14.5 35.5t-35.5 14.5
t-35.5 -14.5t-14.5 -35.5t14.5 -35.5t35.5 -14.5q20 0 35 15t15 35zM635 102q0 21 -14.5 35.5t-35.5 14.5t-35.5 -14.5t-14.5 -35.5t14.5 -35.5t35.5 -14.5q20 0 35 15t15 35zM239 494q0 21 -14.5 35.5t-35.5 14.5t-35.5 -14.5t-14.5 -35.5q0 -20 15 -35t35 -15
q21 0 35.5 14.5t14.5 35.5zM219 382q0 21 -14.5 35.5t-35.5 14.5t-35.5 -14.5t-14.5 -35.5t14.5 -35.5t35.5 -14.5t35.5 14.5t14.5 35.5zM509 73q0 21 -14.5 35.5t-35.5 14.5t-35.5 -14.5t-14.5 -35.5t14.5 -35.5t35.5 -14.5t35.5 14.5t14.5 35.5zM239 269q0 21 -14.5 35.5
t-35.5 14.5t-35.5 -14.5t-14.5 -35.5q0 -20 15 -35t35 -15q21 0 35.5 14.5t14.5 35.5zM394 102q0 21 -14.5 35.5t-35.5 14.5t-35.5 -14.5t-14.5 -35.5t14.5 -35.5t35.5 -14.5q20 0 35 15t15 35zM303 174q0 21 -14.5 35.5t-35.5 14.5t-35.5 -14.5t-14.5 -35.5t14.5 -35.5
t35.5 -14.5q20 0 35 15t15 35zM436 -19v-52q72 0 72 -65q0 -42 -21.5 -58.5t-68.5 -16.5q-16 0 -29.5 2.5t-21.5 5.5l15 49q12 -6 35 -6q40 0 40 21q0 11 -6.5 15t-24.5 4h-17q-2 0 -7.5 -0.5t-12.5 -1.5v103h47z" />
    </font>
</defs>
</svg>
