<?xml version="1.0" standalone="no"?>
<!DOCTYPE svg PUBLIC "-//W3C//DTD SVG 1.1//EN" "http://www.w3.org/Graphics/SVG/1.1/DTD/svg11.dtd" >
<svg xmlns="http://www.w3.org/2000/svg" xmlns:xlink="http://www.w3.org/1999/xlink" version="1.1">
<metadata>
Created by FontForge 20200314 at Mon Apr 16 19:48:08 2012
 By Unknown
</metadata>
<defs>
<font id="DoobieW01-Regular" horiz-adv-x="506" >
  <font-face 
    font-family="DoobieW01-Regular"
    font-weight="400"
    font-stretch="normal"
    units-per-em="1000"
    panose-1="2 0 5 6 0 0 0 2 0 4"
    ascent="900"
    descent="-100"
    x-height="617"
    cap-height="838"
    bbox="-16 -227 1794 1066"
    underline-thickness="50"
    underline-position="-150"
    unicode-range="U+0020-2122"
  />
<missing-glyph horiz-adv-x="0" 
 />
    <glyph glyph-name=".notdef" horiz-adv-x="0" 
 />
    <glyph glyph-name="glyph1" horiz-adv-x="0" 
 />
    <glyph glyph-name="glyph2" horiz-adv-x="300" 
 />
    <glyph glyph-name="space" unicode=" " horiz-adv-x="300" 
 />
    <glyph glyph-name="exclam" unicode="!" horiz-adv-x="469" 
d="M117 503q0 23 7 43t7 42q0 26 -16 43.5t-35 33.5t-35 34t-16 45t20.5 42t49.5 22.5t61.5 9.5t55.5 2q19 0 53.5 -1.5t68.5 -9t59 -23.5t25 -45q0 -26 -17.5 -45t-38 -36.5t-38 -37t-17.5 -45.5l13 -83q0 -21 -10.5 -32.5t-26.5 -17.5t-34.5 -7t-34.5 -1q-21 0 -39 1
t-32 7.5t-22 20t-8 38.5zM20 157q0 40 7 84t26.5 81t53 61.5t86.5 24.5q49 0 78 -5t45 -14.5t23 -24t12.5 -34t13 -43.5t24.5 -53q11 -19 22 -35t19.5 -32t13.5 -34t5 -40q0 -40 -16.5 -65t-42.5 -38.5t-59 -18.5t-67 -5q-62 0 -108 4.5t-76 23.5t-45 57t-15 106z" />
    <glyph glyph-name="quotedbl" unicode="&#x22;" horiz-adv-x="412" 
d="M221 740q0 63 20.5 87.5t62.5 24.5q40 0 68 -28t28 -92q0 -27 -5 -62t-15.5 -66t-27 -52t-40.5 -21q-23 0 -40 22.5t-28.5 55t-17 68.5t-5.5 63zM11 738q0 63 20.5 87.5t62.5 24.5q40 0 68 -28t28 -92q0 -27 -5 -62t-15.5 -66t-27 -52t-40.5 -21q-23 0 -40 22.5t-28.5 55
t-17 68.5t-5.5 63z" />
    <glyph glyph-name="numbersign" unicode="#" horiz-adv-x="1064" 
d="M686 11q0 10 3.5 27t10.5 33t17.5 27.5t24.5 11.5q7 0 29 0.5t54 1.5t72.5 1.5t85.5 0.5q15 -3 20.5 -6.5t5.5 -17.5q0 -17 -6 -31.5t-13 -30.5q-10 -23 -22.5 -30.5t-31.5 -7.5q-6 0 -31 -0.5t-57 -1.5t-63.5 -1.5t-50.5 -0.5q-23 0 -35.5 4t-12.5 21zM806 632
q0 -30 10.5 -51t32.5 -21t30.5 17t8.5 52q0 11 -0.5 28t-4.5 32.5t-13 26.5t-25 11q-15 0 -22.5 -11t-11.5 -26.5t-4.5 -31.5t-0.5 -26zM640 430q0 31 3 73.5t11.5 87t23.5 88t38 77.5t55 55t76 21q43 0 73.5 -20.5t51.5 -53.5t33.5 -75.5t19.5 -85.5t9 -83.5t2 -70.5
q0 -54 -8.5 -105.5t-32 -92.5t-64 -66t-104.5 -25q-55 0 -91 26t-57.5 66.5t-30 89.5t-8.5 94zM20 114q0 52 13.5 99t30 94t30 96t13.5 105q0 48 -10 81t-22.5 59t-22.5 50t-10 55q0 26 13 42.5t33.5 26t44.5 13t45 3.5q54 0 90 -33.5t59.5 -83.5t37.5 -109t24 -109
t19 -83.5t22 -33.5q8 0 8 27q0 18 -3.5 44.5t-8.5 55t-11.5 56t-12.5 47.5q-4 14 -10.5 30.5t-12.5 33.5t-10 34t-4 34q0 27 13 43.5t32.5 25.5t43 12t45.5 3q18 0 37.5 -1.5t36 -8t27 -20t10.5 -36.5q0 -30 -10 -57.5t-22.5 -54.5t-22.5 -55.5t-10 -61.5q0 -60 13.5 -115.5
t30 -109t30 -106.5t13.5 -110q0 -61 -34.5 -93.5t-91.5 -32.5q-51 0 -88 25.5t-53 76.5q-6 18 -12.5 58.5t-14 90t-16 102.5t-19.5 96.5t-24 71.5t-29 28q-10 0 -14 -12t-4 -26q0 -48 14 -93t31.5 -89t31.5 -88.5t14 -90.5q0 -72 -36 -113t-111 -41q-70 0 -113 37.5
t-43 110.5z" />
    <glyph glyph-name="dollar" unicode="$" horiz-adv-x="405" 
d="M20 375q0 10 1 37.5t6 57t15 52t28 22.5q10 0 17 -6.5t13 -14t12.5 -14t17.5 -6.5q28 0 28 30q0 19 -16 32t-34.5 28.5t-34.5 37.5t-16 59q0 22 9 39.5t23.5 31t33.5 22t40 13.5q1 37 8 46.5t26 9.5q17 0 25 -8.5t10 -42.5q48 -5 79 -30.5t31 -76.5q0 -35 -11.5 -51
t-40.5 -16q-25 0 -33.5 12t-12 27t-9 27t-24.5 12q-14 0 -24.5 -4.5t-10.5 -19.5q0 -23 16 -38t39.5 -28t51 -29t51 -42t39.5 -65t16 -99q0 -39 -8 -81t-26.5 -77t-48 -60.5t-72.5 -31.5q0 -20 -2 -32t-6 -18.5t-10.5 -8.5t-15.5 -2t-16 1.5t-11 8t-6.5 19t-2.5 34.5
q-42 8 -69.5 31t-44 56t-23.5 73.5t-7 82.5z" />
    <glyph glyph-name="percent" unicode="%" horiz-adv-x="756" 
d="M573 842q0 -4 -1 -9t-3 -10l-285 -848q-6 -19 -15 -22.5t-35 -3.5q-20 0 -30 2.5t-10 13.5q0 3 1 7.5t3 9.5l283 850q6 18 15.5 21.5t29.5 3.5h7q21 0 30.5 -2.5t9.5 -12.5zM20 539q0 36 6 88.5t23 101t48.5 83t81.5 34.5q33 0 56.5 -15.5t39.5 -41t25.5 -57.5t14.5 -65
t6.5 -64t1.5 -54q0 -41 -6.5 -80.5t-24.5 -71t-49 -50.5t-80 -19q-42 0 -69.5 20t-44 51t-23 68t-6.5 72zM147 693q0 -23 8 -39t25 -16t23.5 13.5t6.5 39.5q0 9 -0.5 21.5t-3.5 24.5t-10 20.5t-19 8.5q-11 0 -17 -8.5t-9 -20.5t-3.5 -24.5t-0.5 -19.5zM433 184q0 36 6 88.5
t23 101t48.5 83t81.5 34.5q33 0 56.5 -15.5t39.5 -41t25.5 -57.5t14.5 -65t6.5 -64t1.5 -54q0 -41 -6.5 -80.5t-24.5 -71t-49 -50.5t-80 -19q-42 0 -69.5 20t-44 51t-23 68t-6.5 72zM560 338q0 -23 8 -39t25 -16t23.5 13.5t6.5 39.5q0 9 -0.5 21.5t-3.5 24.5t-10 20.5
t-19 8.5q-11 0 -17 -8.5t-9 -20.5t-3.5 -24.5t-0.5 -19.5z" />
    <glyph glyph-name="ampersand" unicode="&#x26;" horiz-adv-x="666" 
d="M130 721q0 19 6.5 38t21.5 33t38.5 23t57.5 9q29 0 55 -7t46 -21.5t31.5 -37t11.5 -53.5q0 -20 -9.5 -38.5t-24.5 -37.5t-33.5 -37.5t-36.5 -37.5q17 -33 35 -65t34 -56.5t28 -40t18 -15.5q10 0 17 6.5t13 14.5t13.5 14.5t19.5 6.5q9 0 17 -7t13.5 -17t9.5 -21t6 -20
q0 -2 0.5 -15.5t1.5 -33t1.5 -42t0.5 -40.5q0 -44 9 -71.5t23 -44.5t30 -26.5t30 -17.5t23 -17.5t9 -25.5q0 -15 -9.5 -26t-24 -18t-30.5 -10.5t-28 -3.5q-19 0 -35.5 7t-30.5 17.5t-27 22.5t-25 23q-41 -32 -88 -47.5t-95 -15.5q-45 0 -87.5 14t-74.5 42.5t-51.5 70.5
t-19.5 99q0 65 15.5 118.5t39.5 98.5t54 81.5t59 68.5q-23 46 -40.5 88.5t-17.5 70.5zM226 712q0 -9 7.5 -29.5t20.5 -48.5q19 23 30.5 44t11.5 41q0 36 -35 36q-15 0 -25 -13.5t-10 -29.5zM287 369q0 10 -14.5 37.5t-38.5 70.5q-16 -30 -16 -60q0 -26 11.5 -49t32.5 -23
q14 0 19.5 5.5t5.5 18.5z" />
    <glyph glyph-name="quotesingle" unicode="'" horiz-adv-x="202" 
d="M11 738q0 63 20.5 87.5t62.5 24.5q40 0 68 -28t28 -92q0 -27 -5 -62t-15.5 -66t-27 -52t-40.5 -21q-23 0 -40 22.5t-28.5 55t-17 68.5t-5.5 63z" />
    <glyph glyph-name="parenleft" unicode="(" horiz-adv-x="418" 
d="M20 425q0 37 6 88t19 106t34 108.5t51 96t70.5 68.5t91.5 26q48 0 79.5 -32t31.5 -81q0 -35 -14 -55t-34.5 -36.5t-44.5 -35t-44.5 -49.5t-34.5 -80t-14 -126q0 -73 14 -121.5t35 -81.5t46 -55.5t46 -44t35 -46.5t14 -63q0 -52 -34.5 -80t-82.5 -28q-45 0 -82.5 29
t-67.5 75.5t-52.5 104.5t-37.5 116t-22.5 110t-7.5 87z" />
    <glyph glyph-name="parenright" unicode=")" horiz-adv-x="418" 
d="M405 425q0 -35 -7.5 -87t-22.5 -110t-37.5 -116t-52.5 -104.5t-67.5 -75.5t-82.5 -29q-48 0 -82.5 28t-34.5 80q0 38 14 63t35 46.5t46 44t46 55.5t35 81.5t14 121.5q0 77 -14 126t-34.5 80t-44.5 49.5t-44.5 35t-34.5 37t-14 54.5q0 49 31.5 81t79.5 32q51 0 91.5 -26
t70.5 -68.5t51 -96t34 -108.5t19 -106t6 -88z" />
    <glyph glyph-name="asterisk" unicode="*" horiz-adv-x="1009" 
d="M989 543q0 -32 -12 -59t-32.5 -47.5t-48 -32t-57.5 -11.5q-23 0 -45 6t-42.5 13t-39 13t-34.5 6q-69 0 -69 -36q0 -21 28 -42t84 -37q141 -39 141 -163q0 -30 -13.5 -58t-35.5 -49t-50 -33.5t-56 -12.5q-72 0 -112.5 48.5t-40.5 145.5q0 65 -14 97t-34 32
q-24 0 -39.5 -28t-15.5 -77q0 -13 1 -26t1 -33q0 -32 -12.5 -60.5t-34 -50.5t-49.5 -35t-59 -13t-59 12t-49 32t-33.5 47.5t-12.5 58.5q0 63 35 100.5t107 60.5q56 18 83 37t27 45q0 14 -14 23.5t-39 9.5t-47.5 -6.5t-43 -14t-40 -13.5t-39.5 -6q-30 0 -58 12t-49 32.5
t-33.5 47.5t-12.5 58q0 35 11 64.5t31.5 51t48.5 33.5t62 12q50 0 83 -27t68 -74q26 -34 47 -54t54 -20q11 0 18.5 10.5t7.5 27.5q0 28 -16 52.5t-34.5 50.5t-34.5 54.5t-16 63.5q0 34 11.5 62.5t31.5 49t48 32t60 11.5q36 0 65 -11t50 -31t32 -47t11 -59q0 -36 -16 -65.5
t-34.5 -56t-34.5 -51.5t-16 -53q0 -38 35 -38q23 0 46 20t51 62q15 22 30 39.5t32 28.5t37.5 17t46.5 6q33 0 61.5 -12t48.5 -33t31.5 -49t11.5 -60z" />
    <glyph glyph-name="plus" unicode="+" horiz-adv-x="503" 
d="M463 368q0 -23 -10.5 -40t-30.5 -17h-112v-110q0 -21 -18 -31.5t-40 -10.5q-23 0 -41 10.5t-18 31.5v110h-111q-21 0 -31.5 18t-10.5 40q0 23 10.5 41t31.5 18h111v113q0 22 19.5 31.5t40.5 9.5q23 0 40 -10.5t17 -30.5v-113h112q22 0 31.5 -19.5t9.5 -40.5z" />
    <glyph glyph-name="comma" unicode="," horiz-adv-x="303" 
d="M52 -155q0 13 7.5 25.5t16 26t16 29.5t7.5 36q0 25 -7.5 48.5t-16 46.5t-16 46t-7.5 48t6 49t19 42.5t33 29.5t48 11q33 0 53 -16t30.5 -40t14 -52.5t3.5 -53.5q0 -53 -15 -107.5t-40 -98.5t-57 -71.5t-65 -27.5q-11 0 -20.5 8t-9.5 21z" />
    <glyph glyph-name="hyphen" unicode="-" horiz-adv-x="442" 
d="M49 237q0 48 0.5 75t5 40t14 16t26.5 3q20 0 91.5 2.5t184.5 2.5q19 -4 26 -13.5t7 -29.5q0 -44 -0.5 -69.5t-5 -38.5t-13.5 -16t-25 -3q-7 0 -38 -1t-71 -2t-79.5 -2t-62.5 -1q-29 0 -44.5 6.5t-15.5 30.5z" />
    <glyph glyph-name="period" unicode="." horiz-adv-x="308" 
d="M24 75q0 27 8.5 63t25 69t41.5 55.5t59 22.5q35 0 60 -21.5t40.5 -52.5t22.5 -66t7 -62q0 -32 -11 -55t-30 -37.5t-45 -21.5t-55 -7q-61 0 -92 25t-31 88z" />
    <glyph glyph-name="slash" unicode="/" horiz-adv-x="339" 
d="M363 842q0 -4 -1 -9t-3 -10l-285 -848q-6 -19 -15 -22.5t-35 -3.5q-20 0 -30 2.5t-10 13.5q0 3 1 7.5t3 9.5l283 850q6 18 15.5 21.5t29.5 3.5h7q21 0 30.5 -2.5t9.5 -12.5z" />
    <glyph glyph-name="zero" unicode="0" horiz-adv-x="510" 
d="M241 820q48 0 85 -28.5t64.5 -74t46.5 -103t31 -115t17 -109.5t5 -87q0 -55 -12.5 -114.5t-40 -109t-72.5 -81.5t-110 -32q-48 0 -84 18.5t-62 49.5t-43.5 71t-27.5 83t-14 86t-4 80q0 32 3.5 78.5t13 98.5t25.5 103.5t40.5 93t59 67t79.5 25.5zM191 610q0 -15 2 -37.5
t9 -43.5t19.5 -36t33.5 -15q14 0 23 13t14 33t7 42.5t2 42.5q0 13 -2 34.5t-8.5 42.5t-18.5 36t-31 15t-29 -15.5t-14.5 -36t-5.5 -42t-1 -33.5z" />
    <glyph glyph-name="one" unicode="1" horiz-adv-x="436" 
d="M20 136q0 54 21.5 103.5t47.5 101.5t47.5 108t21.5 122q0 46 -11 76t-23.5 50t-23.5 33t-11 26q0 18 18.5 32.5t43 24.5t49.5 15.5t39 5.5q20 0 41.5 -5t39.5 -15t29.5 -26.5t11.5 -38.5q0 -30 -8 -53.5t-17 -49.5t-17 -59t-8 -83q0 -71 16.5 -127.5t36 -104.5t36 -89
t16.5 -80q0 -48 -18 -75.5t-47 -41t-65.5 -17t-73.5 -3.5q-44 0 -79.5 8.5t-60.5 28.5t-38.5 52.5t-13.5 80.5z" />
    <glyph glyph-name="two" unicode="2" horiz-adv-x="477" 
d="M20 301q0 51 8.5 97.5t32.5 89.5q10 17 30 37t44.5 40.5t49.5 41t46 40t34.5 36.5t13.5 31t-11 18.5t-22 4.5q-25 0 -36 -14.5t-18.5 -31.5t-18 -31.5t-33.5 -14.5q-26 0 -41 17.5t-15 42.5q0 29 13.5 50.5t35.5 36t48.5 21.5t52.5 7q25 0 56 -6t58 -19.5t45 -35.5
t18 -54q0 -30 -13.5 -50.5t-33 -36t-43 -28.5t-43 -27t-33 -30.5t-13.5 -40.5q0 -10 4.5 -18.5t15.5 -8.5q15 0 27.5 5.5t25 12.5t25.5 12.5t28 5.5q24 0 41 -15t28 -39t17 -54t9 -59t3.5 -55t0.5 -42q0 -62 -10 -112t-35.5 -85t-68 -54.5t-106.5 -19.5q-56 0 -93 11.5
t-60 36.5t-35.5 64.5t-19.5 95.5q-4 32 -6.5 64t-2.5 63z" />
    <glyph glyph-name="three" unicode="3" horiz-adv-x="482" 
d="M20 179q1 73 13 146t28 145q4 17 12 31.5t28 14.5q17 0 26.5 -10t17.5 -22.5t19.5 -22.5t33.5 -10q19 0 31 15.5t12 32.5q0 26 -14.5 33.5t-31.5 10t-31.5 7.5t-14.5 28q0 18 8 27t19.5 13t25.5 6t25.5 6.5t19.5 13.5t8 28q0 22 -17 34.5t-36 12.5q-26 0 -37 -11
t-18 -23.5t-16 -23.5t-30 -11q-25 0 -41.5 17.5t-16.5 42.5t18.5 45t45 34.5t56 22.5t51.5 8q29 0 60 -7.5t56.5 -24t42 -41.5t16.5 -59q0 -18 -6.5 -35t-16 -32t-21 -27t-21.5 -20q31 -39 56.5 -77.5t43.5 -79t28 -84t10 -91.5q0 -65 -13 -116t-43.5 -86.5t-81.5 -54.5
t-126 -19q-52 0 -86.5 16t-54.5 44t-28.5 67t-8.5 86z" />
    <glyph glyph-name="four" unicode="4" horiz-adv-x="546" 
d="M121 96q0 43 21 81.5t45.5 74.5t45.5 70.5t21 70.5q0 4 -1 10.5t-4 12.5t-7 10t-10 4h-111q-16 0 -33.5 6.5t-32.5 18t-25 28t-10 37.5q0 14 4.5 29t11 29.5t13.5 28t12 24.5q20 42 45.5 78.5t58 64t72.5 43.5t89 16q24 0 53.5 -6.5t55 -19t43 -31t17.5 -42.5
q0 -6 -5 -11q-18 -22 -29.5 -40t-18.5 -37t-9.5 -42t-2.5 -56q0 -2 15 -4.5t33 -9.5t33 -19.5t15 -34.5q0 -13 -4.5 -29t-19.5 -36q-4 0 -10.5 0.5t-12.5 0.5q-16 0 -32.5 -5t-16.5 -23q0 -36 12 -71t27 -70t27 -71t12 -73q0 -41 -15 -67.5t-39.5 -42t-57 -21.5t-67.5 -6
q-32 0 -68.5 5.5t-67.5 20.5t-51.5 40t-20.5 64zM171 617q0 -13 7.5 -24t19 -19t25.5 -12.5t27 -4.5q12 0 18 9l4 86q1 12 -6 18.5t-18 6.5t-24.5 -4t-25 -11.5t-19.5 -18.5t-8 -26z" />
    <glyph glyph-name="five" unicode="5" 
d="M255 -34q-69 0 -108 21t-58.5 59.5t-24.5 92.5t-5 121q0 29 1.5 64t7 65.5t15 51t25.5 20.5q15 0 23 -9.5t18.5 -21t28.5 -21t53 -9.5q14 0 23.5 6.5t15 16.5t7.5 20.5t2 19.5q0 18 -7 30.5t-18.5 20.5t-26 12t-29.5 4q-18 0 -30 -4.5t-21 -10t-16.5 -10t-16.5 -4.5
q-14 0 -22.5 12t-13.5 28t-7.5 32.5t-4.5 24.5q-11 40 -19.5 65.5t-14.5 42t-9 27.5t-3 23q0 25 24.5 39t58.5 20.5t68.5 8t55.5 1.5q27 0 70.5 -1.5t85.5 -8t72.5 -21t30.5 -41.5q0 -14 -2.5 -36t-10 -43t-21.5 -36.5t-38 -15.5q-26 0 -38.5 6.5t-18 16.5t-7.5 21t-8 21
t-19 16.5t-40 6.5q-9 0 -22.5 -0.5t-26 -4t-21.5 -10.5t-9 -20q0 -16 1.5 -39.5t3.5 -35.5q81 -1 134.5 -30.5t85 -78t44.5 -113t13 -134.5q0 -54 -14.5 -104t-44 -88.5t-72.5 -62t-100 -23.5z" />
    <glyph glyph-name="six" unicode="6" horiz-adv-x="487" 
d="M296 820q30 0 55 -11t42.5 -30t27 -44.5t9.5 -53.5q0 -15 -3.5 -30.5t-12 -28t-21.5 -21t-31 -8.5q-29 0 -38 16.5t-9 38.5q0 8 2 16.5t2 16.5q0 14 -5.5 23.5t-23.5 9.5q-23 -3 -37.5 -23.5t-22 -47.5t-10 -55t-2.5 -45q68 -2 115.5 -20t77 -52t43 -85t13.5 -118
q0 -54 -9.5 -107.5t-33.5 -97t-66 -70.5t-108 -27t-110.5 29t-71 79.5t-38 119t-11.5 148.5q0 41 8 92.5t23.5 104t39 102.5t54 89.5t69 64t83.5 25.5zM222 402q0 -3 1.5 -11.5t6.5 -17.5t15.5 -15.5t27.5 -6.5q6 0 15.5 1.5t18.5 5.5t15.5 9.5t6.5 14.5q0 13 -6.5 24.5
t-16.5 20.5t-23 14t-26 5q-17 0 -26 -13.5t-9 -30.5z" />
    <glyph glyph-name="seven" unicode="7" horiz-adv-x="446" 
d="M20 144q0 35 15.5 73.5t38.5 79t49.5 84t49.5 88t38.5 90.5t15.5 92q0 17 -8.5 30.5t-27.5 13.5q-22 0 -35.5 -12t-25.5 -26t-25 -26t-32 -12q-17 0 -24 14t-7 46q0 16 4.5 40.5t15 47.5t26 39.5t38.5 16.5h212q12 0 24.5 -3.5t23.5 -11.5t18 -20t7 -29q0 -21 -10 -37
t-22 -39t-22 -57.5t-10 -92.5q0 -53 12.5 -103.5t27 -100t27 -99t12.5 -101.5q0 -44 -16 -75t-43 -51t-63.5 -29t-77.5 -9q-42 0 -79 9.5t-65.5 31t-45 55.5t-16.5 83z" />
    <glyph glyph-name="eight" unicode="8" horiz-adv-x="496" 
d="M241 824q27 0 57 -5.5t55 -19t41.5 -35t16.5 -54.5q0 -29 -11.5 -48t-25 -35t-25 -30.5t-11.5 -34.5q0 -17 21.5 -44t47.5 -67.5t47.5 -96t21.5 -128.5q0 -57 -17 -104.5t-48.5 -82t-77.5 -54t-104 -19.5q-51 0 -90 18.5t-65.5 50t-40 74.5t-13.5 91q0 35 9.5 71t24 71
t31 67.5t31 60t24 48.5t9.5 34q0 20 -10.5 36.5t-22.5 33.5t-22.5 38.5t-10.5 51.5q0 34 13.5 56t35.5 34.5t50.5 17t58.5 4.5zM250 512q-8 0 -14.5 -9t-11.5 -21.5t-8 -26.5t-3 -23q0 -43 36 -43q17 0 32 9.5t15 38.5q0 11 -4.5 24t-11 24.5t-15 19t-15.5 7.5zM213 686
q0 -5 2.5 -17t7.5 -24.5t12.5 -22t16.5 -9.5q7 0 14.5 6.5t13 17t9 22.5t3.5 24q0 20 -12.5 30t-29.5 10q-37 0 -37 -37z" />
    <glyph glyph-name="nine" unicode="9" horiz-adv-x="468" 
d="M202 819q51 0 89.5 -23t65.5 -60t45 -85t28 -97.5t14 -97t4 -84.5q0 -38 -3 -82.5t-11 -90t-23.5 -87.5t-40.5 -75t-61.5 -52.5t-86.5 -19.5q-47 0 -80.5 17.5t-56 46.5t-35.5 66.5t-19.5 78t-8.5 81t-2 74.5q0 36 1.5 68t6.5 56.5t13.5 38.5t23.5 14q16 0 28 -7
t24.5 -16t28.5 -16t40 -7q10 0 21.5 2.5t21 8.5t15.5 15t6 23q0 19 -15.5 27t-39.5 12.5t-51 8t-51 14t-39.5 30.5t-15.5 57q0 34 13 63t35.5 51t52.5 34.5t63 12.5zM144 680q0 -14 9 -23.5t23.5 -15.5t32.5 -8.5t36 -2.5q4 8 4.5 16t0.5 16q0 23 -11 39.5t-35 16.5
q-10 0 -20.5 -1.5t-19.5 -6t-14.5 -11.5t-5.5 -19z" />
    <glyph glyph-name="colon" unicode=":" horiz-adv-x="308" 
d="M20 522q0 27 10 63t28.5 68.5t44.5 55t57 22.5q34 0 58 -21t38 -52t20.5 -65.5t6.5 -61.5q0 -35 -10 -57.5t-28.5 -35.5t-44 -18.5t-56.5 -5.5q-57 0 -90.5 23t-33.5 85zM24 79q0 27 8.5 63t25 69t41.5 55.5t59 22.5q35 0 60 -21.5t40.5 -52.5t22.5 -66t7 -62
q0 -32 -11 -55t-30 -37.5t-45 -21.5t-55 -7q-61 0 -92 25t-31 88z" />
    <glyph glyph-name="semicolon" unicode=";" horiz-adv-x="303" 
d="M20 520q0 28 10.5 64t29.5 68t46 54.5t59 22.5q34 0 56.5 -21.5t36 -53t19.5 -66t6 -59.5q0 -35 -10 -58t-28.5 -36t-44.5 -18t-58 -5q-52 0 -87 25.5t-35 82.5zM52 -155q0 13 7.5 25.5t16 26t16 29.5t7.5 36q0 25 -7.5 48.5t-16 46.5t-16 46t-7.5 48t6 49t19 42.5
t33 29.5t48 11q33 0 53 -16t30.5 -40t14 -52.5t3.5 -53.5q0 -53 -15 -107.5t-40 -98.5t-57 -71.5t-65 -27.5q-11 0 -20.5 8t-9.5 21z" />
    <glyph glyph-name="less" unicode="&#x3c;" horiz-adv-x="297" 
d="M260 159q0 -21 -12 -35.5t-33 -14.5t-50.5 21.5t-56.5 52.5t-46 64t-19 56q0 21 19 53t47 62.5t58.5 52t53.5 21.5q21 0 30 -13t9 -26q0 -23 -12 -40.5t-27 -34t-27 -34.5t-12 -41t12 -41.5t27 -35t27 -32.5t12 -35z" />
    <glyph glyph-name="equal" unicode="=" horiz-adv-x="442" 
d="M49 477q0 48 0.5 75t5 40t14 16t26.5 3q20 0 91.5 2.5t184.5 2.5q19 -4 26 -13.5t7 -29.5q0 -44 -0.5 -69.5t-5 -38.5t-13.5 -16t-25 -3q-7 0 -38 -1t-71 -2t-79.5 -2t-62.5 -1q-29 0 -44.5 6.5t-15.5 30.5zM49 237q0 48 0.5 75t5 40t14 16t26.5 3q20 0 91.5 2.5
t184.5 2.5q19 -4 26 -13.5t7 -29.5q0 -44 -0.5 -69.5t-5 -38.5t-13.5 -16t-25 -3q-7 0 -38 -1t-71 -2t-79.5 -2t-62.5 -1q-29 0 -44.5 6.5t-15.5 30.5z" />
    <glyph glyph-name="greater" unicode="&#x3e;" horiz-adv-x="297" 
d="M259 303q0 -23 -19 -56t-46 -64t-56.5 -52.5t-50.5 -21.5t-33 14.5t-12 35.5q0 19 12 35t27 32.5t27 35t12 41.5t-12 41t-27 34.5t-27 34t-12 40.5q0 13 9 26t30 13q23 0 53.5 -21.5t58.5 -52t47 -62.5t19 -53z" />
    <glyph glyph-name="question" unicode="?" horiz-adv-x="492" 
d="M100 513q0 19 11.5 34.5t29 29t37.5 25t37.5 24t29 26.5t11.5 31q0 21 -12 32t-31 11q-16 0 -23.5 -7t-11 -17t-5 -22t-5.5 -22t-13 -17t-26 -7q-15 0 -28.5 7.5t-24 19.5t-16.5 26.5t-6 29.5q0 38 27.5 59.5t65.5 32t78 12.5t66 2q21 0 54 -1.5t63.5 -10.5t52.5 -27
t22 -51q0 -32 -22 -54.5t-49.5 -43.5t-53 -42.5t-32.5 -50.5q0 -11 4.5 -20.5t4.5 -23.5q0 -58 -114 -58q-60 0 -90.5 19.5t-30.5 53.5zM17 188q0 110 50 167.5t167 57.5q20 0 45.5 -5.5t48 -17.5t38 -30t15.5 -43q0 -39 13.5 -71.5t30 -61t30.5 -55.5t14 -55
q0 -39 -18.5 -60.5t-49.5 -32t-71 -13t-83 -2.5q-61 0 -104.5 12.5t-71.5 39.5t-41 69t-13 101z" />
    <glyph glyph-name="at" unicode="@" horiz-adv-x="727" 
d="M348 479q9 0 10.5 -8t1.5 -28q0 -34 -1.5 -53t-5.5 -28t-9.5 -10.5t-14.5 -1.5q-10 0 -15 4.5t-7.5 11t-3 15.5t-0.5 18q0 12 1.5 26t6.5 26t13.5 20t23.5 8zM148 258q0 -58 16 -96t46 -60t72.5 -30.5t95.5 -8.5q30 0 61.5 1.5t57 11t41.5 30.5t16 59q0 43 -12.5 84
t-27 81.5t-27 81t-12.5 83.5q0 21 6 40.5t12.5 38.5t12.5 38.5t6 39.5q0 25 -16.5 40t-40 23t-48.5 10.5t-42 2.5q-23 0 -52.5 -5t-56 -17.5t-44.5 -33t-18 -50.5q0 -31 9.5 -50.5t34.5 -19.5q26 0 38.5 13t20.5 29t15.5 29t24.5 13q32 0 32 -30q0 -14 -4.5 -24.5
t-18.5 -19.5q-48 -29 -84.5 -50t-62 -51t-38.5 -77t-13 -126zM20 370q0 38 6 87t20.5 99.5t39.5 99t63.5 87t91.5 61.5t124 23q75 0 130 -26t92.5 -68.5t60.5 -96t36 -108t17 -105.5t4 -88q0 -65 -11 -131t-47 -119t-103.5 -86t-180.5 -33q-79 0 -135 18t-94 49t-60.5 71.5
t-34.5 85.5t-15.5 91t-3.5 89z" />
    <glyph glyph-name="A" unicode="A" horiz-adv-x="699" 
d="M20 126q0 33 8.5 63t21 59t27 57t26.5 57q20 48 33 98t13 103q0 46 -7 75.5t-16 49t-16 34t-7 32.5q0 26 13 40.5t31.5 22t39 9.5t35.5 2h251q20 0 41 -1.5t38 -8t28 -20t11 -37.5q0 -26 -6.5 -45.5t-14.5 -41t-14.5 -48.5t-6.5 -68q0 -59 20.5 -116t44.5 -112
t44.5 -107.5t20.5 -102.5q0 -37 -12 -65.5t-33.5 -47.5t-51 -28.5t-64.5 -9.5q-46 0 -76.5 13.5t-48.5 39t-25.5 61.5t-7.5 81q0 31 6 66t13 71t13 72.5t6 71.5q0 12 -3 25t-9.5 24t-16.5 18t-24 7q-32 0 -42.5 -22t-10.5 -54q0 -40 6 -80t13 -79.5t13 -77.5t6 -74
q0 -86 -38 -126.5t-123 -40.5q-76 0 -112.5 44.5t-36.5 116.5zM306 662q0 -7 1.5 -10.5t9.5 -3.5q5 0 9.5 2t18.5 2q11 0 18 -2t12 -2q11 0 12.5 10t1.5 17q0 18 -9 34.5t-31 16.5q-14 0 -22 -7.5t-13 -17.5t-6.5 -21t-1.5 -18z" />
    <glyph glyph-name="B" unicode="B" horiz-adv-x="569" 
d="M9 98q0 34 18 77.5t39.5 97.5t39.5 119t18 144q0 49 -10 85.5t-22.5 63t-22.5 45t-10 32.5q0 25 16.5 39.5t41 21.5t52 8.5t49.5 1.5q27 0 68 -4t80 -17t67 -38.5t28 -68.5q0 -17 -5.5 -34t-13 -32t-16.5 -27t-16 -21q26 -36 51 -73.5t44.5 -77.5t31.5 -83t12 -89
q0 -80 -22.5 -137t-65 -94t-103.5 -54t-137 -17q-30 0 -67 6t-69.5 21t-54 40.5t-21.5 64.5zM277 415q5 -6 12 -6q28 0 40 15.5t12 47.5q0 10 -1.5 21.5t-5 21.5t-11 16.5t-19.5 6.5q-17 0 -22.5 -12t-5.5 -31v-41t1 -39zM277 654q0 -5 4 -5q7 0 12.5 6t10 14t7 16.5
t2.5 14.5q0 16 -10 24t-24 8q-8 0 -15 -4t-7 -12q0 -15 7.5 -32.5t12.5 -29.5z" />
    <glyph glyph-name="C" unicode="C" horiz-adv-x="492" 
d="M20 350q0 41 5 92.5t17.5 104.5t32.5 104t50.5 90.5t72 63.5t96.5 24q28 0 53.5 -9t45 -26t31 -41t11.5 -54q0 -34 -20.5 -55.5t-54.5 -21.5q-19 0 -29 8t-14.5 20.5t-5.5 26.5t-3.5 26.5t-8 20.5t-18.5 8q-22 0 -34.5 -14.5t-19 -35.5t-8 -43t-1.5 -37q0 -22 4 -46
t14.5 -44.5t27.5 -33.5t44 -13q20 0 33 8t22.5 17.5l17.5 17.5t19 8q19 0 32.5 -21.5t22.5 -50t13 -57t4 -42.5q0 -32 -1.5 -72t-8 -82t-20 -82.5t-37 -72t-59 -51t-85.5 -19.5q-51 0 -88.5 17t-64.5 46t-44 67t-27 80.5t-13.5 87.5t-3.5 86z" />
    <glyph glyph-name="D" unicode="D" horiz-adv-x="533" 
d="M20 99q0 25 12 63.5t27 86.5t27 102t12 110q0 43 -5.5 73.5t-13.5 53.5t-18 40.5t-18 34t-13.5 34.5t-5.5 42q0 30 18 46t43.5 24t54.5 9.5t52 1.5q93 0 155 -40t98.5 -105.5t52 -148.5t15.5 -169q0 -78 -13.5 -148.5t-48 -124.5t-93.5 -86t-149 -32q-34 0 -67.5 6
t-60.5 21t-44 40.5t-17 65.5zM245 488q1 -12 6 -19.5t17 -7.5q16 0 26.5 12.5t15.5 30.5t7 36.5t2 30.5q0 14 -3 34.5t-10.5 39t-20 32t-31.5 13.5q-11 0 -14.5 -8t-3.5 -19z" />
    <glyph glyph-name="E" unicode="E" 
d="M20 121q0 34 16 82.5t34.5 103.5t34.5 112.5t16 110.5q0 42 -10 73t-22 55t-22 45t-10 44q0 27 14 43.5t36 25.5t49 12t54 3q44 0 83.5 -2.5t69 -14.5t46.5 -38t17 -73q0 -17 -7.5 -30.5t-29.5 -13.5q-21 0 -33 10t-21 22t-19 22t-28 10q-29 0 -29 -27q0 -16 7 -22t17 -8
t22 -2.5t22 -5.5t17 -17t7 -37q0 -17 -7 -25t-16 -8q-12 0 -23.5 -1t-20.5 -5.5t-14.5 -14t-5.5 -25.5q0 -20 11.5 -31t30.5 -11q18 0 29 11t20 23.5t19.5 23.5t27.5 11q20 0 34 -15t23.5 -39.5t14.5 -55.5t8 -61.5t3.5 -58.5t0.5 -47q0 -101 -12.5 -162t-41 -93.5
t-73.5 -43t-111 -10.5q-38 0 -78.5 7t-73.5 24t-54.5 47t-21.5 77z" />
    <glyph glyph-name="F" unicode="F" horiz-adv-x="477" 
d="M20 106q0 60 18.5 114.5t41 108.5t41.5 108.5t19 113.5q0 24 -6.5 47t-14.5 45.5t-14.5 45t-6.5 46.5q0 33 19 52t46.5 28.5t60 12t59.5 2.5q35 0 65.5 -8.5t54 -27.5t38 -48t16.5 -69q0 -17 -6.5 -30t-25.5 -13q-17 0 -29.5 12t-24.5 26t-24 26t-26 12t-21.5 -5.5
t-7.5 -22.5q0 -21 13 -26t28.5 -8t28.5 -11t13 -35q0 -19 -6.5 -28t-16.5 -13.5t-21 -6.5t-21 -7t-16.5 -15.5t-6.5 -31.5q0 -41 21.5 -88.5t47.5 -98t47.5 -103t21.5 -104.5q0 -41 -18.5 -68t-47.5 -43t-64.5 -23t-70.5 -7q-36 0 -72.5 5t-65.5 20t-47.5 43t-18.5 73z" />
    <glyph glyph-name="G" unicode="G" 
d="M20 334q0 39 3.5 91t13.5 107t28 108t46 95t68.5 68t95.5 26q29 0 55.5 -8.5t46.5 -26t32 -43t12 -58.5t-17 -50t-55 -17q-16 0 -26 7.5t-16 19t-8 25.5t-2 27q-4 7 -10 8t-14 1q-21 0 -34 -15t-20.5 -36t-10.5 -44t-3 -39q0 -18 2 -38t9 -37.5t20.5 -28.5t36.5 -11
q17 0 27 8.5t10 25.5q0 16 -8.5 20t-19 6.5t-19 9t-8.5 27.5q0 15 9 24t24 13.5t33 5.5t36 1q17 0 37 -1t37.5 -7t29 -19t11.5 -37q0 -17 -0.5 -41t-1.5 -51t-1.5 -54.5t-0.5 -51.5q0 -21 3 -62t6 -86t6 -87.5t3 -67.5q0 -31 -7.5 -41.5t-30.5 -10.5q-11 0 -18 5t-13 11.5
t-13 11.5t-17 5q-13 0 -21.5 -9t-21.5 -19.5t-35.5 -19t-62.5 -8.5q-49 0 -84.5 16t-60.5 44t-41 64.5t-25 77.5t-12 83.5t-3 82.5z" />
    <glyph glyph-name="H" unicode="H" horiz-adv-x="681" 
d="M20 119q0 54 13 105.5t28.5 103t28.5 103.5t13 106q0 30 -10 60t-22.5 57.5t-22.5 51.5t-10 41q0 27 17 43t41 23.5t50.5 9.5t44.5 2q15 0 32 -2t31.5 -8.5t23.5 -18.5t9 -31q0 -17 -4.5 -35.5t-4.5 -37.5q0 -11 4.5 -26.5t18.5 -15.5h74q15 0 23.5 11t8.5 25
q0 20 -4.5 39.5t-4.5 39.5q0 21 9 33t23.5 18t32 7.5t34.5 1.5q15 0 37.5 -2t43.5 -8.5t35.5 -20t14.5 -36.5q0 -15 -3.5 -26t-8.5 -21.5t-12 -21.5t-13 -26q-12 -29 -15 -54t-3 -56q0 -56 13.5 -109t30 -105.5t30.5 -106t14 -109.5q0 -83 -37.5 -120t-122.5 -37
q-39 0 -67 12.5t-46.5 35t-27.5 53.5t-9 67q0 39 6.5 78.5t14.5 79t14.5 77.5t6.5 73q0 17 -1 38t-6.5 39t-18 30.5t-34.5 12.5q-19 0 -29 -8t-14.5 -21t-5.5 -30t-1 -35q0 -43 7 -84.5t16 -83t16 -83t7 -83.5q0 -35 -8 -66t-25.5 -54.5t-44.5 -37.5t-65 -14q-86 0 -126 36
t-40 121z" />
    <glyph glyph-name="I" unicode="I" horiz-adv-x="385" 
d="M20 135q0 52 15 101.5t33.5 98t33.5 97.5t15 101q0 30 -9.5 57t-20.5 53.5t-20.5 53t-9.5 55.5q0 30 15.5 47t39 26t50 11t49.5 2q22 0 46 -2.5t44 -11t33 -25.5t13 -45q0 -26 -9 -50t-20.5 -49t-20.5 -51.5t-9 -56.5q0 -57 12 -108t26.5 -100t26.5 -98t12 -102
q0 -82 -37.5 -128t-123.5 -46q-83 0 -133.5 42t-50.5 128z" />
    <glyph glyph-name="J" unicode="J" horiz-adv-x="477" 
d="M20 284q0 10 0.5 31.5t2.5 47.5t7 53.5t13 50.5t21 37.5t32 14.5q15 0 25.5 -8t20.5 -17.5t21 -17.5t28 -8q15 0 25.5 7.5t17 19.5t9 26t2.5 27q0 27 -5.5 52.5t-12.5 51t-12.5 51t-5.5 51.5q0 23 10.5 37.5t27 22.5t36.5 10.5t38 2.5q19 0 42 -3t43 -11t33 -21.5
t13 -33.5q0 -36 -10.5 -68t-23.5 -64.5t-23.5 -66.5t-10.5 -73q0 -41 11.5 -79.5t25 -77.5t25 -80t11.5 -88q0 -90 -52.5 -143t-145.5 -53q-68 0 -113.5 27.5t-73.5 72t-40 102t-12 117.5z" />
    <glyph glyph-name="K" unicode="K" horiz-adv-x="607" 
d="M20 98q0 51 16.5 98t36.5 94t36.5 95.5t16.5 101.5q0 51 -10 91t-22 71.5t-22 55.5t-10 41q0 25 13 40t32.5 23t42 11t41.5 3q21 0 40 -6t33.5 -17.5t23.5 -29t9 -39.5q0 -14 -5 -30t-11.5 -32.5t-11.5 -32t-5 -26.5q0 -22 26 -22q16 0 25.5 8t14.5 20t6.5 26.5t1.5 26.5
l-4 59q0 26 13 44t32.5 29.5t43 16.5t45.5 5q17 0 33.5 -4.5t29.5 -14t21 -23t8 -31.5q0 -24 -13.5 -45.5t-33.5 -40.5t-43 -36t-43 -31.5t-33.5 -27.5t-13.5 -24q0 -16 18 -42t42 -55t48.5 -58t38.5 -51q30 -48 45 -104t15 -113q0 -33 -6 -62t-20 -50t-39 -33t-62 -12
q-32 0 -55.5 11t-39 30.5t-23.5 46t-8 56.5q0 60 2.5 116t2.5 121q0 16 -1.5 35.5t-6.5 35.5t-14 27t-24 11q-11 0 -18 -6t-10.5 -15.5t-5 -21t-1.5 -22.5q0 -57 6 -95t13.5 -68.5t13.5 -58.5t6 -64q0 -71 -34 -107t-109 -36q-60 0 -97 38t-37 99z" />
    <glyph glyph-name="L" unicode="L" horiz-adv-x="497" 
d="M20 134q0 51 14.5 98t32 94.5t32 97t14.5 103.5q0 31 -11.5 59t-26 54.5t-26 53t-11.5 55.5q0 30 18 47.5t44.5 26.5t55 11.5t49.5 2.5q16 0 36.5 -1t39 -6.5t31 -18t12.5 -35.5q0 -26 -9.5 -49t-20.5 -46t-20.5 -47.5t-9.5 -52.5q0 -9 2 -23t6.5 -27t13 -22t20.5 -9
q16 0 24.5 9.5t14.5 20.5t13.5 20.5t21.5 9.5q24 0 40.5 -18.5t27.5 -48t17 -65t8.5 -69.5t3 -62t0.5 -42q0 -79 -10 -134.5t-38 -90t-78 -50t-130 -15.5q-42 0 -79 8.5t-64 28.5t-42.5 52t-15.5 80z" />
    <glyph glyph-name="M" unicode="M" horiz-adv-x="708" 
d="M20 121q0 46 5.5 81.5t13.5 65.5t17 58t17 58.5t13.5 66.5t5.5 82q0 33 -10 60t-21.5 52.5t-21.5 52t-10 59.5q0 28 11 44.5t29 25t41 11t46 2.5q40 0 68 -8t47.5 -24.5t34 -42.5t29.5 -62q19 29 38 53.5t41.5 42.5t51.5 28.5t68 10.5q17 0 37.5 -3t38 -10.5t29.5 -21.5
t12 -35q0 -31 -11 -55t-23.5 -49.5t-23.5 -56t-11 -74.5q0 -53 16.5 -101t36.5 -95.5t36.5 -96t16.5 -101.5q0 -93 -45 -133t-133 -40q-72 0 -111 43.5t-39 113.5q0 41 14 80.5t30.5 83t30.5 93t14 109.5q0 13 -1.5 26t-4.5 23t-8.5 16.5t-13.5 6.5q-9 0 -15.5 -5.5
t-10.5 -14.5t-5.5 -19t-1.5 -19q0 -31 5 -58t5 -56q0 -40 -18.5 -65.5t-47.5 -25.5q-10 0 -20.5 5t-19.5 15.5t-14.5 26t-5.5 35.5q0 13 3.5 48t4.5 87q0 4 -2 12t-6.5 15.5t-10.5 13t-15 5.5t-14.5 -7.5t-8.5 -18.5t-4 -23.5t-1 -22.5q0 -52 15 -98.5t33.5 -91.5
t33.5 -89.5t15 -91.5q0 -46 -12 -75.5t-33 -46.5t-50 -23.5t-63 -6.5q-74 0 -105.5 41.5t-31.5 113.5z" />
    <glyph glyph-name="N" unicode="N" horiz-adv-x="652" 
d="M20 110q0 52 13.5 99t30 94t30 96t13.5 105q0 48 -10 81t-22.5 59t-22.5 50t-10 55q0 26 13 42.5t33.5 26t44.5 13t45 3.5q54 0 90 -33.5t59.5 -83.5t37.5 -109t24 -109t19 -83.5t22 -33.5q8 0 8 27q0 18 -3.5 44.5t-8.5 55t-11.5 56t-12.5 47.5q-4 14 -10.5 30.5
t-12.5 33.5t-10 34t-4 34q0 27 13 43.5t32.5 25.5t43 12t45.5 3q18 0 37.5 -1.5t36 -8t27 -20t10.5 -36.5q0 -30 -10 -57.5t-22.5 -54.5t-22.5 -55.5t-10 -61.5q0 -60 13.5 -115.5t30 -109t30 -106.5t13.5 -110q0 -61 -34.5 -93.5t-91.5 -32.5q-51 0 -88 25.5t-53 76.5
q-6 18 -12.5 58.5t-14 90t-16 102.5t-19.5 96.5t-24 71.5t-29 28q-10 0 -14 -12t-4 -26q0 -48 14 -93t31.5 -89t31.5 -88.5t14 -90.5q0 -72 -36 -113t-111 -41q-70 0 -113 37.5t-43 110.5z" />
    <glyph glyph-name="O" unicode="O" horiz-adv-x="528" 
d="M20 372q0 38 4 87.5t14.5 100.5t28.5 100t45.5 87t65.5 61.5t88 23.5q54 0 92.5 -26t65.5 -68.5t43.5 -96.5t25.5 -109t12 -106.5t3 -88.5q0 -66 -8 -132.5t-33.5 -119.5t-73.5 -86.5t-129 -33.5q-56 0 -96 18.5t-67 49t-43 71.5t-24.5 86.5t-11 92t-2.5 89.5zM206 610
q0 -12 2 -30.5t8.5 -36.5t18 -30.5t31.5 -12.5q13 0 21.5 11t13 27t6.5 35t2 36q0 10 -2 28t-8 35.5t-17 30t-29 12.5t-27.5 -13t-14 -30t-5 -34.5t-0.5 -27.5z" />
    <glyph glyph-name="P" unicode="P" horiz-adv-x="451" 
d="M20 95q0 22 10 67.5t22 102t22 116t10 108.5q0 57 -9 94t-20.5 63t-20.5 46.5t-9 45.5q0 31 18 49t45 27t59 11.5t60 2.5q33 0 75 -3t79 -16.5t62.5 -41.5t25.5 -78q0 -43 -14.5 -71t-36.5 -47t-48 -32.5t-48 -28.5t-36.5 -34.5t-14.5 -51.5q0 -61 20 -107.5t44.5 -85.5
t44.5 -73.5t20 -71.5q0 -36 -17 -59t-43.5 -37t-58 -19.5t-61.5 -5.5q-32 0 -64 5.5t-58 20.5t-42 40t-16 64zM209 706q0 -6 0.5 -22.5t2 -33.5t4.5 -30t7 -13q6 0 13 6t13 16t10.5 23t4.5 26q0 17 -5.5 33t-25.5 16q-11 0 -17.5 -6t-6.5 -15z" />
    <glyph glyph-name="Q" unicode="Q" horiz-adv-x="510" 
d="M301 -28q-2 0 -17.5 -3t-35.5 -3q-63 0 -106.5 36t-70.5 93.5t-39 128.5t-12 141q0 37 4.5 85t15.5 98.5t29 99.5t44.5 87.5t63.5 62t85 23.5q46 0 81 -28.5t60.5 -74.5t42 -103t26.5 -113t14 -106t4 -82q0 -40 -3.5 -79t-14 -76.5t-29.5 -73.5t-49 -70q0 -15 10 -22
t24.5 -10.5t32 -6t32 -8.5t24.5 -17.5t10 -32.5q0 -14 -6.5 -26t-17 -21t-23.5 -14t-27 -5q-29 0 -52 11.5t-42 29.5t-33.5 39t-24.5 40zM253 724q-19 0 -29.5 -15t-16 -35t-6.5 -40.5t-1 -31.5q0 -42 5.5 -66t17.5 -24q9 0 19 8.5t18 8.5q18 0 28.5 3t15 11.5t5.5 22.5
t1 36q0 12 -1.5 32.5t-7.5 40.5t-17.5 34.5t-30.5 14.5z" />
    <glyph glyph-name="R" unicode="R" horiz-adv-x="593" 
d="M20 108q0 48 12 97t27 99t27 101t12 103q0 58 -11.5 95.5t-25.5 63t-25.5 43t-11.5 35.5q0 31 26 48.5t61 26t70.5 10.5t54.5 2q31 0 65.5 -4.5t63 -18t47 -37t18.5 -61.5q0 -40 -18.5 -73t-43.5 -62q44 -41 81.5 -90t65 -103.5t43 -113.5t15.5 -119q0 -31 -5.5 -63
t-20 -58.5t-38.5 -43t-61 -16.5q-41 0 -67.5 22.5t-42.5 56t-22.5 73t-6.5 73.5q0 42 5 95t5 103q0 23 -9.5 40.5t-31.5 17.5q-8 0 -13.5 -5.5t-9 -13t-5 -16.5t-1.5 -16q0 -36 6 -70t13 -68t13 -68.5t6 -70.5q0 -73 -29.5 -115t-104.5 -42q-63 0 -98 41t-35 102zM204 691
q0 -5 2.5 -19t6.5 -29.5t9.5 -27.5t11.5 -12q11 0 20 7.5t15.5 18t10 23t3.5 21.5q0 30 -12.5 41.5t-35.5 11.5q-13 0 -22 -6t-9 -29z" />
    <glyph glyph-name="S" unicode="S" horiz-adv-x="482" 
d="M331 627q-23 0 -37 9t-15 26q0 15 -2 29.5t-7.5 25.5t-16 18t-28.5 7q-23 0 -40.5 -14.5t-17.5 -39.5q0 -28 22 -48.5t52 -36.5t61 -29t49 -26q31 -23 52.5 -52.5t34.5 -64t18.5 -71t5.5 -72.5q0 -59 -10 -117t-36.5 -103.5t-71.5 -73.5t-115 -28q-57 0 -97 24.5
t-64.5 66.5t-36 97t-11.5 115q0 27 1 60t5.5 62.5t15 49.5t28.5 20q11 0 19.5 -4.5t17 -9.5t17.5 -9.5t20 -4.5q18 0 28.5 14.5t10.5 32.5t-12 32q-18 19 -37.5 38t-35.5 39t-26.5 43.5t-10.5 51.5q0 35 14.5 61.5t38 44t53.5 26.5t62 9q29 0 59 -5.5t54.5 -19t40 -36
t15.5 -56.5t-15 -57.5t-52 -23.5z" />
    <glyph glyph-name="T" unicode="T" horiz-adv-x="423" 
d="M29 138q0 69 21 132.5t46 126.5t46 126t21 131q0 7 -0.5 15t-2.5 15t-6.5 12t-13.5 5t-12.5 -10.5t-5.5 -26.5t-3.5 -34.5t-6.5 -34.5t-14.5 -26.5t-26.5 -10.5q-19 0 -29.5 12.5t-15 31.5t-5.5 41.5t-1 42.5q0 27 2 53t12 46t30 32t55 12h203q30 0 46 -12t24 -31.5
t9.5 -43t1.5 -46.5v-92q-3 -37 -27 -37q-19 0 -30 10.5t-17 26.5t-9 34.5t-7 34.5t-10.5 26.5t-18.5 10.5q-14 0 -17 -14t-3 -25q0 -54 19 -115t41.5 -126.5t41.5 -133.5t19 -135q0 -41 -10.5 -77t-32.5 -62t-55 -41t-78 -15q-83 0 -131.5 42t-48.5 130z" />
    <glyph glyph-name="U" unicode="U" horiz-adv-x="556" 
d="M38 197q0 48 5 86.5t11.5 73t11.5 67t5 67.5q0 50 -8 88t-17.5 68t-17.5 54t-8 46q0 25 9 41t24.5 25t35.5 12.5t42 3.5q54 0 86.5 -28t32.5 -85q0 -21 -4 -42t-9.5 -42t-9.5 -42.5t-4 -42.5q0 -10 1.5 -20.5t8 -19t19 -14t34.5 -5.5q12 0 23 2t19.5 8t14 18.5t5.5 33.5
q0 24 -6 46.5t-12.5 44.5t-12.5 44t-6 45q0 15 5 32t18 32t35.5 25t57.5 10q36 0 58 -8.5t33 -21t14.5 -26.5t3.5 -26q0 -20 -8.5 -43.5t-18.5 -54t-18.5 -70t-8.5 -91.5q0 -40 5.5 -78.5t12.5 -77t12.5 -77.5t5.5 -79q0 -54 -17 -94t-48 -65.5t-74 -38t-95 -12.5
q-115 0 -180.5 55t-65.5 176z" />
    <glyph glyph-name="V" unicode="V" horiz-adv-x="620" 
d="M20 734q0 25 12.5 41t31.5 25t41.5 12t41.5 3q60 0 98 -28.5t38 -94.5q0 -38 -9.5 -74.5t-9.5 -72.5q0 -12 1.5 -33t7.5 -41.5t17.5 -36t30.5 -15.5q15 0 25 13.5t16.5 31.5t9.5 37t3 31q0 22 -4.5 44t-9.5 44.5t-9.5 44.5t-4.5 45q0 32 12.5 52.5t32.5 32t46.5 16
t53.5 4.5q12 0 30.5 -1.5t36 -8.5t29.5 -20t12 -36q0 -42 -22 -95t-49 -113t-50 -125t-26 -131q-1 -9 -2 -33.5t-1.5 -51.5t-1 -51.5t-0.5 -34.5q-3 -26 -12 -52t-24.5 -47.5t-38 -35t-52.5 -13.5q-36 0 -67 21.5t-45 53.5q-8 16 -12.5 42t-6.5 58t-2.5 68t-0.5 72
q0 52 -12.5 101t-31 93t-40 83t-40 72t-31 59t-12.5 45z" />
    <glyph glyph-name="W" unicode="W" horiz-adv-x="666" 
d="M29 92q0 49 11.5 97.5t25.5 96.5t25.5 97t11.5 100q0 35 -5 68.5t-19 65.5q-5 12 -15 29t-20 35t-17 36.5t-7 33.5q0 26 15 40.5t36.5 22t45.5 9t43 1.5q49 0 67 -10.5t18 -46.5q0 -33 -10.5 -63.5t-10.5 -60.5q0 -23 5.5 -26.5t13.5 -3.5q13 0 18.5 15t8.5 37.5t5 48.5
t8.5 48.5t19.5 37.5t37 15q18 0 27 -14t12.5 -35t4.5 -45.5t4.5 -45.5t11 -35t25.5 -14q10 0 14 5.5t4 13.5q0 32 -9 57.5t-9 52.5q0 21 9.5 34.5t24.5 21t33 10.5t35 3q19 0 37 -2.5t32.5 -9.5t23 -20t8.5 -34q0 -18 -4.5 -33.5t-11.5 -30t-15 -29t-15 -30.5
q-8 -19 -12.5 -35.5t-6.5 -33t-2.5 -34t-0.5 -38.5q0 -67 13.5 -121.5t29.5 -101.5t29.5 -88t13.5 -80q0 -65 -38.5 -101t-99.5 -36q-86 0 -123.5 49t-37.5 130q0 59 9.5 120t9.5 113q0 14 -1.5 29.5t-6 28t-13 21t-22.5 8.5q-21 0 -26 -16.5t-5 -38.5q0 -41 5 -77
t10.5 -70.5t10.5 -69t5 -70.5q0 -29 -6 -57.5t-20.5 -51.5t-38 -37.5t-58.5 -14.5q-32 0 -62.5 6.5t-54.5 22t-39 40.5t-15 61z" />
    <glyph glyph-name="X" unicode="X" horiz-adv-x="612" 
d="M455 -34q-28 0 -50.5 5t-38 17t-24 32.5t-8.5 52.5q0 44 9 86t9 87q0 78 -14 138.5t-37 108.5q-14 -27 -22.5 -51t-12.5 -46.5t-5 -44.5t-1 -44q0 -28 5 -55.5t11.5 -55t11.5 -55t5 -54.5q0 -30 -10.5 -53.5t-29.5 -39.5t-44 -24.5t-55 -8.5q-66 0 -100 38t-34 104
q0 73 18 138t47 125t67 117.5t77 115.5q-32 35 -65 60.5t-60 45.5t-44 37.5t-17 37.5q0 17 10.5 27.5t26 16.5t32.5 8t29 2q34 0 77.5 -30.5t91.5 -82.5q0 2 2 4q12 19 25.5 38t30 35t37 26t46.5 10q10 0 25 -2.5t29.5 -8.5t25 -15t10.5 -22q0 -10 -5.5 -19t-13 -16.5
t-15.5 -13.5t-12 -10q-32 -30 -58 -56.5t-47 -51.5q40 -58 77 -124t64.5 -133.5t44 -134t16.5 -124.5q0 -137 -137 -137z" />
    <glyph glyph-name="Y" unicode="Y" 
d="M105 824q12 0 28 -2t30.5 -8t25 -17t11.5 -29q1 -12 1 -37t4.5 -51t15 -45.5t31.5 -19.5q14 0 22.5 4.5t13 17t6 34t1.5 55.5q0 15 1.5 32.5t11 32t30 24t58.5 9.5q16 0 32 -1.5t29 -7.5t21 -17.5t8 -31.5q0 -36 -22.5 -69t-49.5 -67.5t-49.5 -71.5t-22.5 -82
q0 -24 13 -57.5t29 -74.5t29 -88.5t13 -99.5q0 -98 -46.5 -144t-140.5 -46q-34 0 -65 10.5t-55 32.5t-38.5 56.5t-14.5 83.5q0 58 16 100t34.5 78t34.5 71.5t16 79.5q0 40 -23 73t-50.5 64.5t-50.5 64.5t-23 75q0 38 25 53.5t60 15.5z" />
    <glyph glyph-name="Z" unicode="Z" horiz-adv-x="454" 
d="M107 -29q-24 7 -41 21.5t-27 34t-14.5 42t-4.5 45.5q5 50 9 100t9 98q5 39 7 71.5t8 62.5t20 58t43 58q16 17 37 37t39.5 39.5t31 36t12.5 26.5q0 15 -8 18.5t-22 3.5q-27 0 -39.5 -15t-23 -33t-25.5 -33t-48 -15q-15 0 -24.5 10t-14.5 25.5t-6.5 35t-1.5 37.5q0 32 5 51
t23 28.5t53.5 12t97.5 2.5q55 0 95 -3t65 -11.5t37 -24t12 -41.5q0 -25 -14.5 -48t-35.5 -45.5t-46.5 -44.5t-46.5 -44t-35.5 -44t-14.5 -44q0 -12 7 -17.5t18 -5.5q19 0 28.5 13t17 28.5t17 28.5t29.5 13q21 0 30.5 -12t13.5 -28.5t3.5 -33.5t1.5 -27q1 -14 5 -39t9.5 -56
t12 -64.5t11.5 -65.5t8.5 -59.5t3.5 -45.5q0 -40 -8 -67t-25.5 -43.5t-45.5 -24t-68 -7.5q-9 0 -29.5 1t-46 1.5t-53.5 1.5t-51 1z" />
    <glyph glyph-name="bracketleft" unicode="[" horiz-adv-x="418" 
d="M20 425q0 37 6 88t19 106t34 108.5t51 96t70.5 68.5t91.5 26q48 0 79.5 -32t31.5 -81q0 -35 -14 -55t-34.5 -36.5t-44.5 -35t-44.5 -49.5t-34.5 -80t-14 -126q0 -73 14 -121.5t35 -81.5t46 -55.5t46 -44t35 -46.5t14 -63q0 -52 -34.5 -80t-82.5 -28q-45 0 -82.5 29
t-67.5 75.5t-52.5 104.5t-37.5 116t-22.5 110t-7.5 87z" />
    <glyph glyph-name="backslash" unicode="\" horiz-adv-x="352" 
d="M356 -9q0 -11 -10.5 -13.5t-33.5 -2.5t-31 4.5t-14 21.5l-272 820q-2 5 -3 10t-1 9q0 10 10 12.5t31 2.5h7q20 0 29.5 -3.5t15.5 -21.5l269 -822q3 -11 3 -17z" />
    <glyph glyph-name="bracketright" unicode="]" horiz-adv-x="418" 
d="M405 425q0 -35 -7.5 -87t-22.5 -110t-37.5 -116t-52.5 -104.5t-67.5 -75.5t-82.5 -29q-48 0 -82.5 28t-34.5 80q0 38 14 63t35 46.5t46 44t46 55.5t35 81.5t14 121.5q0 77 -14 126t-34.5 80t-44.5 49.5t-44.5 35t-34.5 37t-14 54.5q0 49 31.5 81t79.5 32q51 0 91.5 -26
t70.5 -68.5t51 -96t34 -108.5t19 -106t6 -88z" />
    <glyph glyph-name="asciicircum" unicode="^" horiz-adv-x="492" 
d="M20 350q0 41 5 92.5t17.5 104.5t32.5 104t50.5 90.5t72 63.5t96.5 24q28 0 53.5 -9t45 -26t31 -41t11.5 -54q0 -31 -10.5 -56t-29 -43t-43 -27.5t-52.5 -9.5q-20 0 -40.5 2.5t-41.5 9.5q1 -21 6.5 -41t16 -35t27 -24.5t40.5 -9.5q20 0 33 8t22.5 17.5l17.5 17.5t19 8
q19 0 32.5 -21.5t22.5 -50t13 -57t4 -42.5q0 -32 -1.5 -72t-8 -82t-20 -82.5t-37 -72t-59 -51t-85.5 -19.5q-51 0 -88.5 17t-64.5 46t-44 67t-27 80.5t-13.5 87.5t-3.5 86zM281 732q-21 0 -33.5 -13t-19 -32t-8.5 -40t-2 -37q57 0 91.5 24t34.5 59q0 17 -15 28t-48 11z" />
    <glyph glyph-name="underscore" unicode="_" horiz-adv-x="442" 
d="M-1 -49q0 48 0.5 75t5 40t14 16t26.5 3q10 0 47 1t89.5 1.5t113 1.5t116.5 1q19 -4 26 -13.5t7 -29.5q0 -44 -0.5 -69.5t-5 -38.5t-13.5 -16t-25 -3q-5 0 -27.5 -0.5t-55 -1t-71.5 -1.5t-75 -1.5t-66.5 -1t-45.5 -0.5q-29 0 -44.5 6.5t-15.5 30.5z" />
    <glyph glyph-name="grave" unicode="`" horiz-adv-x="236" 
d="M196 684q0 -24 -17 -33q-10 -2 -16 -2q-25 0 -47.5 15.5t-39 39t-26.5 51.5t-10 52q0 17 8.5 27.5t25.5 10.5q29 0 52 -15.5t38.5 -39.5t23.5 -52.5t8 -53.5z" />
    <glyph glyph-name="a" unicode="a" horiz-adv-x="435" 
d="M20 161q0 79 13 126t38.5 77t62 51t84.5 50q14 9 18.5 19.5t4.5 24.5q0 30 -32 30q-17 0 -24.5 -13t-15.5 -29t-20.5 -29t-38.5 -13q-25 0 -34.5 19.5t-9.5 50.5q0 30 18 50.5t44.5 33t56 17.5t52.5 5q17 0 42 -2.5t48.5 -10.5t40 -23t16.5 -40q0 -20 -6 -39.5
t-12.5 -38.5t-12.5 -38.5t-6 -40.5q0 -43 12.5 -83.5t27 -81t27 -81.5t12.5 -84q0 -38 -16 -59t-41.5 -30.5t-57 -11t-61.5 -1.5q-53 0 -95.5 8.5t-72.5 30.5t-46 60t-16 96zM220 382q-15 0 -23.5 -8t-13.5 -20t-6.5 -26t-1.5 -26q0 -9 0.5 -18t3 -15.5t7.5 -11t15 -4.5
q9 0 14.5 1.5t9.5 10.5t5.5 28t1.5 53q0 20 -1.5 28t-10.5 8z" />
    <glyph glyph-name="b" unicode="b" horiz-adv-x="445" 
d="M24 94q0 31 9 76t20.5 96.5t20.5 106.5t9 106q0 63 -10 110.5t-21.5 83t-21.5 59t-10 37.5q0 21 11 33.5t27 19.5t33.5 9.5t30.5 2.5q37 0 59.5 -11.5t22.5 -46.5q0 -21 -6 -39t-12.5 -36.5t-12.5 -39t-6 -44.5q0 -8 3 -20.5t16 -12.5q12 0 25 6.5t27 14.5t29 14.5
t32 6.5q24 0 43 -19t33.5 -51t24 -73.5t15.5 -87t8.5 -91.5t2.5 -87q0 -61 -8.5 -108t-32 -78.5t-65 -48t-107.5 -16.5q-31 0 -64.5 5.5t-61 20t-45.5 39.5t-18 63zM239 516q-11 0 -18 -8.5t-10.5 -21.5t-4.5 -29.5t-1 -31.5q0 -13 1 -25.5t4.5 -22.5t9.5 -16.5t16 -6.5
q13 0 22.5 9t14.5 21.5t7.5 26.5t2.5 24t-2 23.5t-6.5 26.5t-13.5 22t-22 9z" />
    <glyph glyph-name="c" unicode="c" horiz-adv-x="431" 
d="M20 261q0 35 4 75.5t14.5 81t27 78t42 66.5t59.5 46t79 17q50 0 77.5 -30t27.5 -80q0 -21 -6.5 -34.5t-15.5 -21.5t-20 -11t-20 -3q-20 0 -28 13.5t-12 30t-9 30.5t-19 14q-16 0 -26 -11.5t-15 -27t-7 -32.5t-2 -28q0 -40 22 -65t62 -25q16 0 28 6.5t22.5 14t20.5 14
t21 6.5q13 0 24.5 -14t20.5 -36.5t14 -51.5t5 -58q0 -33 -4.5 -78t-22.5 -85.5t-55 -68.5t-102 -28q-62 0 -102 26.5t-63 69t-32.5 95.5t-9.5 105z" />
    <glyph glyph-name="d" unicode="d" horiz-adv-x="455" 
d="M20 238q0 15 1.5 49t6.5 76.5t13.5 88t21.5 83t32 62t45 24.5q20 0 38 -9t38 -9q24 0 29 8.5t5 22.5q0 17 -5 34t-11 34t-11 34t-5 34q0 19 8.5 30.5t22 17.5t30 8t31.5 2q18 0 34.5 -2t29 -9.5t20.5 -21t8 -36.5q-17 -57 -34 -113t-17 -115q0 -72 13 -132.5t29 -112
t29 -95t13 -80.5q0 -48 -18 -77t-47.5 -44t-67 -20t-75.5 -5q-65 0 -105.5 20.5t-63 57t-30.5 86.5t-8 109zM207 506q-13 0 -21.5 -8.5t-13 -22t-6 -29t-1.5 -28.5q0 -27 5.5 -46t34.5 -19q21 0 28 16.5t7 45.5q0 13 -1 29t-4.5 30t-10 23t-17.5 9z" />
    <glyph glyph-name="e" unicode="e" horiz-adv-x="441" 
d="M20 277q0 54 10.5 115.5t36 114t69 87.5t110.5 35q26 0 49.5 -7.5t41 -22.5t28 -36t10.5 -48q0 -33 -15.5 -52t-40 -29t-54 -13t-56.5 -3h-46q-1 -7 -1.5 -11t-0.5 -7q0 -32 16.5 -44t44.5 -12q25 0 43.5 10t32.5 21.5t25 21.5t22 10q19 0 32 -15.5t21 -39.5t13 -53.5
t7 -56.5t2.5 -49t0.5 -32q0 -41 -15.5 -76.5t-42 -62t-61.5 -42t-75 -15.5q-62 0 -102.5 29.5t-63.5 75.5t-32 101t-9 106zM225 546q-11 0 -24 -2.5t-23.5 -8.5t-17.5 -16t-7 -24h115q8 0 9.5 6t1.5 11q0 10 -5 16.5t-13 10.5t-17.5 5.5t-18.5 1.5z" />
    <glyph glyph-name="f" unicode="f" horiz-adv-x="393" 
d="M42 106q0 43 11.5 84t25 81.5t25 81.5t11.5 85q0 37 -7.5 55t-18.5 25.5t-24.5 9t-24.5 4t-18.5 11.5t-7.5 32q0 17 6.5 27t16.5 15.5t23 7.5t27 2q5 0 5.5 12t0.5 53q0 78 39 109.5t104 31.5q32 0 61 -8t51.5 -24.5t35.5 -40.5t13 -55q0 -23 -12.5 -40t-41.5 -17
q-17 0 -26 5t-13.5 13t-6.5 16.5t-5 16.5t-8.5 13t-16.5 5q-9 0 -14.5 -5.5t-8.5 -13t-3.5 -16t-0.5 -14.5q0 -21 7 -29.5t17 -11t22 -2t22 -2.5t17 -13t7 -33q0 -18 -10 -32.5t-27 -16.5q-19 0 -30 -3.5t-16.5 -13.5t-7 -26.5t-1.5 -41.5q0 -24 17 -65.5t38 -89.5t38 -98.5
t17 -92.5q0 -41 -12 -67t-33.5 -40.5t-51.5 -19.5t-66 -5q-75 0 -110 34t-35 107z" />
    <glyph glyph-name="g" unicode="g" horiz-adv-x="488" 
d="M20 182q0 13 3 45t11 65.5t22 59.5t36 26q12 0 23.5 -7t24.5 -16t29.5 -16t39.5 -7q31 0 52.5 10.5t21.5 48.5q0 5 -2 7t-10 2q-23 0 -45.5 -6.5t-47.5 -6.5q-26 0 -49 7.5t-40 22.5t-27 36t-10 48q0 42 21 69t52.5 42.5t69 21.5t71.5 6q24 0 53 -2t53.5 -10t41 -25
t16.5 -48q0 -20 -5.5 -37.5t-12.5 -35t-12.5 -37t-5.5 -43.5q0 -38 11.5 -74t25.5 -71t25.5 -70.5t11.5 -72.5q0 -54 -21.5 -83.5t-55 -44t-75.5 -17.5t-84 -3q-110 0 -161 55t-51 161zM248 543q-8 0 -19.5 -1.5t-22 -5.5t-18 -11t-7.5 -18q0 -2 2 -10.5t14 -8.5
q12 -1 26 -1.5t25 -0.5q24 0 45.5 2t21.5 10q0 12 -7 21t-17 14t-22 7.5t-21 2.5z" />
    <glyph glyph-name="h" unicode="h" horiz-adv-x="538" 
d="M20 75q0 52 14.5 100t32.5 96t32.5 98.5t14.5 109.5q0 40 -11.5 77t-25 71.5t-24.5 67.5t-11 64q0 25 6.5 40t19 23t31.5 10.5t43 2.5q17 0 33.5 -4.5t29 -13.5t20 -22.5t7.5 -31.5q0 -17 -5 -31.5t-11 -28.5t-11 -29t-5 -32t4.5 -27.5t24.5 -10.5q16 0 31.5 4t31.5 9.5
t31.5 9.5t32.5 4q35 0 59 -17.5t24 -53.5q0 -17 -3.5 -34t-8 -34t-8 -34.5t-3.5 -35.5q0 -50 16 -94.5t35 -87t35 -85t16 -87.5q0 -52 -31.5 -74.5t-82.5 -22.5q-43 0 -66.5 12.5t-35 35t-13.5 53t-2 66.5q0 71 6.5 140t6.5 147q0 23 -6.5 43t-25.5 20q-15 0 -21 -18.5
t-6 -36.5q0 -47 3.5 -91t7.5 -82.5t7.5 -70t3.5 -52.5q0 -82 -29.5 -126.5t-96.5 -44.5q-51 0 -84 28.5t-33 80.5z" />
    <glyph glyph-name="i" unicode="i" horiz-adv-x="344" 
d="M80 751q0 18 6.5 35.5t17.5 31t27 22t36 8.5q41 0 69 -27.5t28 -67.5q0 -42 -26 -66t-68 -24q-38 0 -64 24t-26 64zM20 94q0 41 13 79.5t29 77t29 79.5t13 87q0 21 -6.5 40.5t-14.5 38t-14.5 37.5t-6.5 40t10.5 34t27 20.5t35 10t35.5 2.5q16 0 34 -2.5t32 -9t23.5 -19.5
t9.5 -34t-5.5 -41.5t-12.5 -41t-12.5 -41t-5.5 -42.5q0 -54 14 -95.5t31.5 -77t31.5 -68.5t14 -70q0 -33 -14 -57.5t-36.5 -41t-51.5 -25t-59 -8.5q-29 0 -55 8.5t-45.5 24.5t-31 40t-11.5 55z" />
    <glyph glyph-name="j" unicode="j" horiz-adv-x="446" 
d="M223 765q0 40 22.5 59t60.5 19q36 0 62 -18t26 -58t-21.5 -63t-59.5 -23q-40 0 -65 22t-25 62zM20 249q0 12 0.5 33.5t2.5 47.5t7 52t13.5 48t22 35.5t33.5 13.5q15 0 24.5 -8t18 -17t17.5 -17t24 -8q23 0 36.5 10t13.5 33q0 15 -4.5 28.5t-9.5 26t-9.5 25.5t-4.5 28
q0 21 10 34t26 19.5t34.5 9t35.5 2.5q12 0 25.5 -1.5t25.5 -6.5t19.5 -15t7.5 -26q0 -19 -6 -37.5t-12.5 -38.5t-12.5 -41t-6 -44q0 -42 11.5 -81.5t25.5 -78.5t25.5 -78.5t11.5 -82.5q0 -41 -17.5 -69t-46 -45.5t-63.5 -25.5t-69 -8q-65 0 -106 22.5t-64 61.5t-31.5 90.5
t-8.5 108.5z" />
    <glyph glyph-name="k" unicode="k" horiz-adv-x="529" 
d="M20 92q0 54 12.5 105.5t27 103.5t27 104t12.5 107q0 45 -8 83.5t-17.5 71t-17.5 59t-8 47.5q0 32 26.5 49t71.5 17q16 0 33.5 -2.5t32.5 -10t24.5 -21.5t9.5 -38t-5 -49t-11 -52t-11 -56t-5 -60q0 -11 0.5 -23t2 -23t5 -18t8.5 -7q11 0 18.5 12.5t14.5 31.5t16.5 41.5
t25 41.5t39 31.5t59.5 12.5q11 0 24 -2.5t24 -8t18.5 -14t7.5 -21.5q0 -24 -24 -43.5t-52.5 -38t-52.5 -39t-24 -46.5q33 -37 66.5 -76t59.5 -81t42.5 -89t16.5 -99q0 -55 -25.5 -88t-85.5 -33q-38 0 -61 14.5t-35 38t-15.5 53t-3.5 60.5q0 7 1.5 30.5t1.5 53.5q0 25 -2 51
t-7 47.5t-15 35t-25 13.5q-14 0 -16.5 -11t-2.5 -23q0 -37 6.5 -69.5t14.5 -63.5t14.5 -62t6.5 -64q0 -52 -32.5 -80.5t-84.5 -28.5q-61 0 -92 33t-31 93z" />
    <glyph glyph-name="l" unicode="l" horiz-adv-x="349" 
d="M20 103q0 56 14.5 110.5t31.5 108.5t31.5 109t14.5 112q0 46 -8.5 74.5t-19 50t-19 41t-8.5 47.5q0 11 5.5 25t20 26.5t38.5 21t61 8.5q29 0 49.5 -8t34 -20t20 -27t6.5 -28q0 -28 -10 -49.5t-22 -44t-22 -50t-10 -69.5q0 -70 16 -130.5t34.5 -113.5t34.5 -99.5t16 -89.5
q0 -77 -42.5 -109.5t-115.5 -32.5q-69 0 -110 30.5t-41 106.5z" />
    <glyph glyph-name="m" unicode="m" horiz-adv-x="699" 
d="M20 68q0 42 12.5 81t27 77.5t27 78t12.5 81.5q0 30 -11 56t-24 50t-24 47.5t-11 49.5q0 21 12.5 31.5t30.5 10.5q17 0 27 -5.5t17.5 -14.5t14 -19t15.5 -19q5 4 11 14t16 20.5t25.5 19t40.5 8.5q30 0 48.5 -7t30 -19.5t17.5 -31t11 -40.5q12 30 27.5 49.5t34 30
t41.5 14.5t50 4q24 0 45 -2t36.5 -9.5t25 -22t9.5 -39.5q0 -16 -5 -34t-11.5 -37t-11.5 -38t-5 -38q0 -45 15 -86t33.5 -81t33.5 -81t15 -85q0 -54 -31.5 -82.5t-83.5 -28.5q-26 0 -46.5 11t-35 29.5t-22 42t-7.5 49.5q0 40 3.5 78t8 76t8.5 78t4 84q0 6 -0.5 19.5
t-3.5 27.5t-9 24.5t-18 10.5q-23 0 -34.5 -19.5t-11.5 -49.5q0 -41 4.5 -84.5t10.5 -87t10.5 -86.5t4.5 -82q0 -20 -1.5 -41.5t-9 -39t-22 -29t-39.5 -11.5q-22 0 -37 10t-24.5 26t-13.5 36t-4 39q0 9 3 38.5t6.5 74.5t6.5 104t3 127q0 44 -17 59.5t-35 15.5
q-19 0 -24 -17.5t-5 -36.5q0 -51 6 -95t13 -85t13 -81.5t6 -84.5q0 -70 -25.5 -102.5t-85.5 -32.5q-24 0 -46.5 5t-40 17t-27.5 31.5t-10 48.5z" />
    <glyph glyph-name="n" unicode="n" horiz-adv-x="538" 
d="M20 65q0 43 15 83.5t33.5 80.5t33.5 80.5t15 84.5q0 30 -11 55t-23.5 47.5t-23.5 44t-11 42.5q0 22 19 34.5t37 12.5q20 0 37 -15.5t28 -32.5q28 32 66 46t76 14q25 0 47 -5.5t39 -16t27 -26t10 -34.5q0 -16 -3.5 -34.5t-7.5 -38.5t-7.5 -41.5t-3.5 -42.5q0 -46 16.5 -89
t36.5 -85t36.5 -83t16.5 -83q0 -26 -10 -44.5t-26.5 -30.5t-38.5 -17.5t-45 -5.5q-37 0 -61 11.5t-38.5 32t-20 48.5t-5.5 61q0 39 5 76t11.5 74.5t11.5 77t5 81.5q0 9 -1 24.5t-5 30.5t-12 26.5t-22 11.5q-11 0 -18.5 -8t-12 -21t-6.5 -28t-2 -28q0 -69 4.5 -116.5t9.5 -85
t9.5 -71.5t4.5 -78q0 -66 -28.5 -92.5t-91.5 -26.5q-50 0 -82.5 22t-32.5 78z" />
    <glyph glyph-name="o" unicode="o" horiz-adv-x="436" 
d="M20 241q0 31 3 73.5t11.5 87t23.5 88t38 77.5t55 55t76 21q43 0 73.5 -20.5t51.5 -53.5t33.5 -75.5t19.5 -85.5t9 -83.5t2 -70.5q0 -54 -8.5 -105.5t-32 -92.5t-64 -66t-104.5 -25q-55 0 -91 26t-57.5 66.5t-30 89.5t-8.5 94zM186 443q0 -30 10.5 -51t32.5 -21t30.5 17
t8.5 52q0 11 -0.5 28t-4.5 32.5t-13 26.5t-25 11q-15 0 -22.5 -11t-11.5 -26.5t-4.5 -31.5t-0.5 -26z" />
    <glyph glyph-name="p" unicode="p" horiz-adv-x="429" 
d="M20 56q0 39 11 76t23.5 74.5t23.5 76t11 79.5q0 39 -8.5 66t-19 48.5t-19 41.5t-8.5 47q0 29 22.5 45t53 23.5t62.5 8.5t51 1q33 0 69 -7t65.5 -23t49 -43.5t19.5 -67.5q0 -37 -16 -58t-40 -32t-52.5 -17t-52.5 -13t-40 -20t-16 -38q0 -36 14.5 -69t32 -65t32 -63.5
t14.5 -65.5q0 -32 -13 -51t-34 -29t-46.5 -13t-50.5 -3q-23 0 -47.5 3.5t-44.5 13t-33 27.5t-13 47zM269 524q0 14 -12.5 20.5t-23.5 6.5q-23 0 -30.5 -10.5t-7.5 -27.5q0 -8 0.5 -17t2 -17t5.5 -13.5t12 -5.5q10 0 20 5.5t17.5 14.5t12 20.5t4.5 23.5z" />
    <glyph glyph-name="q" unicode="q" horiz-adv-x="473" 
d="M131 79q0 53 16.5 98.5t39.5 92.5q13 26 27 55t14 58q0 25 -28 25q-19 0 -38.5 -4t-33.5 -4q-30 0 -50.5 12t-33 29t-18.5 37t-6 35q0 46 23 72.5t57.5 39.5t74.5 16t73 3q12 0 40 -2t56.5 -9t50.5 -20.5t22 -35.5q0 -27 -9.5 -51.5t-21 -49t-21 -49.5t-9.5 -53
q0 -34 7 -57t18 -40t23.5 -30t23.5 -27t18 -31t7 -41q0 -37 -14 -70.5t-38.5 -58.5t-57.5 -39.5t-72 -14.5q-27 0 -52 6t-44.5 19.5t-31.5 35.5t-12 53zM172 542q0 -12 7 -22.5t17.5 -17.5t23.5 -11t24 -4q9 0 15 6.5t9.5 15.5t5 19t1.5 17q0 9 -7.5 15t-17 9.5t-20 4.5
t-16.5 1q-15 0 -28.5 -7.5t-13.5 -25.5z" />
    <glyph glyph-name="r" unicode="r" horiz-adv-x="400" 
d="M20 74q0 36 13 72.5t29 74t29 76.5t13 80q0 43 -11 74.5t-24 55t-24 42t-11 37.5q0 16 8.5 26.5t22 16.5t29.5 8t30 2q35 0 50.5 -16t23.5 -52q0 -1 10 9t26.5 22t38 22.5t44.5 10.5q28 0 44 -16t23 -39t8.5 -48t1.5 -43q0 -15 -4 -31t-12.5 -29t-21.5 -21.5t-32 -8.5
t-35 7.5t-16 30.5v23.5t2 24.5q-18 0 -28.5 -9.5t-15.5 -24t-6.5 -31.5t-1.5 -32q0 -59 15 -102.5t33.5 -78t33.5 -63.5t15 -58t-11 -51t-30 -38t-45.5 -24t-56.5 -8q-27 0 -55 4t-50.5 16t-37 33.5t-14.5 55.5z" />
    <glyph glyph-name="s" unicode="s" horiz-adv-x="409" 
d="M20 212q0 10 1 37.5t6 57t15 52t28 22.5q10 0 17 -6.5t13 -14t12.5 -14t17.5 -6.5q28 0 28 30q0 19 -16 32t-34.5 28.5t-34.5 37.5t-16 59q0 28 14.5 49.5t36.5 35t49 20.5t52 7q28 0 52 -6t42 -19t28.5 -33.5t10.5 -49.5q0 -35 -11.5 -51t-40.5 -16q-25 0 -33.5 12
t-12 27t-9 27t-24.5 12q-14 0 -24.5 -4.5t-10.5 -19.5q0 -23 16 -38t39.5 -28t51 -29t51 -42t39.5 -65t16 -99q0 -42 -9.5 -87t-31 -81.5t-56 -60t-85.5 -23.5q-55 0 -91 21t-57.5 55.5t-30 79t-8.5 91.5z" />
    <glyph glyph-name="t" unicode="t" horiz-adv-x="362" 
d="M29 104q0 46 13 86.5t28.5 80.5t28.5 81.5t13 90.5q0 28 -7 42t-17 20.5t-22 8t-22 5.5t-17 13.5t-7 30.5q0 23 10.5 30t23.5 9.5t23.5 7.5t10.5 24q0 20 -9 37.5t-9 34.5q0 16 10 25t25 13.5t31.5 5.5t28.5 1q13 0 31 -1t34.5 -6t27.5 -14.5t11 -26.5q0 -8 -4.5 -16.5
t-9.5 -16.5t-9.5 -16t-4.5 -15q0 -27 11 -32.5t26 -5.5q9 0 18 -1t16.5 -5.5t12.5 -14t5 -25.5q0 -21 -7.5 -28.5t-18 -9.5t-23.5 -2t-23.5 -6t-18 -21.5t-7.5 -48.5q0 -45 17 -86t38 -81t38 -81.5t17 -86.5q0 -41 -14 -68t-36 -43t-49.5 -22t-55.5 -6q-84 0 -121 37.5
t-37 101.5z" />
    <glyph glyph-name="u" unicode="u" horiz-adv-x="451" 
d="M29 99q0 30 6.5 58t14.5 56t14.5 58t6.5 64q0 29 -8 59t-17.5 59t-17.5 55t-8 46q0 19 8 33.5t21 24t29.5 14t34.5 4.5q43 0 67.5 -23.5t24.5 -66.5q0 -21 -4 -39.5t-8.5 -37.5t-8 -39.5t-3.5 -45.5q0 -29 16 -45t35 -16q18 0 32.5 14.5t14.5 46.5q0 24 -5 46.5
t-11.5 44.5t-11.5 42.5t-5 39.5q0 44 28 61.5t66 17.5q41 0 66 -17.5t25 -54.5q0 -27 -7 -52.5t-16 -51t-16 -52.5t-7 -56q0 -30 6 -58.5t12.5 -57t12.5 -56.5t6 -57q0 -47 -18 -77t-48 -46.5t-68.5 -22.5t-78.5 -6q-29 0 -61 8t-58.5 24.5t-43.5 41.5t-17 60z" />
    <glyph glyph-name="v" unicode="v" horiz-adv-x="510" 
d="M20 539q0 23 9 39t24 25.5t34 14t38 4.5q54 0 87 -33t33 -86q0 -16 -3 -45.5t-3 -51.5q0 -6 1.5 -15.5t4.5 -18.5t8 -15.5t13 -6.5q9 0 17 15.5t8 41.5q0 57 -4 87.5t-4 35.5q0 24 9.5 41.5t25 28.5t36 16.5t41.5 5.5q38 0 66.5 -18t28.5 -61q0 -25 -11.5 -53.5
t-28 -60.5t-35 -68t-33.5 -76q-9 -24 -13.5 -56t-8.5 -67t-9.5 -70t-17.5 -65q-11 -29 -29.5 -47t-44.5 -18q-14 0 -25 6t-20.5 16t-16.5 21t-11 22q-14 31 -18 64t-5 66.5t-3 67t-11 65.5q-9 31 -30.5 63.5t-43.5 64.5t-38.5 62.5t-16.5 58.5z" />
    <glyph glyph-name="w" unicode="w" horiz-adv-x="551" 
d="M20 70q0 39 11.5 75t25.5 72t25.5 72.5t11.5 75.5q0 41 -11.5 73t-25.5 57.5t-25.5 44.5t-11.5 34q0 19 10 30t25.5 17t33.5 7.5t34 1.5q12 0 27 -2t28 -7t22 -14.5t9 -25.5q0 -12 -3.5 -23t-8 -21.5t-8 -22t-3.5 -23.5q0 -18 18 -18q13 0 19 11t8.5 27.5t4 35.5
t6.5 35.5t15.5 27.5t30.5 11q16 0 24 -10.5t11.5 -26.5t4 -34.5t3 -34.5t9 -26.5t20.5 -10.5q11 0 13 7.5t2 18.5q0 7 -4 15.5t-8.5 17.5t-8 19t-3.5 21q0 29 20 40t57 11q13 0 28 -1.5t27.5 -6.5t21 -13.5t8.5 -22.5q0 -27 -9.5 -51t-20.5 -48.5t-20.5 -50t-9.5 -53.5
q0 -41 12 -78.5t27 -75t27 -75.5t12 -78q0 -55 -34.5 -79.5t-87.5 -24.5q-39 0 -64 13t-39.5 35.5t-20.5 53t-6 65.5q0 31 3.5 59t8 55t8.5 53t4 54q0 1 -1 12.5t-4 24.5t-8 23.5t-13 10.5q-12 0 -21 -15.5t-9 -53.5q0 -33 3.5 -59.5t7 -52.5t7 -54t3.5 -65q0 -34 -6 -64
t-20.5 -52t-39 -35t-62.5 -13q-24 0 -46 6.5t-38.5 20t-26 33t-9.5 45.5z" />
    <glyph glyph-name="x" unicode="x" horiz-adv-x="515" 
d="M124 -35q-22 0 -41.5 5.5t-34 18t-23 32.5t-8.5 49q0 34 14 82.5t37 101.5t54 107.5t66 102.5q-23 19 -46.5 33t-42.5 26t-30.5 24.5t-11.5 27.5q0 16 9.5 24.5t22.5 12.5t27.5 4.5t23.5 0.5q26 0 55.5 -19.5t60.5 -51.5q32 32 61 51t55 19q9 0 23.5 -0.5t27.5 -4.5
t22.5 -12.5t9.5 -24.5q0 -15 -12 -27.5t-30.5 -24.5t-42 -26t-46.5 -33q34 -48 65.5 -102t54.5 -107.5t37 -101t14 -81.5q0 -29 -9.5 -49t-25.5 -32.5t-36 -18t-42 -5.5q-28 0 -50 5.5t-37 20t-23 38.5t-8 61q0 24 3 44t6.5 39.5t6.5 40.5t3 45q0 38 -7.5 68t-19.5 54
q-13 -24 -20 -54.5t-7 -68.5q0 -24 2 -43.5t4.5 -37.5t4.5 -36.5t2 -42.5q0 -74 -31 -104t-87 -30z" />
    <glyph glyph-name="y" unicode="y" horiz-adv-x="382" 
d="M39 99q0 48 13.5 83t30 64.5t30.5 56.5t14 60q0 51 -18 80.5t-40 49.5t-40 36.5t-18 42.5q0 15 7.5 25t19 16.5t25 9t24.5 2.5q30 0 47 -13t26 -32.5t11.5 -42t4.5 -42t4.5 -32.5t10.5 -13q11 0 16 13t8.5 32.5t7 42t13 42t27 32.5t47.5 13q9 0 20 -2t21 -6.5t17 -12
t7 -19.5q0 -20 -18 -38t-40 -42t-40 -58t-18 -85q0 -33 11 -63.5t24 -60t24 -59.5t11 -64q0 -35 -11.5 -62.5t-32 -47t-48 -30t-60.5 -10.5q-61 0 -99.5 36.5t-38.5 97.5z" />
    <glyph glyph-name="z" unicode="z" horiz-adv-x="375" 
d="M352 81q0 -32 -14.5 -54t-38 -36t-52 -20t-56.5 -6q-23 0 -52.5 2t-55.5 12.5t-44.5 32.5t-18.5 62q0 69 10 142.5t36 136.5q8 20 31 40t47 39.5t42.5 38t18.5 35.5q0 12 -6.5 15t-17.5 3q-18 0 -27 -10t-16 -22t-15.5 -22t-25.5 -10q-15 0 -26 14.5t-18.5 33.5t-11 38.5
t-3.5 30.5q0 19 18 29.5t44 16t54.5 7t48.5 1.5t48.5 -2t55 -9.5t45 -21.5t18.5 -39q0 -14 -12.5 -30.5t-29.5 -34t-35 -33t-29 -25.5q-8 -7 -19.5 -17t-22 -22.5t-18.5 -26t-8 -28.5q0 -11 7.5 -13.5t14.5 -2.5q12 0 19.5 8.5t14 19t14.5 19t22 8.5q12 0 19.5 -7.5
t11.5 -18.5t6 -23t3 -22q3 -23 7 -51t8 -58t6.5 -60.5t2.5 -59.5z" />
    <glyph glyph-name="braceleft" unicode="{" horiz-adv-x="418" 
d="M20 425q0 37 6 88t19 106t34 108.5t51 96t70.5 68.5t91.5 26q48 0 79.5 -32t31.5 -81q0 -35 -14 -55t-34.5 -36.5t-44.5 -35t-44.5 -49.5t-34.5 -80t-14 -126q0 -73 14 -121.5t35 -81.5t46 -55.5t46 -44t35 -46.5t14 -63q0 -52 -34.5 -80t-82.5 -28q-45 0 -82.5 29
t-67.5 75.5t-52.5 104.5t-37.5 116t-22.5 110t-7.5 87z" />
    <glyph glyph-name="bar" unicode="|" horiz-adv-x="197" 
d="M157 -19q0 -21 -18 -31.5t-40 -10.5q-23 0 -41 10.5t-18 31.5v820q0 22 19.5 31.5t40.5 9.5q23 0 40 -10.5t17 -30.5v-820z" />
    <glyph glyph-name="braceright" unicode="}" horiz-adv-x="418" 
d="M405 425q0 -35 -7.5 -87t-22.5 -110t-37.5 -116t-52.5 -104.5t-67.5 -75.5t-82.5 -29q-48 0 -82.5 28t-34.5 80q0 38 14 63t35 46.5t46 44t46 55.5t35 81.5t14 121.5q0 77 -14 126t-34.5 80t-44.5 49.5t-44.5 35t-34.5 37t-14 54.5q0 49 31.5 81t79.5 32q51 0 91.5 -26
t70.5 -68.5t51 -96t34 -108.5t19 -106t6 -88z" />
    <glyph glyph-name="asciitilde" unicode="~" horiz-adv-x="560" 
d="M20 220q0 69 8 118t23 85t37 61.5t51 46.5t64 41t76 46q19 12 24.5 25.5t5.5 32.5q0 39 -42 39q-21 0 -31 -17t-20.5 -38t-27 -38t-50.5 -17q-32 0 -45 25.5t-13 66.5q0 40 23.5 66.5t58 42.5t73.5 22.5t69 6.5q22 0 55 -3t63.5 -13.5t52 -30t21.5 -52.5q0 -27 -7.5 -52
t-16.5 -50.5t-16.5 -51t-7.5 -52.5q0 -56 16 -109.5t35.5 -106t35.5 -106t16 -110.5q0 -50 -21 -77t-54 -39.5t-74 -14.5t-81 -2q-70 0 -125.5 11.5t-94.5 40t-60 78t-21 125.5zM282 509q-19 0 -30.5 -10.5t-18 -26t-8.5 -33.5t-2 -34q0 -12 0.5 -23.5t3.5 -20.5t10 -14.5
t20 -5.5q11 0 19 2t12.5 13.5t6.5 36t2 69.5q0 26 -2 36.5t-13 10.5z" />
    <glyph glyph-name="uni00A0" unicode="&#xa0;" horiz-adv-x="200" 
 />
    <glyph glyph-name="exclamdown" unicode="&#xa1;" horiz-adv-x="469" 
d="M353 299q0 -23 -7 -43t-7 -42q0 -26 16 -43.5t35 -33.5t35 -34t16 -45t-20.5 -42t-50 -22.5t-61.5 -9.5t-55 -2q-19 0 -53.5 1.5t-68.5 9t-59 23.5t-25 45q0 26 17.5 45t38 36.5t38 37t17.5 45.5l-13 83q0 21 10.5 32.5t26.5 17.5t34.5 7t34.5 1q21 0 39 -1t32 -7.5
t22 -20t8 -38.5zM450 645q0 -40 -7 -84t-26.5 -81t-53 -61.5t-86.5 -24.5q-49 0 -78 5t-45 14.5t-23 24t-12.5 34t-13 43.5t-24.5 53q-11 19 -22 35t-19.5 32t-13.5 33.5t-5 40.5q0 40 16 65t42.5 38.5t59.5 18.5t67 5q62 0 108 -4.5t76 -23.5t45 -57.5t15 -105.5z" />
    <glyph glyph-name="cent" unicode="&#xa2;" horiz-adv-x="432" 
d="M20 446q0 46 7.5 101t26.5 105.5t51 90.5t81 57q2 32 9 41t25 9q16 0 24 -6.5t10 -33.5q46 -3 71.5 -32.5t25.5 -77.5q0 -21 -6.5 -34.5t-15.5 -21.5t-20 -11t-20 -3q-20 0 -28 13.5t-12 30t-9 30.5t-19 14q-16 0 -26 -11.5t-15 -27t-7 -32.5t-2 -28q0 -40 22 -65t62 -25
q16 0 28 6.5t22.5 14t20.5 14t21 6.5q13 0 24.5 -14t20.5 -36.5t14 -51.5t5 -58q0 -21 -1.5 -47t-6.5 -53.5t-15 -54t-27.5 -48.5t-44 -37t-63.5 -19q-1 -37 -8.5 -46.5t-25.5 -9.5q-9 0 -15.5 1.5t-11 7.5t-6.5 18t-3 32q-48 10 -79.5 39t-50 69.5t-26 88.5t-7.5 95z" />
    <glyph glyph-name="sterling" unicode="&#xa3;" horiz-adv-x="497" 
d="M19 582q0 17 1 26.5t6 14t16.5 5.5t32.5 1h6q-15 29 -29 58.5t-14 61.5q0 30 18 47.5t44.5 26.5t55 11.5t49.5 2.5q16 0 36.5 -1t39 -6.5t31 -18t12.5 -35.5q0 -20 -6 -38t-14 -35.5t-17 -35.5t-15 -37h138q23 0 31.5 -4t8.5 -11q0 -15 -1 -24t-6 -13.5t-15.5 -5.5
t-30.5 -1h-16.5t-30.5 -0.5t-40 -0.5h-46v-24q32 1 68 1h78q23 -2 31.5 -5t8.5 -10q0 -15 -1 -24t-6 -13.5t-15.5 -5.5t-30.5 -1q-8 0 -46 -0.5t-86 -0.5q1 -31 4 -50t8 -29.5t12 -14t17 -3.5q16 0 24.5 9.5t14.5 20.5t13.5 20.5t21.5 9.5q36 0 56 -22.5t29 -54t10.5 -64.5
t1.5 -54q0 -79 -10 -134.5t-38 -90t-78 -50t-130 -15.5q-42 0 -79 8.5t-64 28.5t-42.5 52t-15.5 80q0 46 12 89t27.5 85.5t30.5 86.5t20 91h-18q-35 0 -54 2.5t-19 10.5q0 17 1 26t6 13.5t16.5 5.5t32.5 1h37l-2 12t-3 12h-15q-35 0 -54 2.5t-19 10.5z" />
    <glyph glyph-name="currency" unicode="&#xa4;" horiz-adv-x="709" 
d="M669 272q0 -62 -21.5 -112.5t-59 -86t-88 -54.5t-108.5 -19q-75 0 -132 33.5t-96.5 87.5t-61.5 121t-26 133q-24 3 -39.5 7.5t-15.5 12.5v43q0 7 14 9.5t22 2.5h20q1 14 3 27.5t5 27.5h-33q-8 0 -19.5 2t-11.5 9v44q0 10 25.5 15t61.5 7q19 52 49.5 98.5t71 81.5t91.5 56
t111 21q37 0 74 -13t66 -37.5t47 -59.5t18 -79q0 -27 -9.5 -50.5t-27 -40.5t-41 -27t-50.5 -10q-10 0 -21.5 1.5t-21.5 6.5t-16.5 13.5t-6.5 23.5l16 61q0 25 -12 34.5t-38 9.5q-43 0 -66 -26.5t-34 -62.5q38 0 61.5 -2t36 -9t17 -19.5t4.5 -33.5q0 -14 -22 -14h-108v-16
v-19.5t2 -19.5h170q26 0 26 -14q0 -24 -6 -37t-24.5 -19t-52 -7.5t-87.5 -1.5q18 -34 47.5 -55.5t74.5 -21.5q33 0 50 19t29.5 42.5t27 42.5t43.5 19q23 0 37 -17t22 -40.5t10.5 -48t2.5 -39.5z" />
    <glyph glyph-name="yen" unicode="&#xa5;" 
d="M25 504q0 23 1 36t6.5 19.5t17.5 8t35 1.5h47q-16 22 -35.5 43.5t-36.5 44t-28.5 46.5t-11.5 53q0 38 25 53.5t60 15.5q12 0 28 -2t30.5 -8t25 -17t11.5 -29q1 -12 1 -37t4.5 -51t15 -45.5t31.5 -19.5q14 0 22.5 4.5t13 17t6 34t1.5 55.5q0 15 1.5 32.5t11 32t30 24
t58.5 9.5q16 0 32 -1.5t29 -7.5t21 -17.5t8 -31.5q0 -26 -12 -49.5t-29.5 -47.5t-37.5 -48.5t-36 -50.5h74q24 -2 33.5 -6.5t9.5 -14.5q0 -21 -1 -33t-6 -18.5t-17 -8t-33 -1.5h-31t-58 -1v-11q0 -5 0.5 -10.5t1.5 -10.5h101q24 -2 33.5 -6.5t9.5 -14.5q0 -21 -1 -33.5
t-6 -18.5t-17 -7.5t-33 -1.5h-21t-38 -1q18 -45 36 -99.5t18 -116.5q0 -98 -46.5 -144t-140.5 -46q-34 0 -65 10.5t-55 32.5t-38.5 56.5t-14.5 83.5q0 37 7 67.5t17.5 57t23.5 50t24 46.5h-35q-37 0 -57.5 3.5t-20.5 14.5q0 23 1 36t6.5 19t17.5 7.5t35 1.5h30.5t49.5 1
q1 6 1.5 12t0.5 13q0 2 -0.5 4t-0.5 4h-63q-37 0 -57.5 3t-20.5 14z" />
    <glyph glyph-name="brokenbar" unicode="&#xa6;" horiz-adv-x="197" 
d="M157 -19q0 -21 -18 -31.5t-40 -10.5q-23 0 -41 10.5t-18 31.5v290q0 22 19.5 31.5t40.5 9.5q23 0 40 -10.5t17 -30.5v-290zM157 511q0 -21 -18 -31.5t-40 -10.5q-23 0 -41 10.5t-18 31.5v290q0 22 19.5 31.5t40.5 9.5q23 0 40 -10.5t17 -30.5v-290z" />
    <glyph glyph-name="section" unicode="&#xa7;" horiz-adv-x="890" 
d="M20 101q0 54 16 104.5t35 101t35 101.5t16 105q0 39 -14 72.5t-31 64.5t-31 61.5t-14 63.5q0 28 16 41.5t39 13.5q22 0 35.5 -7.5t23 -18.5t17.5 -24t20 -25q6 5 14 18t20.5 27t33 24.5t52.5 10.5q39 0 63 -9t39 -25.5t23 -40t14 -52.5q15 39 35 64t44.5 39t54 19t64.5 5
q31 0 58 -3t47.5 -12.5t32.5 -28.5t12 -51q0 -21 -6.5 -44t-15 -47.5t-15 -49.5t-6.5 -49q0 -58 19.5 -111t43.5 -105t43.5 -105t19.5 -110q0 -69 -41 -106.5t-108 -37.5q-33 0 -60 14.5t-45.5 38t-28.5 54.5t-10 64q0 52 5 101t11 98.5t11 101t5 108.5q0 8 -0.5 25.5
t-4.5 35.5t-12.5 31.5t-23.5 13.5q-30 0 -44.5 -25t-14.5 -64q0 -53 6 -109.5t13.5 -113t13.5 -111.5t6 -106q0 -26 -2 -53.5t-11.5 -50.5t-28 -38t-51.5 -15q-29 0 -48.5 13t-31.5 34t-17.5 46.5t-5.5 50.5q0 12 4 50t8.5 96.5t8.5 134.5t4 164q0 29 -6 47.5t-16 29.5
t-21.5 15.5t-23.5 4.5t-19.5 -6.5t-11.5 -16t-5.5 -22t-1.5 -24.5q0 -66 7.5 -123t17 -110.5t17 -105.5t7.5 -109q0 -91 -33 -133t-110 -42q-32 0 -61 7t-51.5 22.5t-35.5 40.5t-13 62z" />
    <glyph glyph-name="dieresis" unicode="&#xa8;" horiz-adv-x="390" 
d="M214 715q0 13 4 30.5t12 33t20 26.5t28 11q17 0 28.5 -10t19 -25t11 -32t3.5 -30q0 -31 -19.5 -44.5t-47.5 -13.5q-29 0 -44 12t-15 42zM50 715q0 13 4 30.5t12 33t20 26.5t28 11q17 0 28.5 -10t19 -25t11 -32t3.5 -30q0 -31 -19.5 -44.5t-47.5 -13.5q-29 0 -44 12
t-15 42z" />
    <glyph glyph-name="copyright" unicode="&#xa9;" horiz-adv-x="727" 
d="M20 387q0 38 6 87t20.5 99.5t39.5 99t63.5 87t91.5 61.5t124 23q75 0 130 -26t92.5 -68.5t60.5 -96t36 -108t17 -105.5t4 -88q0 -65 -11 -131t-47 -119t-103.5 -86t-180.5 -33q-79 0 -135 18t-94 49t-60.5 71.5t-34.5 85.5t-15.5 91t-3.5 89zM164 384q0 -52 9.5 -105
t32.5 -95.5t63 -69t102 -26.5q65 0 102 28t55 68.5t22.5 85.5t4.5 78q0 29 -5 58t-14 51.5t-20.5 36.5t-24.5 14q-11 0 -21 -6.5t-20.5 -14t-22.5 -14t-28 -6.5q-40 0 -62 25t-22 65q0 11 2 28t7 32.5t15 27t26 11.5q14 0 19 -14t9 -30.5t12 -30t28 -13.5q9 0 20 3t20 11
t15.5 21.5t6.5 34.5q0 50 -27.5 80t-77.5 30q-45 0 -79 -17t-59.5 -46t-42 -66.5t-27 -78t-14.5 -81t-4 -75.5z" />
    <glyph glyph-name="ordfeminine" unicode="&#xaa;" horiz-adv-x="685" 
d="M20 90q0 56 19.5 108.5t43.5 104t43.5 104t19.5 109.5q0 39 -14 71.5t-31 62t-31 57t-14 55.5q0 14 7 25t18 19t23.5 12.5t24.5 4.5q26 0 48 -20t36 -43q36 42 86 60t98 18q32 0 61 -7.5t51 -21t35 -33t13 -44.5q0 -21 -4.5 -45t-10 -50t-10 -53.5t-4.5 -55.5
q0 -60 21.5 -116t47.5 -110t47.5 -107.5t21.5 -107.5q0 -33 -13 -57t-34.5 -39.5t-50 -23t-58.5 -7.5q-48 0 -79.5 15t-49.5 41.5t-25.5 62.5t-7.5 79q0 50 6.5 98.5t15 97.5t15 99.5t6.5 105.5q0 11 -1 31.5t-6.5 40.5t-16 34.5t-28.5 14.5q-14 0 -23.5 -10.5t-15.5 -27
t-8.5 -36t-2.5 -36.5q0 -90 5.5 -151t12.5 -110t12.5 -93.5t5.5 -101.5q0 -43 -9 -72.5t-28.5 -47.5t-49 -26t-69.5 -8q-33 0 -60 7t-47 22t-31 40t-11 61z" />
    <glyph glyph-name="guillemotleft" unicode="&#xab;" horiz-adv-x="519" 
d="M260 159q0 -21 -12 -35.5t-33 -14.5t-50.5 21.5t-56.5 52.5t-46 64t-19 56q0 21 19 53t47 62.5t58.5 52t53.5 21.5q21 0 30 -13t9 -26q0 -23 -12 -40.5t-27 -34t-27 -34.5t-12 -41t12 -41.5t27 -35t27 -32.5t12 -35zM482 153q0 -17 -10.5 -27.5t-22.5 -10.5
q-29 0 -61.5 17.5t-59.5 44.5t-45 59.5t-18 61.5q0 23 20 54.5t48 60t58.5 48.5t51.5 20q4 0 10.5 -2t13 -5t11 -7t4.5 -8q0 -25 -13 -45t-28.5 -38.5t-28.5 -38.5t-13 -45q0 -23 13 -39.5t28.5 -31.5t28.5 -31t13 -37z" />
    <glyph glyph-name="logicalnot" unicode="&#xac;" horiz-adv-x="277" 
d="M94 765q0 19 3 39t10.5 36.5t20.5 26.5t32 10q22 0 34.5 -15.5t18 -37.5t6.5 -44.5t1 -36.5q0 -17 -6 -29.5t-15 -20.5t-19.5 -12t-19.5 -4q-19 0 -32 7.5t-20.5 20t-10.5 28t-3 32.5zM94 47v244l-15 60v244q-23 -39 -30 -78.5t-7 -84.5q0 -3 1 -14t2.5 -25.5t2.5 -30
t1 -26.5v-16t-1.5 -28t-4.5 -26.5t-9 -11.5q-11 11 -12.5 27t-1.5 33q0 3 1 10t2.5 29.5t2.5 67t1 122.5q0 8 1.5 26.5t6.5 37t13.5 33t22.5 14.5h52q7 0 16 0.5t20 0.5q25 0 48 -5t27 -25q3 -6 5.5 -17t5 -23t3.5 -21.5t1 -12.5v-274l-7 -8q-6 6 -10 16t-6.5 22t-4 23.5
t-1.5 20.5q0 37 8 75t8 89q0 17 -3 32.5t-13 25.5q-3 -47 -9 -94.5t-12.5 -94.5t-11 -94.5t-4.5 -94.5q0 -6 2 -23t5 -36.5t5 -36.5t2 -22q6 -9 16 -19.5t19.5 -21t17 -19.5t7.5 -15q0 -17 -6 -19.5t-17 -2.5h-14q0 28 -18.5 54t-41.5 43v251h-51q5 -38 6 -73.5t1 -74.5
q0 -45 -1 -80.5t-6 -74.5q5 -11 18.5 -17t27.5 -11.5t24.5 -14t10.5 -24.5q0 -5 -1 -13.5t-6 -8.5q-6 0 -10.5 4.5t-8 11t-8 12.5t-10.5 9q-11 5 -30.5 14.5t-36.5 14.5z" />
    <glyph glyph-name="uni00AD" unicode="&#xad;" horiz-adv-x="442" 
d="M49 237q0 48 0.5 75t5 40t14 16t26.5 3q20 0 91.5 2.5t184.5 2.5q19 -4 26 -13.5t7 -29.5q0 -44 -0.5 -69.5t-5 -38.5t-13.5 -16t-25 -3q-7 0 -38 -1t-71 -2t-79.5 -2t-62.5 -1q-29 0 -44.5 6.5t-15.5 30.5z" />
    <glyph glyph-name="registered" unicode="&#xae;" horiz-adv-x="727" 
d="M317 632q0 17 7 21.5t17 4.5q17 0 26 -8.5t9 -31.5q0 -7 -2.5 -16t-7.5 -17t-11.5 -13.5t-14.5 -5.5q-5 0 -9 9t-7 20.5t-5 22.5t-2 14zM180 196q0 -45 26 -76t73 -31q56 0 78 31.5t22 86.5q0 27 -4.5 52.5t-9.5 51t-9.5 51t-4.5 52.5q0 11 4.5 24.5t17.5 13.5
q16 0 23 -13t7 -31q0 -37 -3.5 -76.5t-3.5 -71.5q0 -25 5 -54.5t17 -54.5t32 -42t50 -17q28 0 46 12.5t28.5 32t14.5 44t4 47.5q0 45 -11.5 89t-32 84.5t-48.5 77t-61 67.5q18 22 32 46.5t14 54.5q0 28 -14 45.5t-35.5 27.5t-47 13.5t-48.5 3.5q-14 0 -40.5 -1.5t-52.5 -8
t-45.5 -19.5t-19.5 -36q0 -14 8.5 -27t19 -31.5t19 -47t8.5 -71.5q0 -39 -9 -77t-20 -75t-20 -74t-9 -73zM20 387q0 38 6 87t20.5 99.5t39.5 99t63.5 87t91.5 61.5t124 23q75 0 130 -26t92.5 -68.5t60.5 -96t36 -108t17 -105.5t4 -88q0 -65 -11 -131t-47 -119t-103.5 -86
t-180.5 -33q-79 0 -135 18t-94 49t-60.5 71.5t-34.5 85.5t-15.5 91t-3.5 89z" />
    <glyph glyph-name="macron" unicode="&#xaf;" horiz-adv-x="381" 
d="M341 692q0 -12 -4 -16.5t-16 -4.5h-261q-11 0 -15.5 4.5t-4.5 16.5v47q0 19 20 19h261q11 0 15.5 -4t4.5 -15v-47z" />
    <glyph glyph-name="degree" unicode="&#xb0;" horiz-adv-x="269" 
d="M244 683q0 -60 -27 -98t-76 -38q-53 0 -84 39t-31 105q0 31 9 59t24.5 49.5t36.5 34t45 12.5t43.5 -14t32.5 -37t20 -52t7 -60zM187 740q0 26 -13.5 41t-32.5 15q-12 0 -21.5 -7t-15.5 -18.5t-9.5 -25.5t-3.5 -28q0 -26 12 -38t31 -12q24 0 38.5 22t14.5 51z" />
    <glyph glyph-name="plusminus" unicode="&#xb1;" horiz-adv-x="482" 
d="M462 182q0 -47 -8.5 -86t-28.5 -67t-54.5 -44t-86.5 -16q-75 0 -126 19t-81.5 54.5t-43.5 86.5t-13 116q0 48 10 91.5t28 84t43.5 79t56.5 77.5q-10 8 -21.5 20t-21 27t-16 32t-6.5 35q0 34 16.5 59t42 41.5t56.5 24t60 7.5q22 0 51.5 -8t56 -22.5t45 -34.5t18.5 -45
t-16.5 -42.5t-41.5 -17.5q-21 0 -30 11t-16 23.5t-18 23.5t-37 11q-19 0 -36 -12.5t-17 -34.5q0 -19 8 -28t19.5 -13.5t25.5 -6.5t25.5 -6t19.5 -13t8 -27q0 -23 -14.5 -28t-31.5 -7.5t-31.5 -10t-14.5 -33.5q0 -17 12 -32.5t31 -15.5q22 0 33.5 10t19.5 22.5t17.5 22.5
t26.5 10q20 0 28 -14.5t12 -31.5q16 -72 28 -145t13 -146z" />
    <glyph glyph-name="acute" unicode="&#xb4;" horiz-adv-x="236" 
d="M246 807q0 -24 -10 -52t-26.5 -51.5t-39 -39t-47.5 -15.5q-6 0 -16 2q-17 9 -17 33q0 25 8 53.5t23.5 52.5t38.5 39.5t52 15.5q17 0 25.5 -10.5t8.5 -27.5z" />
    <glyph glyph-name="mu" unicode="&#xb5;" horiz-adv-x="963" 
d="M20 461q0 96 36 180t98.5 146.5t146.5 99t180 36.5t180 -36.5t146.5 -99t99 -146.5t36.5 -180t-36.5 -180t-99 -146.5t-146.5 -98.5t-180 -36t-180 36t-146.5 98.5t-98.5 146.5t-36 180zM832 460q0 66 -23 125t-63.5 105t-95.5 76.5t-118 39.5v-294l251 -230q23 39 36 84
t13 94zM132 460q0 -51 13.5 -97.5t37.5 -86.5l242 236v293q-63 -10 -116.5 -41t-92.5 -77t-61.5 -104t-22.5 -123zM532 113q51 7 96.5 28.5t83.5 54.5l-180 182v-265zM253 194q36 -31 79.5 -51.5t92.5 -28.5v257z" />
    <glyph glyph-name="paragraph" unicode="&#xb6;" horiz-adv-x="572" 
d="M394 -81q-23 0 -48.5 2.5t-47 11t-35.5 25t-14 44.5v14.5t0.5 11t2 11t3.5 13.5q4 17 11 30t15.5 25.5t16.5 25.5t14 30q2 2 4 6.5t4 9.5t3 12q6 90 15 161.5t18 122.5t15.5 81t6.5 37l-1 2q-26 0 -42 -20t-25 -53t-13.5 -75.5t-8 -86.5t-8 -86.5t-14.5 -75.5t-26.5 -53
t-43.5 -20q-46 0 -78 21.5t-51.5 54.5t-28.5 73t-9 78q0 32 6.5 71.5t19.5 80.5t32 79.5t44.5 68.5t57 48.5t68.5 18.5q30 0 49.5 -1t35.5 -2t33 -2t43 -1q23 0 42 -2t33 -9t22 -21.5t8 -39.5q0 -33 -6 -66.5t-13 -67t-13 -66.5t-6 -66q0 -51 4.5 -94.5t17.5 -89.5
q6 -23 14.5 -44t16.5 -42t13.5 -42t5.5 -44q0 -28 -16.5 -46.5t-41.5 -30t-53 -17t-52 -6.5z" />
    <glyph glyph-name="periodcentered" unicode="&#xb7;" horiz-adv-x="308" 
d="M23 378q0 27 10 63t28.5 68.5t44.5 55t57 22.5q34 0 58 -21t38 -52t20.5 -65.5t6.5 -61.5q0 -35 -10 -57.5t-28.5 -35.5t-44 -18.5t-56.5 -5.5q-57 0 -90.5 23t-33.5 85z" />
    <glyph glyph-name="cedilla" unicode="&#xb8;" horiz-adv-x="369" 
d="M329 -135q0 -43 -37 -67.5t-108 -24.5q-68 0 -106 16.5t-38 38.5q0 11 6.5 19t17.5 8q7 0 16.5 -4.5t22.5 -9.5t30 -9.5t39 -4.5q26 0 40 9.5t14 25.5q0 34 -45 34q-13 0 -24 -1.5t-19 -1.5q-11 0 -15 6.5t-4 21.5q0 13 6 79h63q-3 -38 -3 -62q28 7 49 7q42 0 68.5 -23
t26.5 -57z" />
    <glyph glyph-name="uni00B9" unicode="&#xb9;" horiz-adv-x="1814" 
d="M781 -85q14 11 23 24.5t9 31.5q0 14 -6 30.5t-31 22.5q2 -12 4 -27.5t2 -39.5q0 -26 -12.5 -45t-31.5 -31t-42.5 -17.5t-45.5 -5.5q-15 0 -30 4.5t-27.5 13.5t-20 21.5t-7.5 28.5q0 17 7 27.5t16.5 16.5t19.5 8t16 2q11 0 16 -1q8 15 22 28.5t35 22.5v3q-2 8 -2.5 16
t-0.5 14q-11 -22 -28 -37t-42 -15t-41 26t-16 64q0 19 7 40.5t15.5 43.5t15.5 41.5t7 33.5q0 17 -3 23t-8 6q-8 0 -15 -5t-13 -11.5t-9.5 -12.5t-4.5 -9q0 -25 -12.5 -41.5t-31.5 -25.5q0 -92 -37 -136t-109 -44q-19 0 -37.5 4t-32.5 14t-23 25.5t-9 38.5q0 26 15 48t40 22
q17 0 24.5 -12t7.5 -25q0 -25 -13.5 -46.5t-38.5 -21.5q-5 0 -10.5 2t-10.5 4q4 -15 17 -25.5t26 -10.5q21 0 36.5 15t27 38.5t19.5 52.5t14 57q-31 13 -45 40q-12 -5 -18 -5q-71 0 -71 75q0 27 10.5 53.5t29 47.5t44 33.5t54.5 12.5q30 0 49 -5t32.5 -11t23.5 -11t22 -5
q5 0 10 0.5t10 1.5v-5q-34 -8 -65.5 -30t-51.5 -50q-3 24 -20 38.5t-43 14.5q-19 0 -36 -8.5t-30 -22.5t-21 -32t-8 -37q0 -53 58 -53q10 0 18 4q-7 14 -7 35q0 28 14.5 44.5t26.5 16.5q11 0 16.5 -7.5t5.5 -17.5q0 -21 -14.5 -41.5t-31.5 -31.5q6 -13 16.5 -21.5
t23.5 -13.5q8 34 20.5 68t38.5 65q4 5 14 14.5t22 19t25.5 17t26.5 9.5v-7q-18 -9 -29.5 -24.5t-18 -34t-9 -39.5t-2.5 -40q0 -22 3 -47q17 8 28.5 23t11.5 35q0 14 -4 27t-11 20v2q8 -5 12.5 -16t6.5 -22q6 12 21.5 26.5t40.5 14.5q15 0 26.5 -8t19 -21t11 -30.5t3.5 -35.5
q0 -12 -7 -31.5t-15.5 -41t-15.5 -44t-7 -40.5q0 -21 12 -21q13 0 23.5 14t19.5 37t16 52.5t13 59.5t11.5 58t10.5 49q8 -4 16 -7t17 -3q14 0 23.5 7t19.5 13q-5 -26 -13 -60t-15.5 -69.5t-12.5 -69t-3 -57.5l1 -17q20 -5 33 -21t13 -42q0 -20 -9 -35t-21 -25h-9zM1604 18
q-3 -15 -12.5 -27t-22 -20.5t-27.5 -12.5t-29 -4q-36 0 -67 12q-34 -34 -71.5 -54.5t-71.5 -20.5q-32 0 -53 27.5t-21 93.5q-2 -1 -7 -1q-18 0 -35.5 8.5t-31 25.5t-22 43t-8.5 61q0 20 14 46.5t36.5 50.5t51.5 41t59 17q20 0 35 -15.5t15 -51.5q0 -23 -12.5 -42.5t-31 -34
t-41 -23.5t-43.5 -11q-6 -34 -9 -58t-3 -25q0 -11 7.5 -16.5t18.5 -5.5q4 0 7 1v1q0 17 6 38t17.5 40t27 31.5t34.5 12.5q9 0 13 -8t4 -17q0 -16 -8.5 -34t-22 -33.5t-30 -26.5t-33.5 -13q0 -59 20.5 -84.5t51.5 -25.5q28 0 61 18.5t64 49.5q-35 17 -57.5 47.5t-22.5 74.5
q0 15 4.5 30t13 28t21 23t28.5 13v-4q-31 -9 -45.5 -36.5t-14.5 -57.5q0 -37 23 -65.5t58 -43.5q24 26 44.5 59t31.5 70l-114 35l50 20l-67 136l54 -16l-12 80l52 -59l31 45l31 -98l42 135l21 -35l79 46v-89h49l-104 -103l103 29l-17 -53l78 -8l-75 -36l40 -32l-143 -27
l9 -51l-88 71q-15 -35 -35.5 -66.5t-46.5 -57.5q25 -9 53 -9q38 0 59 13.5t33 38.5h4zM740 461q-8 4 -15.5 7.5t-17.5 3.5q-14 0 -22 -3t-17 -9q3 18 10 56.5t14 80t12.5 77.5t5.5 50q0 7 -2 12t-7 5q-12 0 -20.5 -16.5t-16.5 -36.5h-10q4 12 8.5 23.5t12 21t18 15.5t25.5 6
q28 0 41.5 -17t17.5 -40q6 8 13 18t15 19t18 15t23 6q16 0 27.5 -10t19.5 -26.5t12 -37t4 -41.5q0 -36 -8 -67t-17 -59t-17 -55t-8 -55q0 -27 7 -42t17.5 -23.5t23 -14t24 -13t20.5 -20t13 -36.5q18 31 31 40t28 9q19 0 33 -14t23.5 -34.5t14 -42t4.5 -36.5q0 -17 -4 -37
t-12 -40q8 -12 13.5 -26.5t5.5 -31.5q0 -20 -6.5 -40.5t-18.5 -37.5t-29.5 -28t-39.5 -11q-17 0 -28.5 9t-11.5 26q0 11 8.5 19.5t19.5 8.5q6 0 9 -1v-4q-9 0 -19 -6t-10 -17q0 -13 9 -20t20 -7q19 0 35.5 11.5t28.5 28.5t18.5 36.5t6.5 36.5q0 13 -4 24t-10 21
q-14 -31 -36 -55.5t-52 -24.5q-23 0 -31 16.5t-8 36.5q0 19 6 33t15 23.5t18.5 14.5t16.5 7q3 18 5.5 39t4.5 40.5t3.5 35t1.5 24.5q0 2 -3 6t-9 4q-5 0 -12 -4.5t-14 -14t-12 -24.5t-5 -36q0 -10 -4.5 -38.5t-11 -65t-14.5 -76.5t-15 -74.5t-12.5 -58t-6.5 -27.5
q-8 4 -15.5 7t-17.5 3q-14 0 -23.5 -7t-18.5 -13q2 12 8 44.5t14.5 75t17 90.5t16 89.5t12.5 72.5t5 40q0 22 -7.5 34.5t-18.5 22t-24 19.5t-24 27.5t-18.5 46t-7.5 74.5q0 27 7 54.5t16 56t16 57t7 55.5q0 22 -9 22q-11 0 -29 -21t-32 -56q-2 -14 -7.5 -46t-11.5 -65.5
t-12 -61t-7 -32.5zM207 323q5 0 12.5 2.5t14 7t11.5 11t5 15.5q0 4 -1 6q-12 -5 -24.5 -6.5t-24.5 -1.5q-9 0 -24 2t-28.5 7t-23.5 13t-10 21q0 9 5.5 14.5t14 9t17.5 5t15 1.5q10 0 23.5 -3.5t26 -10t23 -15.5t16.5 -19q19 8 32.5 22.5t13.5 35.5q0 22 -11 36
q-16 -10 -33.5 -15.5t-37.5 -5.5q-29 0 -54 10.5t-43.5 31t-29 49.5t-10.5 65q0 20 13 54q-17 12 -25 31t-8 42q0 22 7.5 45.5t21 42t32.5 30.5t41 12q6 0 16 -2v-6q-4 1 -12 1q-21 0 -38.5 -11t-31 -28.5t-21 -39t-7.5 -42.5q0 -20 7 -36.5t23 -27.5q16 36 42 76.5
t55.5 74.5t59 56.5t52.5 22.5q13 0 21 -6.5t12 -17t5.5 -22.5t1.5 -22q0 -28 -13 -55.5t-34.5 -50.5t-48 -41.5t-53.5 -28.5q0 -1 -0.5 -1.5t-0.5 -2.5q-5 -17 -9.5 -37t-9 -39.5t-7 -37.5t-2.5 -33q0 -16 6.5 -25.5t15 -14t15.5 -6t9 -1.5q33 0 63 22q-10 7 -21.5 9.5
t-22.5 2.5q-9 0 -21 -2.5t-14 -4.5v4q5 5 16 8t17 3q30 0 52 -14q24 20 38.5 51t14.5 63q0 19 -6.5 38t-28.5 19q-18 0 -32.5 -9t-24.5 -22.5t-15.5 -30.5t-5.5 -33q0 -9 4.5 -23t18.5 -14q10 0 17.5 7t12.5 17t7.5 21t2.5 20q0 3 -1 7t-2 9h8q2 -5 2 -9.5v-6.5
q0 -11 -3.5 -23.5t-10 -23.5t-15 -18.5t-18.5 -7.5q-19 0 -24.5 16.5t-5.5 31.5q0 16 6 33.5t16.5 32.5t25.5 24.5t34 9.5q27 0 42.5 -24t15.5 -56t-16.5 -61t-44.5 -49q16 -16 16 -43q0 -26 -16 -43t-39 -27q1 -2 1 -5q0 -20 -17 -32.5t-34 -12.5h-5zM1411 869q8 -4 16 -7
t17 -3q14 0 23.5 7t19.5 13q-2 -12 -8 -42.5t-13.5 -70t-16 -84t-15.5 -83t-11.5 -67.5t-4.5 -38q0 -7 2 -12t7 -5q9 0 18.5 10.5t17 25.5t13.5 31.5t9 27.5h11l-7 -24.5t-14.5 -36t-23 -33t-32.5 -14.5q-20 0 -38.5 14.5t-25.5 46.5q-11 -20 -19.5 -32.5t-16 -19.5
t-14.5 -9t-15 -2q-19 0 -32.5 13.5t-22.5 33.5t-13 42t-4 39q0 22 14 50.5t34 54t43.5 43t42.5 17.5t30 -24q5 25 10 49t9 43t6.5 31t3.5 15zM1205 530q-3 -12 -7.5 -23.5t-11 -21.5t-16.5 -16t-23 -6q-20 0 -37 14.5t-23 46.5q-21 -40 -35 -51t-30 -11q-19 0 -32.5 13.5
t-22.5 33.5t-13 42t-4 39q0 22 14 50.5t34 54t43.5 43t42.5 17.5q22 0 32 -29l7 26q8 -4 15.5 -7t17.5 -3q14 0 23.5 7t18.5 13q-3 -18 -11 -57t-16 -81.5t-14.5 -79.5t-6.5 -50q0 -17 8 -17q12 0 20.5 16.5t16.5 36.5h10zM1769 530q-3 -12 -7.5 -23.5t-11 -21.5t-16.5 -16
t-23 -6q-20 0 -37 14.5t-23 46.5q-21 -40 -35 -51t-30 -11q-19 0 -32.5 13.5t-22.5 33.5t-13 42t-4 39q0 22 14 50.5t34 54t43.5 43t42.5 17.5q22 0 32 -29l7 26q8 -4 15.5 -7t17.5 -3q14 0 23.5 7t18.5 13q-3 -18 -11 -57t-16 -81.5t-14.5 -79.5t-6.5 -50q0 -17 8 -17
q12 0 20.5 16.5t16.5 36.5h10zM635 530q-3 -12 -7 -23.5t-11 -21.5t-17 -16t-23 -6q-20 0 -37 14.5t-23 46.5q-20 -40 -34.5 -51t-30.5 -11q-19 0 -32.5 13.5t-22 33.5t-12.5 42t-4 39q0 22 14 50.5t34 54t43.5 43t42.5 17.5q21 0 31 -29l7 26q8 -4 16 -7t17 -3q14 0 23.5 7
t19.5 13q-3 -18 -11 -57t-16.5 -81.5t-15 -79.5t-6.5 -50q0 -17 9 -17q12 0 20.5 16.5t16.5 36.5h9zM158 214q-10 -14 -28 -27t-38 -13q-25 0 -44.5 13t-19.5 36q0 19 9.5 31t23.5 18.5t30.5 9t31.5 2.5q56 0 86 -28.5t30 -76.5q0 -21 -11.5 -41t-26.5 -36.5t-30 -29
t-22 -17.5l18 -4q24 -5 45 -12t40 -18.5t36.5 -27.5t35.5 -39h-2v-2q-6 2 -11 3t-10 1q-18 0 -25 -8.5t-7 -19.5q0 -15 10 -25.5t24 -17t29.5 -9.5t26.5 -3q17 0 33.5 7.5t25.5 18.5h-4q-8 0 -20.5 2.5t-24 8t-19.5 14.5t-8 22q0 15 9.5 21.5t23.5 6.5q23 0 42.5 -15.5
t19.5 -36.5q0 -4 -2 -10q13 3 27 9.5t25 17t18 24.5t7 33q0 11 -1 18.5t-5 19.5h4q2 -4 4.5 -15.5t2.5 -22.5q0 -38 -25.5 -63.5t-60.5 -31.5q-10 -18 -31.5 -26.5t-40.5 -8.5q-14 0 -31 3.5t-31.5 11t-24.5 19t-10 28.5q0 14 8.5 25t24.5 11h6.5t8.5 -2q-43 38 -84 55
t-98 17q-23 0 -48 -2.5t-60 -7.5q31 11 52.5 17t40.5 13q22 8 43 22.5t37 32.5t25.5 37.5t9.5 37.5q0 45 -29 67.5t-71 22.5q-13 0 -29 -1.5t-29.5 -7t-22.5 -15.5t-9 -27t17.5 -26t36.5 -9t35 11t31 24v-9zM724 -72q0 21 -10 46.5t-15 44.5q-17 -5 -30 -15.5t-21 -27.5
q20 -7 28.5 -21.5t8.5 -23.5q0 -7 -5.5 -16t-19.5 -9q-12 0 -20 12.5t-8 25.5v9t2 9q-5 1 -8.5 1h-7.5q-19 0 -30.5 -10.5t-11.5 -29.5q0 -14 6.5 -24.5t16.5 -18t23 -11t26 -3.5q12 0 25 4t24.5 12t19 19.5t7.5 26.5zM1056 680q-2 -11 -7 -37.5t-10.5 -57.5t-9.5 -59
t-4 -40q0 -3 1 -7t7 -4q14 0 27.5 21t24.5 69q2 23 8.5 57.5t13.5 66.5q0 33 -5 44.5t-13 11.5q-9 0 -15 -7.5t-9.5 -18t-5.5 -21.5t-3 -18zM1620 680q-2 -11 -7 -37.5t-10.5 -57.5t-9.5 -59t-4 -40q0 -3 1 -7t7 -4q14 0 27.5 21t24.5 69q2 23 8.5 57.5t13.5 66.5
q0 33 -5 44.5t-13 11.5q-9 0 -15 -7.5t-9.5 -18t-5.5 -21.5t-3 -18zM487 680q-2 -11 -7.5 -37.5t-10.5 -57.5t-9 -59t-4 -40q0 -3 1 -7t7 -4q13 0 26.5 21t24.5 69q2 23 8.5 57.5t14.5 66.5q0 33 -5.5 44.5t-12.5 11.5t-12.5 -8t-10 -18.5t-7 -21.5t-3.5 -17zM1324 680
q-2 -11 -7 -37.5t-10.5 -57.5t-9.5 -59t-4 -40q0 -3 1 -7t7 -4q13 0 22 11t17 36.5t16 68.5t19 108q-1 27 -6.5 36.5t-11.5 9.5q-9 0 -15 -7.5t-9.5 -18t-5.5 -21.5t-3 -18zM261 833q0 -2 -7 -19.5t-16.5 -42.5t-19 -51.5t-15.5 -45.5q25 11 47.5 31.5t39 46.5t26.5 56
t10 60q0 10 -3 17.5t-14 7.5t-21 -12t-27 -48zM1494 485q-7 -44 -36 -65t-60 -26q-1 -26 -27 -47t-62 -21q-13 0 -27 3t-26 10t-19.5 19t-7.5 30q0 19 16 37t37 19v-4q-16 -3 -29.5 -15.5t-13.5 -29.5q0 -16 6 -26t16.5 -15.5t23 -7.5t26.5 -2q13 0 26.5 2t25 7.5t19.5 15.5
t9 25q-3 -1 -7 -1q-23 0 -39 9t-16 25q0 8 8 14t15 6q16 0 28.5 -12.5t16.5 -28.5q31 4 59 26t36 53h2zM1281 294q-12 0 -23 -14.5t-20 -37.5t-16 -51t-12 -55q19 3 34.5 19t25.5 37t15.5 43t5.5 37q0 22 -10 22zM914 394q17 -20 40 -35t55 -15q12 0 23.5 3t19.5 10
q-15 3 -37 9.5t-42.5 19t-34.5 31t-14 44.5q0 8 1.5 17.5t8.5 16.5l4 -4q-5 -15 -5 -27q0 -24 13.5 -40.5t33 -28t42 -17.5t41.5 -7q3 7 3 17q0 23 -18.5 39t-43.5 16q-10 0 -20.5 -2.5t-19.5 -7.5l-4 1q8 8 19.5 11.5t22.5 3.5q13 0 25.5 -4.5t22.5 -12t16.5 -19t6.5 -24.5
q0 -11 -3 -18h4q16 0 33 4t32 13t25.5 22.5t14.5 33.5l10 -5q-3 -17 -14 -32t-27 -26.5t-36 -18.5t-41 -7h-11q-8 -8 -21 -12t-27 -4q-29 0 -57 13t-42 41zM1236 23q12 0 26.5 10t27.5 25t21.5 32.5t8.5 32.5q0 5 -1.5 9.5t-7.5 4.5q-15 0 -28.5 -11.5t-24 -28.5
t-16.5 -36.5t-6 -35.5v-2zM194 369q25 0 51 9q-11 20 -35 32.5t-44 12.5q-5 0 -11.5 -1t-13 -3t-11 -7t-4.5 -12q0 -10 7 -16t17.5 -9.5t22.5 -4.5t21 -1zM712 412q-5 -2 -10.5 -4t-11.5 -2q-10 0 -17.5 5t-7.5 14q0 12 13.5 18.5t24.5 6.5q17 0 30 -9t13 -26t-13.5 -23.5
t-24.5 -6.5l-59 7q-11 0 -24.5 -6t-13.5 -21q0 -10 9 -14t17 -4q12 0 25 5t25.5 11.5t24 11.5t20.5 5q26 0 43 -18t17 -46l-6 1v3q-5 29 -20.5 39t-26.5 10q-9 0 -18.5 -4.5t-21 -10t-26 -10t-34.5 -4.5q-18 0 -26 8t-8 17q0 18 16 25t28 7l58 -6q11 0 21.5 4.5t10.5 18.5
q0 15 -11.5 22.5t-25.5 7.5q-10 0 -19.5 -4.5t-9.5 -13.5q0 -13 16 -13q12 0 21 6zM958 58q0 -9 5 -21.5t19 -12.5q6 0 10.5 12t7 29t4 35.5t3.5 30.5q-11 -1 -20 -8t-15.5 -17.5t-10 -23t-3.5 -24.5zM409 -92q10 0 14.5 2.5t4.5 13.5q0 18 -16.5 30t-32.5 12q-11 0 -19 -6
t-8 -19q0 -9 6 -15.5t15 -10.5t18.5 -5.5t17.5 -1.5zM375 264q0 -19 5 -29q16 11 29 29t13 35q0 8 -3 14t-12 6q-10 0 -16 -6t-9.5 -14.5t-5 -18t-1.5 -16.5zM1390 406q-3 14 -12 23.5t-23 9.5q-6 0 -10.5 -2.5t-4.5 -10.5q0 -12 14.5 -16t31.5 -4h4zM673 -72q0 11 -9 18.5
t-20 12.5q-1 -3 -1 -6.5v-6.5q0 -10 3.5 -20t11.5 -10q9 0 12 4t3 8z" />
    <glyph glyph-name="ordmasculine" unicode="&#xba;" horiz-adv-x="465" 
d="M87 25q0 10 3.5 27t10.5 33t17.5 27.5t24.5 11.5q7 0 29 0.5t54 1.5t72.5 1.5t85.5 0.5q15 -3 20.5 -6.5t5.5 -17.5q0 -17 -6 -31.5t-13 -30.5q-10 -23 -22.5 -30.5t-31.5 -7.5q-6 0 -31 -0.5t-57 -1.5t-63.5 -1.5t-50.5 -0.5q-23 0 -35.5 4t-12.5 21zM207 646
q0 -30 10.5 -51t32.5 -21t30.5 17t8.5 52q0 11 -0.5 28t-4.5 32.5t-13 26.5t-25 11q-15 0 -22.5 -11t-11.5 -26.5t-4.5 -31.5t-0.5 -26zM41 444q0 31 3 73.5t11.5 87t23.5 88t38 77.5t55 55t76 21q43 0 73.5 -20.5t51.5 -53.5t33.5 -75.5t19.5 -85.5t9 -83.5t2 -70.5
q0 -54 -8.5 -105.5t-32 -92.5t-64 -66t-104.5 -25q-55 0 -91 26t-57.5 66.5t-30 89.5t-8.5 94z" />
    <glyph glyph-name="guillemotright" unicode="&#xbb;" horiz-adv-x="519" 
d="M259 298q0 -29 -18 -61.5t-45 -59.5t-59.5 -44.5t-61.5 -17.5q-12 0 -22.5 10.5t-10.5 27.5q0 21 13 37t28.5 31t28.5 31.5t13 39.5q0 25 -13 45t-28.5 38.5t-28.5 38.5t-13 45q0 4 4.5 8t11 7t13 5t10.5 2q21 0 51.5 -20t58.5 -48.5t48 -60t20 -54.5zM481 303
q0 -23 -19 -56t-46 -64t-56.5 -52.5t-50.5 -21.5t-33 14.5t-12 35.5q0 19 12 35t27 32.5t27 35t12 41.5t-12 41t-27 34.5t-27 34t-12 40.5q0 13 9 26t30 13q23 0 53.5 -21.5t58.5 -52t47 -62.5t19 -53z" />
    <glyph glyph-name="questiondown" unicode="&#xbf;" horiz-adv-x="492" 
d="M400 291q0 -20 -11.5 -35t-29 -28.5t-37.5 -25t-37.5 -24t-29 -26.5t-11.5 -31q0 -21 12 -32t31 -11q16 0 23.5 7t11 17t5 22t5.5 22t12.5 17t26.5 7q15 0 28.5 -7.5t24 -19.5t16.5 -26.5t6 -29.5q0 -38 -27.5 -59.5t-65.5 -32t-78 -12.5t-66 -2q-21 0 -54 1.5
t-63.5 10.5t-52.5 27t-22 51q0 21 10.5 38t26 32t34.5 28.5t36.5 27.5t31 30t18.5 35q0 11 -4.5 20.5t-4.5 23.5q0 58 114 58q60 0 90.5 -19.5t30.5 -53.5zM483 616q0 -110 -50 -167.5t-167 -57.5q-20 0 -45.5 5.5t-48 17.5t-38 30t-15.5 43q0 39 -14 71.5t-30.5 61
t-30 55.5t-13.5 55q0 39 18.5 60.5t49.5 32t71 13t83 2.5q121 0 175.5 -52t54.5 -170z" />
    <glyph glyph-name="Agrave" unicode="&#xc0;" horiz-adv-x="699" 
d="M397 892q0 -24 -17 -33q-10 -2 -16 -2q-25 0 -47.5 15.5t-39 39t-26.5 51.5t-10 52q0 17 8.5 27.5t25.5 10.5q29 0 52 -15.5t38.5 -39.5t23.5 -52.5t8 -53.5zM306 662q0 -7 1.5 -10.5t9.5 -3.5q5 0 9.5 2t18.5 2q11 0 18 -2t12 -2q11 0 12.5 10t1.5 17q0 18 -9 34.5
t-31 16.5q-14 0 -22 -7.5t-13 -17.5t-6.5 -21t-1.5 -18zM20 126q0 33 8.5 63t21 59t27 57t26.5 57q20 48 33 98t13 103q0 46 -7 75.5t-16 49t-16 34t-7 32.5q0 26 13 40.5t31.5 22t39 9.5t35.5 2h251q20 0 41 -1.5t38 -8t28 -20t11 -37.5q0 -26 -6.5 -45.5t-14.5 -41
t-14.5 -48.5t-6.5 -68q0 -59 20.5 -116t44.5 -112t44.5 -107.5t20.5 -102.5q0 -37 -12 -65.5t-33.5 -47.5t-51 -28.5t-64.5 -9.5q-46 0 -76.5 13.5t-48.5 39t-25.5 61.5t-7.5 81q0 31 6 66t13 71t13 72.5t6 71.5q0 12 -3 25t-9.5 24t-16.5 18t-24 7q-32 0 -42.5 -22
t-10.5 -54q0 -40 6 -80t13 -79.5t13 -77.5t6 -74q0 -86 -38 -126.5t-123 -40.5q-76 0 -112.5 44.5t-36.5 116.5z" />
    <glyph glyph-name="Aacute" unicode="&#xc1;" horiz-adv-x="699" 
d="M467 1015q0 -24 -10 -52t-26.5 -51.5t-39 -39t-47.5 -15.5q-6 0 -16 2q-17 9 -17 33q0 25 8 53.5t23.5 52.5t38.5 39.5t52 15.5q17 0 25.5 -10.5t8.5 -27.5zM306 662q0 -7 1.5 -10.5t9.5 -3.5q5 0 9.5 2t18.5 2q11 0 18 -2t12 -2q11 0 12.5 10t1.5 17q0 18 -9 34.5
t-31 16.5q-14 0 -22 -7.5t-13 -17.5t-6.5 -21t-1.5 -18zM20 126q0 33 8.5 63t21 59t27 57t26.5 57q20 48 33 98t13 103q0 46 -7 75.5t-16 49t-16 34t-7 32.5q0 26 13 40.5t31.5 22t39 9.5t35.5 2h251q20 0 41 -1.5t38 -8t28 -20t11 -37.5q0 -26 -6.5 -45.5t-14.5 -41
t-14.5 -48.5t-6.5 -68q0 -59 20.5 -116t44.5 -112t44.5 -107.5t20.5 -102.5q0 -37 -12 -65.5t-33.5 -47.5t-51 -28.5t-64.5 -9.5q-46 0 -76.5 13.5t-48.5 39t-25.5 61.5t-7.5 81q0 31 6 66t13 71t13 72.5t6 71.5q0 12 -3 25t-9.5 24t-16.5 18t-24 7q-32 0 -42.5 -22
t-10.5 -54q0 -40 6 -80t13 -79.5t13 -77.5t6 -74q0 -86 -38 -126.5t-123 -40.5q-76 0 -112.5 44.5t-36.5 116.5z" />
    <glyph glyph-name="Acircumflex" unicode="&#xc2;" horiz-adv-x="699" 
d="M508 888q0 -12 -9.5 -19.5t-18.5 -7.5q-19 0 -34 8t-29.5 17.5t-29.5 17t-34 7.5q-21 0 -37.5 -9t-31.5 -19.5t-30.5 -19t-34.5 -8.5q-12 0 -22.5 10.5t-10.5 22.5q0 25 18 45.5t44.5 35t55 22.5t49.5 8q23 0 50 -6.5t50.5 -20t39 -34.5t15.5 -50zM306 662
q0 -7 1.5 -10.5t9.5 -3.5q5 0 9.5 2t18.5 2q11 0 18 -2t12 -2q11 0 12.5 10t1.5 17q0 18 -9 34.5t-31 16.5q-14 0 -22 -7.5t-13 -17.5t-6.5 -21t-1.5 -18zM20 126q0 33 8.5 63t21 59t27 57t26.5 57q20 48 33 98t13 103q0 46 -7 75.5t-16 49t-16 34t-7 32.5q0 26 13 40.5
t31.5 22t39 9.5t35.5 2h251q20 0 41 -1.5t38 -8t28 -20t11 -37.5q0 -26 -6.5 -45.5t-14.5 -41t-14.5 -48.5t-6.5 -68q0 -59 20.5 -116t44.5 -112t44.5 -107.5t20.5 -102.5q0 -37 -12 -65.5t-33.5 -47.5t-51 -28.5t-64.5 -9.5q-46 0 -76.5 13.5t-48.5 39t-25.5 61.5t-7.5 81
q0 31 6 66t13 71t13 72.5t6 71.5q0 12 -3 25t-9.5 24t-16.5 18t-24 7q-32 0 -42.5 -22t-10.5 -54q0 -40 6 -80t13 -79.5t13 -77.5t6 -74q0 -86 -38 -126.5t-123 -40.5q-76 0 -112.5 44.5t-36.5 116.5z" />
    <glyph glyph-name="Atilde" unicode="&#xc3;" horiz-adv-x="699" 
d="M527 937q0 -23 -10.5 -37t-26 -22t-34.5 -10.5t-35 -2.5q-17 0 -31.5 4.5t-29 9.5t-28 9.5t-28.5 4.5t-27 -5t-23.5 -11.5t-23 -11.5t-26.5 -5q-12 0 -22.5 10.5t-10.5 22.5q0 21 9.5 37.5t24 28t32 17.5t34.5 6q15 0 29.5 -3.5t28.5 -7.5t27.5 -7.5t25.5 -3.5
q25 0 52.5 8t53.5 8q17 0 28 -11t11 -28zM306 662q0 -7 1.5 -10.5t9.5 -3.5q5 0 9.5 2t18.5 2q11 0 18 -2t12 -2q11 0 12.5 10t1.5 17q0 18 -9 34.5t-31 16.5q-14 0 -22 -7.5t-13 -17.5t-6.5 -21t-1.5 -18zM20 126q0 33 8.5 63t21 59t27 57t26.5 57q20 48 33 98t13 103
q0 46 -7 75.5t-16 49t-16 34t-7 32.5q0 26 13 40.5t31.5 22t39 9.5t35.5 2h251q20 0 41 -1.5t38 -8t28 -20t11 -37.5q0 -26 -6.5 -45.5t-14.5 -41t-14.5 -48.5t-6.5 -68q0 -59 20.5 -116t44.5 -112t44.5 -107.5t20.5 -102.5q0 -37 -12 -65.5t-33.5 -47.5t-51 -28.5
t-64.5 -9.5q-46 0 -76.5 13.5t-48.5 39t-25.5 61.5t-7.5 81q0 31 6 66t13 71t13 72.5t6 71.5q0 12 -3 25t-9.5 24t-16.5 18t-24 7q-32 0 -42.5 -22t-10.5 -54q0 -40 6 -80t13 -79.5t13 -77.5t6 -74q0 -86 -38 -126.5t-123 -40.5q-76 0 -112.5 44.5t-36.5 116.5z" />
    <glyph glyph-name="Adieresis" unicode="&#xc4;" horiz-adv-x="699" 
d="M368 923q0 13 4 30.5t12 33t20 26.5t28 11q17 0 28.5 -10t19 -25t11 -32t3.5 -30q0 -31 -19.5 -44.5t-47.5 -13.5q-29 0 -44 12t-15 42zM204 923q0 13 4 30.5t12 33t20 26.5t28 11q17 0 28.5 -10t19 -25t11 -32t3.5 -30q0 -31 -19.5 -44.5t-47.5 -13.5q-29 0 -44 12
t-15 42zM306 662q0 -7 1.5 -10.5t9.5 -3.5q5 0 9.5 2t18.5 2q11 0 18 -2t12 -2q11 0 12.5 10t1.5 17q0 18 -9 34.5t-31 16.5q-14 0 -22 -7.5t-13 -17.5t-6.5 -21t-1.5 -18zM20 126q0 33 8.5 63t21 59t27 57t26.5 57q20 48 33 98t13 103q0 46 -7 75.5t-16 49t-16 34t-7 32.5
q0 26 13 40.5t31.5 22t39 9.5t35.5 2h251q20 0 41 -1.5t38 -8t28 -20t11 -37.5q0 -26 -6.5 -45.5t-14.5 -41t-14.5 -48.5t-6.5 -68q0 -59 20.5 -116t44.5 -112t44.5 -107.5t20.5 -102.5q0 -37 -12 -65.5t-33.5 -47.5t-51 -28.5t-64.5 -9.5q-46 0 -76.5 13.5t-48.5 39
t-25.5 61.5t-7.5 81q0 31 6 66t13 71t13 72.5t6 71.5q0 12 -3 25t-9.5 24t-16.5 18t-24 7q-32 0 -42.5 -22t-10.5 -54q0 -40 6 -80t13 -79.5t13 -77.5t6 -74q0 -86 -38 -126.5t-123 -40.5q-76 0 -112.5 44.5t-36.5 116.5z" />
    <glyph glyph-name="Aring" unicode="&#xc5;" horiz-adv-x="699" 
d="M20 126q0 33 8.5 63t21 59t27 57t26.5 57q20 48 33 98t13 103q0 46 -7 75.5t-16 49t-16 34t-7 32.5q0 26 13 40.5t31.5 22t39 9.5t35.5 2h251q20 0 41 -1.5t38 -8t28 -20t11 -37.5q0 -26 -6.5 -45.5t-14.5 -41t-14.5 -48.5t-6.5 -68q0 -59 20.5 -116t44.5 -112
t44.5 -107.5t20.5 -102.5q0 -37 -12 -65.5t-33.5 -47.5t-51 -28.5t-64.5 -9.5q-46 0 -76.5 13.5t-48.5 39t-25.5 61.5t-7.5 81q0 31 6 66t13 71t13 72.5t6 71.5q0 12 -3 25t-9.5 24t-16.5 18t-24 7q-32 0 -42.5 -22t-10.5 -54q0 -40 6 -80t13 -79.5t13 -77.5t6 -74
q0 -86 -38 -126.5t-123 -40.5q-76 0 -112.5 44.5t-36.5 116.5zM306 662q0 -7 1.5 -10.5t9.5 -3.5q5 0 9.5 2t18.5 2q11 0 18 -2t12 -2q11 0 12.5 10t1.5 17q0 18 -9 34.5t-31 16.5q-14 0 -22 -7.5t-13 -17.5t-6.5 -21t-1.5 -18zM441 952q0 -42 -23.5 -68t-65.5 -26
q-46 0 -73 27t-27 73q0 21 7.5 40t21 34t32 23.5t39.5 8.5t37.5 -9.5t28 -25.5t17.5 -36t6 -41zM391 991q0 17 -11 28t-28 11q-21 0 -32.5 -17.5t-11.5 -37.5q0 -17 10.5 -25.5t27.5 -8.5q21 0 33 15t12 35z" />
    <glyph glyph-name="AE" unicode="&#xc6;" horiz-adv-x="849" 
d="M20 128q0 33 8.5 63t21 59t27 57t26.5 57q20 48 33 98t13 103q0 46 -7 75.5t-16 49t-16 34t-7 32.5q0 26 13 40.5t31.5 22t39 9.5t35.5 2h256q18 4 37 5t38 1q44 0 83.5 -2.5t69 -14.5t46.5 -38t17 -73q0 -17 -7.5 -30.5t-29.5 -13.5q-21 0 -33 10t-21 22t-19 22t-28 10
q-29 0 -29 -27q0 -16 7 -22t17 -8t22 -2.5t22 -5.5t17 -17t7 -37q0 -17 -7 -25t-16 -8q-12 0 -23.5 -1t-20.5 -5.5t-14.5 -14t-5.5 -25.5q0 -20 11.5 -31t30.5 -11q18 0 29 11t20 23.5t19.5 23.5t27.5 11q20 0 34 -15t23.5 -39.5t14.5 -55.5t8 -61.5t3.5 -58.5t0.5 -47
q0 -101 -12.5 -162t-41 -93.5t-73.5 -43t-111 -10.5q-57 0 -100 6t-72.5 26.5t-44 59t-14.5 103.5q0 31 6 66t13 71t13 72.5t6 71.5q0 12 -3 25t-9.5 24t-16.5 18t-24 7q-32 0 -42.5 -22t-10.5 -54q0 -40 6 -80t13 -79.5t13 -77.5t6 -74q0 -86 -38 -126.5t-123 -40.5
q-76 0 -112.5 44.5t-36.5 116.5zM306 664q0 -7 1.5 -10.5t9.5 -3.5q5 0 9.5 2t18.5 2q11 0 18 -2t12 -2q11 0 12.5 10t1.5 17q0 18 -9 34.5t-31 16.5q-14 0 -22 -7.5t-13 -17.5t-6.5 -21t-1.5 -18z" />
    <glyph glyph-name="Ccedilla" unicode="&#xc7;" horiz-adv-x="492" 
d="M390 -135q0 -43 -37 -67.5t-108 -24.5q-68 0 -106 16.5t-38 38.5q0 11 6.5 19t17.5 8q7 0 16.5 -4.5t22.5 -9.5t30 -9.5t39 -4.5q26 0 40 9.5t14 25.5q0 34 -45 34q-13 0 -24 -1.5t-19 -1.5q-11 0 -15 6.5t-4 21.5q0 5 1 19.5t3 38.5q-51 18 -83 58t-50 92t-24.5 109.5
t-6.5 111.5q0 41 5 92.5t17.5 104.5t32.5 104t50.5 90.5t72 63.5t96.5 24q28 0 53.5 -9t45 -26t31 -41t11.5 -54q0 -34 -20.5 -55.5t-54.5 -21.5q-19 0 -29 8t-14.5 20.5t-5.5 26.5t-3.5 26.5t-8 20.5t-18.5 8q-22 0 -34.5 -14.5t-19 -35.5t-8 -43t-1.5 -37q0 -22 4 -46
t14.5 -44.5t27.5 -33.5t44 -13q20 0 33 8t22.5 17.5l17.5 17.5t19 8q19 0 32.5 -21.5t22.5 -50t13 -57t4 -42.5q0 -32 -1.5 -72t-8 -82t-20 -82.5t-37 -72t-59 -51t-85.5 -19.5q-10 0 -15 1v-29q28 7 49 7q42 0 68.5 -23t26.5 -57z" />
    <glyph glyph-name="Egrave" unicode="&#xc8;" 
d="M301 892q0 -24 -17 -33q-10 -2 -16 -2q-25 0 -47.5 15.5t-39 39t-26.5 51.5t-10 52q0 17 8.5 27.5t25.5 10.5q29 0 52 -15.5t38.5 -39.5t23.5 -52.5t8 -53.5zM20 121q0 34 16 82.5t34.5 103.5t34.5 112.5t16 110.5q0 42 -10 73t-22 55t-22 45t-10 44q0 27 14 43.5
t36 25.5t49 12t54 3q44 0 83.5 -2.5t69 -14.5t46.5 -38t17 -73q0 -17 -7.5 -30.5t-29.5 -13.5q-21 0 -33 10t-21 22t-19 22t-28 10q-29 0 -29 -27q0 -16 7 -22t17 -8t22 -2.5t22 -5.5t17 -17t7 -37q0 -17 -7 -25t-16 -8q-12 0 -23.5 -1t-20.5 -5.5t-14.5 -14t-5.5 -25.5
q0 -20 11.5 -31t30.5 -11q18 0 29 11t20 23.5t19.5 23.5t27.5 11q20 0 34 -15t23.5 -39.5t14.5 -55.5t8 -61.5t3.5 -58.5t0.5 -47q0 -101 -12.5 -162t-41 -93.5t-73.5 -43t-111 -10.5q-38 0 -78.5 7t-73.5 24t-54.5 47t-21.5 77z" />
    <glyph glyph-name="Eacute" unicode="&#xc9;" 
d="M371 1015q0 -24 -10 -52t-26.5 -51.5t-39 -39t-47.5 -15.5q-6 0 -16 2q-17 9 -17 33q0 25 8 53.5t23.5 52.5t38.5 39.5t52 15.5q17 0 25.5 -10.5t8.5 -27.5zM20 121q0 34 16 82.5t34.5 103.5t34.5 112.5t16 110.5q0 42 -10 73t-22 55t-22 45t-10 44q0 27 14 43.5t36 25.5
t49 12t54 3q44 0 83.5 -2.5t69 -14.5t46.5 -38t17 -73q0 -17 -7.5 -30.5t-29.5 -13.5q-21 0 -33 10t-21 22t-19 22t-28 10q-29 0 -29 -27q0 -16 7 -22t17 -8t22 -2.5t22 -5.5t17 -17t7 -37q0 -17 -7 -25t-16 -8q-12 0 -23.5 -1t-20.5 -5.5t-14.5 -14t-5.5 -25.5
q0 -20 11.5 -31t30.5 -11q18 0 29 11t20 23.5t19.5 23.5t27.5 11q20 0 34 -15t23.5 -39.5t14.5 -55.5t8 -61.5t3.5 -58.5t0.5 -47q0 -101 -12.5 -162t-41 -93.5t-73.5 -43t-111 -10.5q-38 0 -78.5 7t-73.5 24t-54.5 47t-21.5 77z" />
    <glyph glyph-name="Ecircumflex" unicode="&#xca;" 
d="M414 888q0 -12 -9.5 -19.5t-18.5 -7.5q-19 0 -34 8t-29.5 17.5t-29.5 17t-34 7.5q-21 0 -37.5 -9t-31.5 -19.5t-30.5 -19t-34.5 -8.5q-12 0 -22.5 10.5t-10.5 22.5q0 25 18 45.5t44.5 35t55 22.5t49.5 8q23 0 50 -6.5t50.5 -20t39 -34.5t15.5 -50zM20 121q0 34 16 82.5
t34.5 103.5t34.5 112.5t16 110.5q0 42 -10 73t-22 55t-22 45t-10 44q0 27 14 43.5t36 25.5t49 12t54 3q44 0 83.5 -2.5t69 -14.5t46.5 -38t17 -73q0 -17 -7.5 -30.5t-29.5 -13.5q-21 0 -33 10t-21 22t-19 22t-28 10q-29 0 -29 -27q0 -16 7 -22t17 -8t22 -2.5t22 -5.5t17 -17
t7 -37q0 -17 -7 -25t-16 -8q-12 0 -23.5 -1t-20.5 -5.5t-14.5 -14t-5.5 -25.5q0 -20 11.5 -31t30.5 -11q18 0 29 11t20 23.5t19.5 23.5t27.5 11q20 0 34 -15t23.5 -39.5t14.5 -55.5t8 -61.5t3.5 -58.5t0.5 -47q0 -101 -12.5 -162t-41 -93.5t-73.5 -43t-111 -10.5
q-38 0 -78.5 7t-73.5 24t-54.5 47t-21.5 77z" />
    <glyph glyph-name="Edieresis" unicode="&#xcb;" 
d="M262 923q0 13 4 30.5t12 33t20 26.5t28 11q17 0 28.5 -10t19 -25t11 -32t3.5 -30q0 -31 -19.5 -44.5t-47.5 -13.5q-29 0 -44 12t-15 42zM98 923q0 13 4 30.5t12 33t20 26.5t28 11q17 0 28.5 -10t19 -25t11 -32t3.5 -30q0 -31 -19.5 -44.5t-47.5 -13.5q-29 0 -44 12
t-15 42zM20 121q0 34 16 82.5t34.5 103.5t34.5 112.5t16 110.5q0 42 -10 73t-22 55t-22 45t-10 44q0 27 14 43.5t36 25.5t49 12t54 3q44 0 83.5 -2.5t69 -14.5t46.5 -38t17 -73q0 -17 -7.5 -30.5t-29.5 -13.5q-21 0 -33 10t-21 22t-19 22t-28 10q-29 0 -29 -27q0 -16 7 -22
t17 -8t22 -2.5t22 -5.5t17 -17t7 -37q0 -17 -7 -25t-16 -8q-12 0 -23.5 -1t-20.5 -5.5t-14.5 -14t-5.5 -25.5q0 -20 11.5 -31t30.5 -11q18 0 29 11t20 23.5t19.5 23.5t27.5 11q20 0 34 -15t23.5 -39.5t14.5 -55.5t8 -61.5t3.5 -58.5t0.5 -47q0 -101 -12.5 -162t-41 -93.5
t-73.5 -43t-111 -10.5q-38 0 -78.5 7t-73.5 24t-54.5 47t-21.5 77z" />
    <glyph glyph-name="Igrave" unicode="&#xcc;" horiz-adv-x="385" 
d="M240 892q0 -24 -17 -33q-10 -2 -16 -2q-25 0 -47.5 15.5t-39 39t-26.5 51.5t-10 52q0 17 8.5 27.5t25.5 10.5q29 0 52 -15.5t38.5 -39.5t23.5 -52.5t8 -53.5zM20 135q0 52 15 101.5t33.5 98t33.5 97.5t15 101q0 30 -9.5 57t-20.5 53.5t-20.5 53t-9.5 55.5q0 30 15.5 47
t39 26t50 11t49.5 2q22 0 46 -2.5t44 -11t33 -25.5t13 -45q0 -26 -9 -50t-20.5 -49t-20.5 -51.5t-9 -56.5q0 -57 12 -108t26.5 -100t26.5 -98t12 -102q0 -82 -37.5 -128t-123.5 -46q-83 0 -133.5 42t-50.5 128z" />
    <glyph glyph-name="Iacute" unicode="&#xcd;" horiz-adv-x="385" 
d="M320 1015q0 -24 -10 -52t-26.5 -51.5t-39 -39t-47.5 -15.5q-6 0 -16 2q-17 9 -17 33q0 25 8 53.5t23.5 52.5t38.5 39.5t52 15.5q17 0 25.5 -10.5t8.5 -27.5zM20 135q0 52 15 101.5t33.5 98t33.5 97.5t15 101q0 30 -9.5 57t-20.5 53.5t-20.5 53t-9.5 55.5q0 30 15.5 47
t39 26t50 11t49.5 2q22 0 46 -2.5t44 -11t33 -25.5t13 -45q0 -26 -9 -50t-20.5 -49t-20.5 -51.5t-9 -56.5q0 -57 12 -108t26.5 -100t26.5 -98t12 -102q0 -82 -37.5 -128t-123.5 -46q-83 0 -133.5 42t-50.5 128z" />
    <glyph glyph-name="Icircumflex" unicode="&#xce;" horiz-adv-x="385" 
d="M356 888q0 -12 -9.5 -19.5t-18.5 -7.5q-19 0 -34 8t-29.5 17.5t-29.5 17t-34 7.5q-21 0 -37.5 -9t-31.5 -19.5t-30.5 -19t-34.5 -8.5q-12 0 -22.5 10.5t-10.5 22.5q0 25 18 45.5t44.5 35t55 22.5t49.5 8q23 0 50 -6.5t50.5 -20t39 -34.5t15.5 -50zM20 135q0 52 15 101.5
t33.5 98t33.5 97.5t15 101q0 30 -9.5 57t-20.5 53.5t-20.5 53t-9.5 55.5q0 30 15.5 47t39 26t50 11t49.5 2q22 0 46 -2.5t44 -11t33 -25.5t13 -45q0 -26 -9 -50t-20.5 -49t-20.5 -51.5t-9 -56.5q0 -57 12 -108t26.5 -100t26.5 -98t12 -102q0 -82 -37.5 -128t-123.5 -46
q-83 0 -133.5 42t-50.5 128z" />
    <glyph glyph-name="Idieresis" unicode="&#xcf;" horiz-adv-x="385" 
d="M212 923q0 13 4 30.5t12 33t20 26.5t28 11q17 0 28.5 -10t19 -25t11 -32t3.5 -30q0 -31 -19.5 -44.5t-47.5 -13.5q-29 0 -44 12t-15 42zM48 923q0 13 4 30.5t12 33t20 26.5t28 11q17 0 28.5 -10t19 -25t11 -32t3.5 -30q0 -31 -19.5 -44.5t-47.5 -13.5q-29 0 -44 12
t-15 42zM20 135q0 52 15 101.5t33.5 98t33.5 97.5t15 101q0 30 -9.5 57t-20.5 53.5t-20.5 53t-9.5 55.5q0 30 15.5 47t39 26t50 11t49.5 2q22 0 46 -2.5t44 -11t33 -25.5t13 -45q0 -26 -9 -50t-20.5 -49t-20.5 -51.5t-9 -56.5q0 -57 12 -108t26.5 -100t26.5 -98t12 -102
q0 -82 -37.5 -128t-123.5 -46q-83 0 -133.5 42t-50.5 128z" />
    <glyph glyph-name="Eth" unicode="&#xd0;" horiz-adv-x="533" 
d="M22 556q0 25 0.5 39.5t4 21.5t10.5 8.5t21 1.5h6q-14 29 -27 54t-13 63q0 30 18 46t43.5 24t54.5 9.5t52 1.5q93 0 155 -40t98.5 -105.5t52 -148.5t15.5 -169q0 -78 -13.5 -148.5t-48 -124.5t-93.5 -86t-149 -32q-34 0 -67.5 6t-60.5 21t-44 40.5t-17 65.5q0 25 12 63.5
t27 86.5t27 102t12 110q0 20 -1.5 37.5t-3.5 32.5h-25q-22 0 -34 3t-12 17zM238 630h33q15 -2 20.5 -7t5.5 -16q0 -24 -0.5 -37.5t-3.5 -20t-10 -8.5t-20 -2h-21l3 -46q1 -12 6 -19.5t17 -7.5q16 0 26.5 12.5t15.5 30.5t7 36.5t2 30.5q0 14 -3 34.5t-10.5 39t-20 32
t-31.5 13.5q-11 0 -14.5 -8t-3.5 -19z" />
    <glyph glyph-name="Ntilde" unicode="&#xd1;" horiz-adv-x="652" 
d="M504 937q0 -23 -10.5 -37t-26 -22t-34.5 -10.5t-35 -2.5q-17 0 -31.5 4.5t-29 9.5t-28 9.5t-28.5 4.5t-27 -5t-23.5 -11.5t-23 -11.5t-26.5 -5q-12 0 -22.5 10.5t-10.5 22.5q0 21 9.5 37.5t24 28t32 17.5t34.5 6q15 0 29.5 -3.5t28.5 -7.5t27.5 -7.5t25.5 -3.5
q25 0 52.5 8t53.5 8q17 0 28 -11t11 -28zM20 110q0 52 13.5 99t30 94t30 96t13.5 105q0 48 -10 81t-22.5 59t-22.5 50t-10 55q0 26 13 42.5t33.5 26t44.5 13t45 3.5q54 0 90 -33.5t59.5 -83.5t37.5 -109t24 -109t19 -83.5t22 -33.5q8 0 8 27q0 18 -3.5 44.5t-8.5 55
t-11.5 56t-12.5 47.5q-4 14 -10.5 30.5t-12.5 33.5t-10 34t-4 34q0 27 13 43.5t32.5 25.5t43 12t45.5 3q18 0 37.5 -1.5t36 -8t27 -20t10.5 -36.5q0 -30 -10 -57.5t-22.5 -54.5t-22.5 -55.5t-10 -61.5q0 -60 13.5 -115.5t30 -109t30 -106.5t13.5 -110q0 -61 -34.5 -93.5
t-91.5 -32.5q-51 0 -88 25.5t-53 76.5q-6 18 -12.5 58.5t-14 90t-16 102.5t-19.5 96.5t-24 71.5t-29 28q-10 0 -14 -12t-4 -26q0 -48 14 -93t31.5 -89t31.5 -88.5t14 -90.5q0 -72 -36 -113t-111 -41q-70 0 -113 37.5t-43 110.5z" />
    <glyph glyph-name="Ograve" unicode="&#xd2;" horiz-adv-x="528" 
d="M302 905q0 -24 -17 -33q-10 -2 -16 -2q-25 0 -47.5 15.5t-39 39t-26.5 51.5t-10 52q0 17 8.5 27.5t25.5 10.5q29 0 52 -15.5t38.5 -39.5t23.5 -52.5t8 -53.5zM206 610q0 -12 2 -30.5t8.5 -36.5t18 -30.5t31.5 -12.5q13 0 21.5 11t13 27t6.5 35t2 36q0 10 -2 28t-8 35.5
t-17 30t-29 12.5t-27.5 -13t-14 -30t-5 -34.5t-0.5 -27.5zM20 372q0 38 4 87.5t14.5 100.5t28.5 100t45.5 87t65.5 61.5t88 23.5q54 0 92.5 -26t65.5 -68.5t43.5 -96.5t25.5 -109t12 -106.5t3 -88.5q0 -66 -8 -132.5t-33.5 -119.5t-73.5 -86.5t-129 -33.5q-56 0 -96 18.5
t-67 49t-43 71.5t-24.5 86.5t-11 92t-2.5 89.5z" />
    <glyph glyph-name="Oacute" unicode="&#xd3;" horiz-adv-x="528" 
d="M386 1024q0 -24 -10 -52t-26.5 -51.5t-39 -39t-47.5 -15.5q-6 0 -16 2q-17 9 -17 33q0 25 8 53.5t23.5 52.5t38.5 39.5t52 15.5q17 0 25.5 -10.5t8.5 -27.5zM206 610q0 -12 2 -30.5t8.5 -36.5t18 -30.5t31.5 -12.5q13 0 21.5 11t13 27t6.5 35t2 36q0 10 -2 28t-8 35.5
t-17 30t-29 12.5t-27.5 -13t-14 -30t-5 -34.5t-0.5 -27.5zM20 372q0 38 4 87.5t14.5 100.5t28.5 100t45.5 87t65.5 61.5t88 23.5q54 0 92.5 -26t65.5 -68.5t43.5 -96.5t25.5 -109t12 -106.5t3 -88.5q0 -66 -8 -132.5t-33.5 -119.5t-73.5 -86.5t-129 -33.5q-56 0 -96 18.5
t-67 49t-43 71.5t-24.5 86.5t-11 92t-2.5 89.5z" />
    <glyph glyph-name="Ocircumflex" unicode="&#xd4;" horiz-adv-x="528" 
d="M415 888q0 -12 -9.5 -19.5t-18.5 -7.5q-19 0 -34 8t-29.5 17.5t-29.5 17t-34 7.5q-21 0 -37.5 -9t-31.5 -19.5t-30.5 -19t-34.5 -8.5q-12 0 -22.5 10.5t-10.5 22.5q0 25 18 45.5t44.5 35t55 22.5t49.5 8q23 0 50 -6.5t50.5 -20t39 -34.5t15.5 -50zM206 610q0 -12 2 -30.5
t8.5 -36.5t18 -30.5t31.5 -12.5q13 0 21.5 11t13 27t6.5 35t2 36q0 10 -2 28t-8 35.5t-17 30t-29 12.5t-27.5 -13t-14 -30t-5 -34.5t-0.5 -27.5zM20 372q0 38 4 87.5t14.5 100.5t28.5 100t45.5 87t65.5 61.5t88 23.5q54 0 92.5 -26t65.5 -68.5t43.5 -96.5t25.5 -109
t12 -106.5t3 -88.5q0 -66 -8 -132.5t-33.5 -119.5t-73.5 -86.5t-129 -33.5q-56 0 -96 18.5t-67 49t-43 71.5t-24.5 86.5t-11 92t-2.5 89.5z" />
    <glyph glyph-name="Otilde" unicode="&#xd5;" horiz-adv-x="528" 
d="M434 937q0 -23 -10.5 -37t-26 -22t-34.5 -10.5t-35 -2.5q-17 0 -31.5 4.5t-29 9.5t-28 9.5t-28.5 4.5t-27 -5t-23.5 -11.5t-23 -11.5t-26.5 -5q-12 0 -22.5 10.5t-10.5 22.5q0 21 9.5 37.5t24 28t32 17.5t34.5 6q15 0 29.5 -3.5t28.5 -7.5t27.5 -7.5t25.5 -3.5
q25 0 52.5 8t53.5 8q17 0 28 -11t11 -28zM206 610q0 -12 2 -30.5t8.5 -36.5t18 -30.5t31.5 -12.5q13 0 21.5 11t13 27t6.5 35t2 36q0 10 -2 28t-8 35.5t-17 30t-29 12.5t-27.5 -13t-14 -30t-5 -34.5t-0.5 -27.5zM20 372q0 38 4 87.5t14.5 100.5t28.5 100t45.5 87t65.5 61.5
t88 23.5q54 0 92.5 -26t65.5 -68.5t43.5 -96.5t25.5 -109t12 -106.5t3 -88.5q0 -66 -8 -132.5t-33.5 -119.5t-73.5 -86.5t-129 -33.5q-56 0 -96 18.5t-67 49t-43 71.5t-24.5 86.5t-11 92t-2.5 89.5z" />
    <glyph glyph-name="Odieresis" unicode="&#xd6;" horiz-adv-x="528" 
d="M283 923q0 13 4 30.5t12 33t20 26.5t28 11q17 0 28.5 -10t19 -25t11 -32t3.5 -30q0 -31 -19.5 -44.5t-47.5 -13.5q-29 0 -44 12t-15 42zM119 923q0 13 4 30.5t12 33t20 26.5t28 11q17 0 28.5 -10t19 -25t11 -32t3.5 -30q0 -31 -19.5 -44.5t-47.5 -13.5q-29 0 -44 12
t-15 42zM206 610q0 -12 2 -30.5t8.5 -36.5t18 -30.5t31.5 -12.5q13 0 21.5 11t13 27t6.5 35t2 36q0 10 -2 28t-8 35.5t-17 30t-29 12.5t-27.5 -13t-14 -30t-5 -34.5t-0.5 -27.5zM20 372q0 38 4 87.5t14.5 100.5t28.5 100t45.5 87t65.5 61.5t88 23.5q54 0 92.5 -26
t65.5 -68.5t43.5 -96.5t25.5 -109t12 -106.5t3 -88.5q0 -66 -8 -132.5t-33.5 -119.5t-73.5 -86.5t-129 -33.5q-56 0 -96 18.5t-67 49t-43 71.5t-24.5 86.5t-11 92t-2.5 89.5z" />
    <glyph glyph-name="multiply" unicode="&#xd7;" horiz-adv-x="391" 
d="M347 219q-20 -22 -44 -22q-15 0 -25 10l-79 80l-78 -78q-10 -10 -25 -10q-12 0 -24 6.5t-22 16t-16 21.5t-6 24q0 15 10 25l78 77l-78 79q-10 11 -10 26q0 12 6.5 24t16 21.5t21.5 15.5t24 6q15 0 25 -10l78 -79l80 80q10 10 24 10q12 0 24.5 -6.5t22.5 -16.5t16 -22
t6 -23q0 -15 -10 -25l-80 -80l79 -79q10 -10 10 -24q0 -12 -7 -24.5t-17 -22.5z" />
    <glyph glyph-name="Oslash" unicode="&#xd8;" horiz-adv-x="528" 
d="M20 384q0 38 4 87.5t14.5 100.5t28.5 100t45.5 87t65.5 61.5t88 23.5q26 0 48.5 -7t42.5 -19l5 14q6 18 15.5 21.5t29.5 3.5h7q21 0 30.5 -2.5t9.5 -12.5q0 -4 -1 -9t-3 -10l-26 -75q27 -43 43.5 -96.5t25.5 -108.5t12 -106t3 -88q0 -66 -8 -132.5t-33.5 -119.5
t-73.5 -86.5t-129 -33.5q-53 0 -93 17l-6 -19q-6 -19 -15 -22.5t-35 -3.5q-20 0 -30 2.5t-10 13.5q0 3 1 7.5t3 9.5l21 64q-27 31 -42.5 71.5t-24 85.5t-11 91.5t-2.5 89.5zM206 622q0 -12 2 -30.5t8.5 -36.5t18 -30.5t31.5 -12.5q13 0 21.5 11t13 27t6.5 35t2 36
q0 10 -2 28t-8 35.5t-17 30t-29 12.5t-27.5 -13t-14 -30t-5 -34.5t-0.5 -27.5z" />
    <glyph glyph-name="Ugrave" unicode="&#xd9;" horiz-adv-x="556" 
d="M326 892q0 -24 -17 -33q-10 -2 -16 -2q-25 0 -47.5 15.5t-39 39t-26.5 51.5t-10 52q0 17 8.5 27.5t25.5 10.5q29 0 52 -15.5t38.5 -39.5t23.5 -52.5t8 -53.5zM38 197q0 48 5 86.5t11.5 73t11.5 67t5 67.5q0 50 -8 88t-17.5 68t-17.5 54t-8 46q0 25 9 41t24.5 25
t35.5 12.5t42 3.5q54 0 86.5 -28t32.5 -85q0 -21 -4 -42t-9.5 -42t-9.5 -42.5t-4 -42.5q0 -10 1.5 -20.5t8 -19t19 -14t34.5 -5.5q12 0 23 2t19.5 8t14 18.5t5.5 33.5q0 24 -6 46.5t-12.5 44.5t-12.5 44t-6 45q0 15 5 32t18 32t35.5 25t57.5 10q36 0 58 -8.5t33 -21
t14.5 -26.5t3.5 -26q0 -20 -8.5 -43.5t-18.5 -54t-18.5 -70t-8.5 -91.5q0 -40 5.5 -78.5t12.5 -77t12.5 -77.5t5.5 -79q0 -54 -17 -94t-48 -65.5t-74 -38t-95 -12.5q-115 0 -180.5 55t-65.5 176z" />
    <glyph glyph-name="Uacute" unicode="&#xda;" horiz-adv-x="556" 
d="M396 1015q0 -24 -10 -52t-26.5 -51.5t-39 -39t-47.5 -15.5q-6 0 -16 2q-17 9 -17 33q0 25 8 53.5t23.5 52.5t38.5 39.5t52 15.5q17 0 25.5 -10.5t8.5 -27.5zM38 197q0 48 5 86.5t11.5 73t11.5 67t5 67.5q0 50 -8 88t-17.5 68t-17.5 54t-8 46q0 25 9 41t24.5 25t35.5 12.5
t42 3.5q54 0 86.5 -28t32.5 -85q0 -21 -4 -42t-9.5 -42t-9.5 -42.5t-4 -42.5q0 -10 1.5 -20.5t8 -19t19 -14t34.5 -5.5q12 0 23 2t19.5 8t14 18.5t5.5 33.5q0 24 -6 46.5t-12.5 44.5t-12.5 44t-6 45q0 15 5 32t18 32t35.5 25t57.5 10q36 0 58 -8.5t33 -21t14.5 -26.5
t3.5 -26q0 -20 -8.5 -43.5t-18.5 -54t-18.5 -70t-8.5 -91.5q0 -40 5.5 -78.5t12.5 -77t12.5 -77.5t5.5 -79q0 -54 -17 -94t-48 -65.5t-74 -38t-95 -12.5q-115 0 -180.5 55t-65.5 176z" />
    <glyph glyph-name="Ucircumflex" unicode="&#xdb;" horiz-adv-x="556" 
d="M439 888q0 -12 -9.5 -19.5t-18.5 -7.5q-19 0 -34 8t-29.5 17.5t-29.5 17t-34 7.5q-21 0 -37.5 -9t-31.5 -19.5t-30.5 -19t-34.5 -8.5q-12 0 -22.5 10.5t-10.5 22.5q0 25 18 45.5t44.5 35t55 22.5t49.5 8q23 0 50 -6.5t50.5 -20t39 -34.5t15.5 -50zM38 197q0 48 5 86.5
t11.5 73t11.5 67t5 67.5q0 50 -8 88t-17.5 68t-17.5 54t-8 46q0 25 9 41t24.5 25t35.5 12.5t42 3.5q54 0 86.5 -28t32.5 -85q0 -21 -4 -42t-9.5 -42t-9.5 -42.5t-4 -42.5q0 -10 1.5 -20.5t8 -19t19 -14t34.5 -5.5q12 0 23 2t19.5 8t14 18.5t5.5 33.5q0 24 -6 46.5
t-12.5 44.5t-12.5 44t-6 45q0 15 5 32t18 32t35.5 25t57.5 10q36 0 58 -8.5t33 -21t14.5 -26.5t3.5 -26q0 -20 -8.5 -43.5t-18.5 -54t-18.5 -70t-8.5 -91.5q0 -40 5.5 -78.5t12.5 -77t12.5 -77.5t5.5 -79q0 -54 -17 -94t-48 -65.5t-74 -38t-95 -12.5q-115 0 -180.5 55
t-65.5 176z" />
    <glyph glyph-name="Udieresis" unicode="&#xdc;" horiz-adv-x="556" 
d="M297 923q0 13 4 30.5t12 33t20 26.5t28 11q17 0 28.5 -10t19 -25t11 -32t3.5 -30q0 -31 -19.5 -44.5t-47.5 -13.5q-29 0 -44 12t-15 42zM133 923q0 13 4 30.5t12 33t20 26.5t28 11q17 0 28.5 -10t19 -25t11 -32t3.5 -30q0 -31 -19.5 -44.5t-47.5 -13.5q-29 0 -44 12
t-15 42zM38 197q0 48 5 86.5t11.5 73t11.5 67t5 67.5q0 50 -8 88t-17.5 68t-17.5 54t-8 46q0 25 9 41t24.5 25t35.5 12.5t42 3.5q54 0 86.5 -28t32.5 -85q0 -21 -4 -42t-9.5 -42t-9.5 -42.5t-4 -42.5q0 -10 1.5 -20.5t8 -19t19 -14t34.5 -5.5q12 0 23 2t19.5 8t14 18.5
t5.5 33.5q0 24 -6 46.5t-12.5 44.5t-12.5 44t-6 45q0 15 5 32t18 32t35.5 25t57.5 10q36 0 58 -8.5t33 -21t14.5 -26.5t3.5 -26q0 -20 -8.5 -43.5t-18.5 -54t-18.5 -70t-8.5 -91.5q0 -40 5.5 -78.5t12.5 -77t12.5 -77.5t5.5 -79q0 -54 -17 -94t-48 -65.5t-74 -38t-95 -12.5
q-115 0 -180.5 55t-65.5 176z" />
    <glyph glyph-name="Yacute" unicode="&#xdd;" 
d="M371 1015q0 -24 -10 -52t-26.5 -51.5t-39 -39t-47.5 -15.5q-6 0 -16 2q-17 9 -17 33q0 25 8 53.5t23.5 52.5t38.5 39.5t52 15.5q17 0 25.5 -10.5t8.5 -27.5zM105 824q12 0 28 -2t30.5 -8t25 -17t11.5 -29q1 -12 1 -37t4.5 -51t15 -45.5t31.5 -19.5q14 0 22.5 4.5t13 17
t6 34t1.5 55.5q0 15 1.5 32.5t11 32t30 24t58.5 9.5q16 0 32 -1.5t29 -7.5t21 -17.5t8 -31.5q0 -36 -22.5 -69t-49.5 -67.5t-49.5 -71.5t-22.5 -82q0 -24 13 -57.5t29 -74.5t29 -88.5t13 -99.5q0 -98 -46.5 -144t-140.5 -46q-34 0 -65 10.5t-55 32.5t-38.5 56.5t-14.5 83.5
q0 58 16 100t34.5 78t34.5 71.5t16 79.5q0 40 -23 73t-50.5 64.5t-50.5 64.5t-23 75q0 38 25 53.5t60 15.5z" />
    <glyph glyph-name="Thorn" unicode="&#xde;" horiz-adv-x="569" 
d="M20 139q0 52 15 101.5t33.5 98t33.5 97.5t15 101q0 30 -9.5 57t-20.5 53.5t-20.5 53t-9.5 55.5q0 30 15.5 47t39 26t50 11t49.5 2q22 0 46 -2.5t44 -11t33 -25.5t13 -45q0 -18 -5 -35.5t-12 -35t-15.5 -35t-14.5 -35.5h12q33 0 75 -3t79 -16.5t62.5 -41.5t25.5 -78
q0 -42 -15 -70.5t-38 -49.5t-50.5 -37.5t-51.5 -32.5t-41.5 -35.5t-20.5 -47.5q5 -19 8.5 -40t3.5 -44q0 -29 -7 -56t-23.5 -48.5t-44.5 -34.5t-70 -13q-83 0 -133.5 42t-50.5 128zM294 485q0 -6 0.5 -22.5t2 -33.5t4.5 -30t7 -13q6 0 16 7.5t20 19.5t17.5 26.5t7.5 27.5
q0 17 -5.5 33t-25.5 16q-6 0 -13.5 -2t-14 -5.5t-11.5 -9.5t-5 -14z" />
    <glyph glyph-name="germandbls" unicode="&#xdf;" horiz-adv-x="872" 
d="M833 185q0 -50 -22.5 -87.5t-59 -62.5t-82 -37.5t-91.5 -12.5q-40 0 -82 10t-77 31t-57.5 55t-22.5 82q0 25 9.5 45.5t26 35t37.5 22.5t44 8q42 0 57 -20.5t15 -62.5q8 -9 17 -16t22 -7q25 0 34.5 18t9.5 43q0 28 -19 44.5t-47 29t-61.5 24.5t-61.5 30.5t-47 47t-19 74.5
q0 21 14.5 34.5t32 30t32 41t14.5 67.5q0 14 -20 24t-58 10q-40 0 -62 -16.5t-32.5 -41.5t-12.5 -55t-2 -57q0 -79 5.5 -139.5t13.5 -108t17.5 -84.5t17.5 -69.5t13.5 -63.5t5.5 -66q0 -29 -12 -56t-32.5 -47t-48 -32t-58.5 -12q-36 0 -61 11t-41 30.5t-23 47t-7 59.5
q0 57 10 102.5t22.5 87.5t22.5 84t10 93q0 13 -2 22t-10 14q-11 -3 -19 -3q-15 0 -24.5 8t-14.5 20t-7 26t-2 27q0 35 9.5 47.5t21.5 15.5t22.5 2t12.5 7v38q0 55 9.5 99t38 75.5t81 48.5t138.5 17q43 0 84 -7.5t73 -24.5t51.5 -43.5t19.5 -63.5q0 -54 -10.5 -86
t-22.5 -51.5t-22.5 -31t-10.5 -24.5q0 -28 22 -41.5t55.5 -24t72.5 -22.5t72.5 -36t55.5 -65.5t22 -110.5z" />
    <glyph glyph-name="agrave" unicode="&#xe0;" horiz-adv-x="446" 
d="M281 684q0 -24 -17 -33q-10 -2 -16 -2q-25 0 -47.5 15.5t-39 39t-26.5 51.5t-10 52q0 17 8.5 27.5t25.5 10.5q29 0 52 -15.5t38.5 -39.5t23.5 -52.5t8 -53.5zM220 382q-15 0 -23.5 -8t-13.5 -20t-6.5 -26t-1.5 -26q0 -9 0.5 -18t3 -15.5t7.5 -11t15 -4.5q9 0 14.5 1.5
t9.5 10.5t5.5 28t1.5 53q0 20 -1.5 28t-10.5 8zM20 161q0 79 13 126t38.5 77t62 51t84.5 50q14 9 18.5 19.5t4.5 24.5q0 30 -32 30q-17 0 -24.5 -13t-15.5 -29t-20.5 -29t-38.5 -13q-25 0 -34.5 19.5t-9.5 50.5q0 30 18 50.5t44.5 33t56 17.5t52.5 5q17 0 42 -2.5
t48.5 -10.5t40 -23t16.5 -40q0 -20 -6 -39.5t-12.5 -38.5t-12.5 -38.5t-6 -40.5q0 -43 12.5 -83.5t27 -81t27 -81.5t12.5 -84q0 -38 -16 -59t-41.5 -30.5t-57 -11t-61.5 -1.5q-53 0 -95.5 8.5t-72.5 30.5t-46 60t-16 96z" />
    <glyph glyph-name="aacute" unicode="&#xe1;" horiz-adv-x="446" 
d="M331 807q0 -24 -10 -52t-26.5 -51.5t-39 -39t-47.5 -15.5q-6 0 -16 2q-17 9 -17 33q0 25 8 53.5t23.5 52.5t38.5 39.5t52 15.5q17 0 25.5 -10.5t8.5 -27.5zM220 382q-15 0 -23.5 -8t-13.5 -20t-6.5 -26t-1.5 -26q0 -9 0.5 -18t3 -15.5t7.5 -11t15 -4.5q9 0 14.5 1.5
t9.5 10.5t5.5 28t1.5 53q0 20 -1.5 28t-10.5 8zM20 161q0 79 13 126t38.5 77t62 51t84.5 50q14 9 18.5 19.5t4.5 24.5q0 30 -32 30q-17 0 -24.5 -13t-15.5 -29t-20.5 -29t-38.5 -13q-25 0 -34.5 19.5t-9.5 50.5q0 30 18 50.5t44.5 33t56 17.5t52.5 5q17 0 42 -2.5
t48.5 -10.5t40 -23t16.5 -40q0 -20 -6 -39.5t-12.5 -38.5t-12.5 -38.5t-6 -40.5q0 -43 12.5 -83.5t27 -81t27 -81.5t12.5 -84q0 -38 -16 -59t-41.5 -30.5t-57 -11t-61.5 -1.5q-53 0 -95.5 8.5t-72.5 30.5t-46 60t-16 96z" />
    <glyph glyph-name="acircumflex" unicode="&#xe2;" horiz-adv-x="446" 
d="M384 680q0 -12 -9.5 -19.5t-18.5 -7.5q-19 0 -34 8t-29.5 17.5t-29.5 17t-34 7.5q-21 0 -37.5 -9t-31.5 -19.5t-30.5 -19t-34.5 -8.5q-12 0 -22.5 10.5t-10.5 22.5q0 25 18 45.5t44.5 35t55 22.5t49.5 8q23 0 50 -6.5t50.5 -20t39 -34.5t15.5 -50zM220 382
q-15 0 -23.5 -8t-13.5 -20t-6.5 -26t-1.5 -26q0 -9 0.5 -18t3 -15.5t7.5 -11t15 -4.5q9 0 14.5 1.5t9.5 10.5t5.5 28t1.5 53q0 20 -1.5 28t-10.5 8zM20 161q0 79 13 126t38.5 77t62 51t84.5 50q14 9 18.5 19.5t4.5 24.5q0 30 -32 30q-17 0 -24.5 -13t-15.5 -29t-20.5 -29
t-38.5 -13q-25 0 -34.5 19.5t-9.5 50.5q0 30 18 50.5t44.5 33t56 17.5t52.5 5q17 0 42 -2.5t48.5 -10.5t40 -23t16.5 -40q0 -20 -6 -39.5t-12.5 -38.5t-12.5 -38.5t-6 -40.5q0 -43 12.5 -83.5t27 -81t27 -81.5t12.5 -84q0 -38 -16 -59t-41.5 -30.5t-57 -11t-61.5 -1.5
q-53 0 -95.5 8.5t-72.5 30.5t-46 60t-16 96z" />
    <glyph glyph-name="atilde" unicode="&#xe3;" horiz-adv-x="446" 
d="M405 729q0 -23 -10.5 -37t-26 -22t-34.5 -10.5t-35 -2.5q-17 0 -31.5 4.5t-29 9.5t-28 9.5t-28.5 4.5t-27 -5t-23.5 -11.5t-23 -11.5t-26.5 -5q-12 0 -22.5 10.5t-10.5 22.5q0 21 9.5 37.5t24 28t32 17.5t34.5 6q15 0 29.5 -3.5t28.5 -7.5t27.5 -7.5t25.5 -3.5
q25 0 52.5 8t53.5 8q17 0 28 -11t11 -28zM220 382q-15 0 -23.5 -8t-13.5 -20t-6.5 -26t-1.5 -26q0 -9 0.5 -18t3 -15.5t7.5 -11t15 -4.5q9 0 14.5 1.5t9.5 10.5t5.5 28t1.5 53q0 20 -1.5 28t-10.5 8zM20 161q0 79 13 126t38.5 77t62 51t84.5 50q14 9 18.5 19.5t4.5 24.5
q0 30 -32 30q-17 0 -24.5 -13t-15.5 -29t-20.5 -29t-38.5 -13q-25 0 -34.5 19.5t-9.5 50.5q0 30 18 50.5t44.5 33t56 17.5t52.5 5q17 0 42 -2.5t48.5 -10.5t40 -23t16.5 -40q0 -20 -6 -39.5t-12.5 -38.5t-12.5 -38.5t-6 -40.5q0 -43 12.5 -83.5t27 -81t27 -81.5t12.5 -84
q0 -38 -16 -59t-41.5 -30.5t-57 -11t-61.5 -1.5q-53 0 -95.5 8.5t-72.5 30.5t-46 60t-16 96z" />
    <glyph glyph-name="adieresis" unicode="&#xe4;" horiz-adv-x="446" 
d="M242 715q0 13 4 30.5t12 33t20 26.5t28 11q17 0 28.5 -10t19 -25t11 -32t3.5 -30q0 -31 -19.5 -44.5t-47.5 -13.5q-29 0 -44 12t-15 42zM78 715q0 13 4 30.5t12 33t20 26.5t28 11q17 0 28.5 -10t19 -25t11 -32t3.5 -30q0 -31 -19.5 -44.5t-47.5 -13.5q-29 0 -44 12
t-15 42zM220 382q-15 0 -23.5 -8t-13.5 -20t-6.5 -26t-1.5 -26q0 -9 0.5 -18t3 -15.5t7.5 -11t15 -4.5q9 0 14.5 1.5t9.5 10.5t5.5 28t1.5 53q0 20 -1.5 28t-10.5 8zM20 161q0 79 13 126t38.5 77t62 51t84.5 50q14 9 18.5 19.5t4.5 24.5q0 30 -32 30q-17 0 -24.5 -13
t-15.5 -29t-20.5 -29t-38.5 -13q-25 0 -34.5 19.5t-9.5 50.5q0 30 18 50.5t44.5 33t56 17.5t52.5 5q17 0 42 -2.5t48.5 -10.5t40 -23t16.5 -40q0 -20 -6 -39.5t-12.5 -38.5t-12.5 -38.5t-6 -40.5q0 -43 12.5 -83.5t27 -81t27 -81.5t12.5 -84q0 -38 -16 -59t-41.5 -30.5
t-57 -11t-61.5 -1.5q-53 0 -95.5 8.5t-72.5 30.5t-46 60t-16 96z" />
    <glyph glyph-name="aring" unicode="&#xe5;" horiz-adv-x="446" 
d="M20 161q0 79 13 126t38.5 77t62 51t84.5 50q14 9 18.5 19.5t4.5 24.5q0 30 -32 30q-17 0 -24.5 -13t-15.5 -29t-20.5 -29t-38.5 -13q-25 0 -34.5 19.5t-9.5 50.5q0 30 18 50.5t44.5 33t56 17.5t52.5 5q17 0 42 -2.5t48.5 -10.5t40 -23t16.5 -40q0 -20 -6 -39.5
t-12.5 -38.5t-12.5 -38.5t-6 -40.5q0 -43 12.5 -83.5t27 -81t27 -81.5t12.5 -84q0 -38 -16 -59t-41.5 -30.5t-57 -11t-61.5 -1.5q-53 0 -95.5 8.5t-72.5 30.5t-46 60t-16 96zM220 382q-15 0 -23.5 -8t-13.5 -20t-6.5 -26t-1.5 -26q0 -9 0.5 -18t3 -15.5t7.5 -11t15 -4.5
q9 0 14.5 1.5t9.5 10.5t5.5 28t1.5 53q0 20 -1.5 28t-10.5 8zM327 744q0 -42 -23.5 -68t-65.5 -26q-46 0 -73 27t-27 73q0 21 7.5 40t21 34t32 23.5t39.5 8.5t37.5 -9.5t28 -25.5t17.5 -36t6 -41zM277 783q0 17 -11 28t-28 11q-21 0 -32.5 -17.5t-11.5 -37.5
q0 -17 10.5 -25.5t27.5 -8.5q21 0 33 15t12 35z" />
    <glyph glyph-name="ae" unicode="&#xe6;" horiz-adv-x="664" 
d="M20 164q0 79 13 126t38.5 77t62 51t84.5 50q14 9 18.5 19.5t4.5 24.5q0 30 -32 30q-17 0 -24.5 -13t-15.5 -29t-20.5 -29t-38.5 -13q-25 0 -34.5 19.5t-9.5 50.5q0 30 18 50.5t44.5 33t56 17.5t52.5 5q13 0 30.5 -1.5t35.5 -5t34.5 -10.5t28.5 -18q44 30 103 30
q26 0 49.5 -7.5t41 -22.5t28 -36t10.5 -48q0 -33 -15.5 -52t-40 -29t-54 -13t-56.5 -3h-46q-1 -7 -1.5 -11t-0.5 -7q0 -32 16.5 -44t44.5 -12q25 0 43.5 10t32.5 21.5t25 21.5t22 10q19 0 32 -15.5t21 -39.5t13 -53.5t7 -56.5t2.5 -49t0.5 -32q0 -41 -15.5 -76.5t-42 -62
t-61.5 -42t-75 -15.5q-24 0 -44 5t-37 13q-26 -10 -57.5 -12t-61.5 -2q-53 0 -95.5 8.5t-72.5 30.5t-46 60t-16 96zM220 385q-15 0 -23.5 -8t-13.5 -20t-6.5 -26t-1.5 -26q0 -9 0.5 -18t3 -15.5t7.5 -11t15 -4.5q9 0 14.5 1.5t9.5 10.5t5.5 28t1.5 53q0 20 -1.5 28t-10.5 8z
M448 546q-11 0 -24 -2.5t-23.5 -8.5t-17.5 -16t-7 -24h115q8 0 9.5 6t1.5 11q0 10 -5 16.5t-13 10.5t-17.5 5.5t-18.5 1.5z" />
    <glyph glyph-name="ccedilla" unicode="&#xe7;" horiz-adv-x="431" 
d="M360 -135q0 -43 -37 -67.5t-108 -24.5q-68 0 -106 16.5t-38 38.5q0 11 6.5 19t17.5 8q7 0 16.5 -4.5t22.5 -9.5t30 -9.5t39 -4.5q26 0 40 9.5t14 25.5q0 34 -45 34q-13 0 -24 -1.5t-19 -1.5q-11 0 -15 6.5t-4 21.5q0 5 1 19.5t3 37.5q-39 15 -65 44.5t-41.5 68
t-21.5 82.5t-6 88q0 35 4 75.5t14.5 81t27 78t42 66.5t59.5 46t79 17q50 0 77.5 -30t27.5 -80q0 -21 -6.5 -34.5t-15.5 -21.5t-20 -11t-20 -3q-20 0 -28 13.5t-12 30t-9 30.5t-19 14q-16 0 -26 -11.5t-15 -27t-7 -32.5t-2 -28q0 -40 22 -65t62 -25q16 0 28 6.5t22.5 14
t20.5 14t21 6.5q13 0 24.5 -14t20.5 -36.5t14 -51.5t5 -58q0 -33 -4.5 -78t-22.5 -85.5t-55 -68.5t-102 -28q-3 0 -5.5 0.5t-5.5 0.5v-28q28 7 49 7q42 0 68.5 -23t26.5 -57z" />
    <glyph glyph-name="egrave" unicode="&#xe8;" horiz-adv-x="441" 
d="M278 684q0 -24 -17 -33q-10 -2 -16 -2q-25 0 -47.5 15.5t-39 39t-26.5 51.5t-10 52q0 17 8.5 27.5t25.5 10.5q29 0 52 -15.5t38.5 -39.5t23.5 -52.5t8 -53.5zM225 546q-11 0 -24 -2.5t-23.5 -8.5t-17.5 -16t-7 -24h115q8 0 9.5 6t1.5 11q0 10 -5 16.5t-13 10.5t-17.5 5.5
t-18.5 1.5zM20 277q0 54 10.5 115.5t36 114t69 87.5t110.5 35q26 0 49.5 -7.5t41 -22.5t28 -36t10.5 -48q0 -33 -15.5 -52t-40 -29t-54 -13t-56.5 -3h-46q-1 -7 -1.5 -11t-0.5 -7q0 -32 16.5 -44t44.5 -12q25 0 43.5 10t32.5 21.5t25 21.5t22 10q19 0 32 -15.5t21 -39.5
t13 -53.5t7 -56.5t2.5 -49t0.5 -32q0 -41 -15.5 -76.5t-42 -62t-61.5 -42t-75 -15.5q-62 0 -102.5 29.5t-63.5 75.5t-32 101t-9 106z" />
    <glyph glyph-name="eacute" unicode="&#xe9;" horiz-adv-x="441" 
d="M345 807q0 -24 -10 -52t-26.5 -51.5t-39 -39t-47.5 -15.5q-6 0 -16 2q-17 9 -17 33q0 25 8 53.5t23.5 52.5t38.5 39.5t52 15.5q17 0 25.5 -10.5t8.5 -27.5zM225 546q-11 0 -24 -2.5t-23.5 -8.5t-17.5 -16t-7 -24h115q8 0 9.5 6t1.5 11q0 10 -5 16.5t-13 10.5t-17.5 5.5
t-18.5 1.5zM20 277q0 54 10.5 115.5t36 114t69 87.5t110.5 35q26 0 49.5 -7.5t41 -22.5t28 -36t10.5 -48q0 -33 -15.5 -52t-40 -29t-54 -13t-56.5 -3h-46q-1 -7 -1.5 -11t-0.5 -7q0 -32 16.5 -44t44.5 -12q25 0 43.5 10t32.5 21.5t25 21.5t22 10q19 0 32 -15.5t21 -39.5
t13 -53.5t7 -56.5t2.5 -49t0.5 -32q0 -41 -15.5 -76.5t-42 -62t-61.5 -42t-75 -15.5q-62 0 -102.5 29.5t-63.5 75.5t-32 101t-9 106z" />
    <glyph glyph-name="ecircumflex" unicode="&#xea;" horiz-adv-x="441" 
d="M381 680q0 -12 -9.5 -19.5t-18.5 -7.5q-19 0 -34 8t-29.5 17.5t-29.5 17t-34 7.5q-21 0 -37.5 -9t-31.5 -19.5t-30.5 -19t-34.5 -8.5q-12 0 -22.5 10.5t-10.5 22.5q0 25 18 45.5t44.5 35t55 22.5t49.5 8q23 0 50 -6.5t50.5 -20t39 -34.5t15.5 -50zM225 546
q-11 0 -24 -2.5t-23.5 -8.5t-17.5 -16t-7 -24h115q8 0 9.5 6t1.5 11q0 10 -5 16.5t-13 10.5t-17.5 5.5t-18.5 1.5zM20 277q0 54 10.5 115.5t36 114t69 87.5t110.5 35q26 0 49.5 -7.5t41 -22.5t28 -36t10.5 -48q0 -33 -15.5 -52t-40 -29t-54 -13t-56.5 -3h-46q-1 -7 -1.5 -11
t-0.5 -7q0 -32 16.5 -44t44.5 -12q25 0 43.5 10t32.5 21.5t25 21.5t22 10q19 0 32 -15.5t21 -39.5t13 -53.5t7 -56.5t2.5 -49t0.5 -32q0 -41 -15.5 -76.5t-42 -62t-61.5 -42t-75 -15.5q-62 0 -102.5 29.5t-63.5 75.5t-32 101t-9 106z" />
    <glyph glyph-name="edieresis" unicode="&#xeb;" horiz-adv-x="441" 
d="M239 715q0 13 4 30.5t12 33t20 26.5t28 11q17 0 28.5 -10t19 -25t11 -32t3.5 -30q0 -31 -19.5 -44.5t-47.5 -13.5q-29 0 -44 12t-15 42zM75 715q0 13 4 30.5t12 33t20 26.5t28 11q17 0 28.5 -10t19 -25t11 -32t3.5 -30q0 -31 -19.5 -44.5t-47.5 -13.5q-29 0 -44 12
t-15 42zM225 546q-11 0 -24 -2.5t-23.5 -8.5t-17.5 -16t-7 -24h115q8 0 9.5 6t1.5 11q0 10 -5 16.5t-13 10.5t-17.5 5.5t-18.5 1.5zM20 277q0 54 10.5 115.5t36 114t69 87.5t110.5 35q26 0 49.5 -7.5t41 -22.5t28 -36t10.5 -48q0 -33 -15.5 -52t-40 -29t-54 -13t-56.5 -3
h-46q-1 -7 -1.5 -11t-0.5 -7q0 -32 16.5 -44t44.5 -12q25 0 43.5 10t32.5 21.5t25 21.5t22 10q19 0 32 -15.5t21 -39.5t13 -53.5t7 -56.5t2.5 -49t0.5 -32q0 -41 -15.5 -76.5t-42 -62t-61.5 -42t-75 -15.5q-62 0 -102.5 29.5t-63.5 75.5t-32 101t-9 106z" />
    <glyph glyph-name="igrave" unicode="&#xec;" horiz-adv-x="344" 
d="M217 695q0 -24 -17 -33q-10 -2 -16 -2q-25 0 -47.5 15.5t-39 39t-26.5 51.5t-10 52q0 17 8.5 27.5t25.5 10.5q29 0 52 -15.5t38.5 -39.5t23.5 -52.5t8 -53.5zM20 94q0 41 13 79.5t29 77t29 79.5t13 87q0 21 -6.5 40.5t-14.5 38t-14.5 37.5t-6.5 40t10.5 34t27 20.5t35 10
t35.5 2.5q16 0 34 -2.5t32 -9t23.5 -19.5t9.5 -34t-5.5 -41.5t-12.5 -41t-12.5 -41t-5.5 -42.5q0 -54 14 -95.5t31.5 -77t31.5 -68.5t14 -70q0 -33 -14 -57.5t-36.5 -41t-51.5 -25t-59 -8.5q-29 0 -55 8.5t-45.5 24.5t-31 40t-11.5 55z" />
    <glyph glyph-name="iacute" unicode="&#xed;" horiz-adv-x="344" 
d="M289 828q0 -24 -10 -52t-26.5 -51.5t-39 -39t-47.5 -15.5q-6 0 -16 2q-17 9 -17 33q0 25 8 53.5t23.5 52.5t38.5 39.5t52 15.5q17 0 25.5 -10.5t8.5 -27.5zM20 94q0 41 13 79.5t29 77t29 79.5t13 87q0 21 -6.5 40.5t-14.5 38t-14.5 37.5t-6.5 40t10.5 34t27 20.5t35 10
t35.5 2.5q16 0 34 -2.5t32 -9t23.5 -19.5t9.5 -34t-5.5 -41.5t-12.5 -41t-12.5 -41t-5.5 -42.5q0 -54 14 -95.5t31.5 -77t31.5 -68.5t14 -70q0 -33 -14 -57.5t-36.5 -41t-51.5 -25t-59 -8.5q-29 0 -55 8.5t-45.5 24.5t-31 40t-11.5 55z" />
    <glyph glyph-name="icircumflex" unicode="&#xee;" horiz-adv-x="344" 
d="M333 680q0 -12 -9.5 -19.5t-18.5 -7.5q-19 0 -34 8t-29.5 17.5t-29.5 17t-34 7.5q-21 0 -37.5 -9t-31.5 -19.5t-30.5 -19t-34.5 -8.5q-12 0 -22.5 10.5t-10.5 22.5q0 25 18 45.5t44.5 35t55 22.5t49.5 8q23 0 50 -6.5t50.5 -20t39 -34.5t15.5 -50zM20 94q0 41 13 79.5
t29 77t29 79.5t13 87q0 21 -6.5 40.5t-14.5 38t-14.5 37.5t-6.5 40t10.5 34t27 20.5t35 10t35.5 2.5q16 0 34 -2.5t32 -9t23.5 -19.5t9.5 -34t-5.5 -41.5t-12.5 -41t-12.5 -41t-5.5 -42.5q0 -54 14 -95.5t31.5 -77t31.5 -68.5t14 -70q0 -33 -14 -57.5t-36.5 -41t-51.5 -25
t-59 -8.5q-29 0 -55 8.5t-45.5 24.5t-31 40t-11.5 55z" />
    <glyph glyph-name="idieresis" unicode="&#xef;" horiz-adv-x="344" 
d="M191 715q0 13 4 30.5t12 33t20 26.5t28 11q17 0 28.5 -10t19 -25t11 -32t3.5 -30q0 -31 -19.5 -44.5t-47.5 -13.5q-29 0 -44 12t-15 42zM27 715q0 13 4 30.5t12 33t20 26.5t28 11q17 0 28.5 -10t19 -25t11 -32t3.5 -30q0 -31 -19.5 -44.5t-47.5 -13.5q-29 0 -44 12
t-15 42zM20 94q0 41 13 79.5t29 77t29 79.5t13 87q0 21 -6.5 40.5t-14.5 38t-14.5 37.5t-6.5 40t10.5 34t27 20.5t35 10t35.5 2.5q16 0 34 -2.5t32 -9t23.5 -19.5t9.5 -34t-5.5 -41.5t-12.5 -41t-12.5 -41t-5.5 -42.5q0 -54 14 -95.5t31.5 -77t31.5 -68.5t14 -70
q0 -33 -14 -57.5t-36.5 -41t-51.5 -25t-59 -8.5q-29 0 -55 8.5t-45.5 24.5t-31 40t-11.5 55z" />
    <glyph glyph-name="eth" unicode="&#xf0;" horiz-adv-x="487" 
d="M211 618q-2 11 -3.5 17.5t-1.5 11.5q0 3 0.5 6t4.5 5.5t12 5.5t22 8q-8 17 -20 29t-29 14q-18 0 -23.5 -9.5t-5.5 -23.5q0 -8 2 -16.5t2 -16.5q0 -22 -9 -38.5t-38 -16.5q-18 0 -31 8.5t-21.5 21t-12 28t-3.5 30.5q0 28 9.5 53.5t27 44.5t42.5 30t55 11q53 0 95.5 -32.5
t75.5 -82.5l45 13q5 1 12 1q6 0 9.5 -5t5.5 -11t2.5 -12t0.5 -7q0 -8 -5.5 -11t-19.5 -7l-23 -8q19 -38 34 -79.5t25 -83t15 -81t5 -72.5q0 -80 -11.5 -148.5t-38 -119t-71 -79.5t-110.5 -29t-108 27t-66 70.5t-33.5 97t-9.5 107.5q0 67 13.5 118t43 85t77 52t115.5 20
q0 14 -1.5 34t-6.5 43q-8 -2 -15 -3.5t-12 -3.5q-6 -2 -11 -3q-10 0 -11 7zM264 403q0 17 -9 30.5t-26 13.5q-13 0 -26 -5t-23 -14t-16.5 -20.5t-6.5 -24.5q0 -9 6.5 -14.5t15.5 -9.5t18.5 -5.5t15.5 -1.5q17 0 27 6.5t15.5 15.5t7 17.5t1.5 11.5z" />
    <glyph glyph-name="ntilde" unicode="&#xf1;" horiz-adv-x="538" 
d="M435 729q0 -23 -10.5 -37t-26 -22t-34.5 -10.5t-35 -2.5q-17 0 -31.5 4.5t-29 9.5t-28 9.5t-28.5 4.5t-27 -5t-23.5 -11.5t-23 -11.5t-26.5 -5q-12 0 -22.5 10.5t-10.5 22.5q0 21 9.5 37.5t24 28t32 17.5t34.5 6q15 0 29.5 -3.5t28.5 -7.5t27.5 -7.5t25.5 -3.5
q25 0 52.5 8t53.5 8q17 0 28 -11t11 -28zM20 65q0 43 15 83.5t33.5 80.5t33.5 80.5t15 84.5q0 30 -11 55t-23.5 47.5t-23.5 44t-11 42.5q0 22 19 34.5t37 12.5q20 0 37 -15.5t28 -32.5q28 32 66 46t76 14q25 0 47 -5.5t39 -16t27 -26t10 -34.5q0 -16 -3.5 -34.5t-7.5 -38.5
t-7.5 -41.5t-3.5 -42.5q0 -46 16.5 -89t36.5 -85t36.5 -83t16.5 -83q0 -26 -10 -44.5t-26.5 -30.5t-38.5 -17.5t-45 -5.5q-37 0 -61 11.5t-38.5 32t-20 48.5t-5.5 61q0 39 5 76t11.5 74.5t11.5 77t5 81.5q0 9 -1 24.5t-5 30.5t-12 26.5t-22 11.5q-11 0 -18.5 -8t-12 -21
t-6.5 -28t-2 -28q0 -69 4.5 -116.5t9.5 -85t9.5 -71.5t4.5 -78q0 -66 -28.5 -92.5t-91.5 -26.5q-50 0 -82.5 22t-32.5 78z" />
    <glyph glyph-name="ograve" unicode="&#xf2;" horiz-adv-x="436" 
d="M277 699q0 -24 -17 -33q-10 -2 -16 -2q-25 0 -47.5 15.5t-39 39t-26.5 51.5t-10 52q0 17 8.5 27.5t25.5 10.5q29 0 52 -15.5t38.5 -39.5t23.5 -52.5t8 -53.5zM186 443q0 -30 10.5 -51t32.5 -21t30.5 17t8.5 52q0 11 -0.5 28t-4.5 32.5t-13 26.5t-25 11q-15 0 -22.5 -11
t-11.5 -26.5t-4.5 -31.5t-0.5 -26zM20 241q0 31 3 73.5t11.5 87t23.5 88t38 77.5t55 55t76 21q43 0 73.5 -20.5t51.5 -53.5t33.5 -75.5t19.5 -85.5t9 -83.5t2 -70.5q0 -54 -8.5 -105.5t-32 -92.5t-64 -66t-104.5 -25q-55 0 -91 26t-57.5 66.5t-30 89.5t-8.5 94z" />
    <glyph glyph-name="oacute" unicode="&#xf3;" horiz-adv-x="436" 
d="M332 827q0 -24 -10 -52t-26.5 -51.5t-39 -39t-47.5 -15.5q-6 0 -16 2q-17 9 -17 33q0 25 8 53.5t23.5 52.5t38.5 39.5t52 15.5q17 0 25.5 -10.5t8.5 -27.5zM186 443q0 -30 10.5 -51t32.5 -21t30.5 17t8.5 52q0 11 -0.5 28t-4.5 32.5t-13 26.5t-25 11q-15 0 -22.5 -11
t-11.5 -26.5t-4.5 -31.5t-0.5 -26zM20 241q0 31 3 73.5t11.5 87t23.5 88t38 77.5t55 55t76 21q43 0 73.5 -20.5t51.5 -53.5t33.5 -75.5t19.5 -85.5t9 -83.5t2 -70.5q0 -54 -8.5 -105.5t-32 -92.5t-64 -66t-104.5 -25q-55 0 -91 26t-57.5 66.5t-30 89.5t-8.5 94z" />
    <glyph glyph-name="ocircumflex" unicode="&#xf4;" horiz-adv-x="436" 
d="M386 680q0 -12 -9.5 -19.5t-18.5 -7.5q-19 0 -34 8t-29.5 17.5t-29.5 17t-34 7.5q-21 0 -37.5 -9t-31.5 -19.5t-30.5 -19t-34.5 -8.5q-12 0 -22.5 10.5t-10.5 22.5q0 25 18 45.5t44.5 35t55 22.5t49.5 8q23 0 50 -6.5t50.5 -20t39 -34.5t15.5 -50zM186 443
q0 -30 10.5 -51t32.5 -21t30.5 17t8.5 52q0 11 -0.5 28t-4.5 32.5t-13 26.5t-25 11q-15 0 -22.5 -11t-11.5 -26.5t-4.5 -31.5t-0.5 -26zM20 241q0 31 3 73.5t11.5 87t23.5 88t38 77.5t55 55t76 21q43 0 73.5 -20.5t51.5 -53.5t33.5 -75.5t19.5 -85.5t9 -83.5t2 -70.5
q0 -54 -8.5 -105.5t-32 -92.5t-64 -66t-104.5 -25q-55 0 -91 26t-57.5 66.5t-30 89.5t-8.5 94z" />
    <glyph glyph-name="otilde" unicode="&#xf5;" horiz-adv-x="436" 
d="M402 729q0 -23 -10.5 -37t-26 -22t-34.5 -10.5t-35 -2.5q-17 0 -31.5 4.5t-29 9.5t-28 9.5t-28.5 4.5t-27 -5t-23.5 -11.5t-23 -11.5t-26.5 -5q-12 0 -22.5 10.5t-10.5 22.5q0 21 9.5 37.5t24 28t32 17.5t34.5 6q15 0 29.5 -3.5t28.5 -7.5t27.5 -7.5t25.5 -3.5
q25 0 52.5 8t53.5 8q17 0 28 -11t11 -28zM186 443q0 -30 10.5 -51t32.5 -21t30.5 17t8.5 52q0 11 -0.5 28t-4.5 32.5t-13 26.5t-25 11q-15 0 -22.5 -11t-11.5 -26.5t-4.5 -31.5t-0.5 -26zM20 241q0 31 3 73.5t11.5 87t23.5 88t38 77.5t55 55t76 21q43 0 73.5 -20.5
t51.5 -53.5t33.5 -75.5t19.5 -85.5t9 -83.5t2 -70.5q0 -54 -8.5 -105.5t-32 -92.5t-64 -66t-104.5 -25q-55 0 -91 26t-57.5 66.5t-30 89.5t-8.5 94z" />
    <glyph glyph-name="odieresis" unicode="&#xf6;" horiz-adv-x="436" 
d="M237 715q0 13 4 30.5t12 33t20 26.5t28 11q17 0 28.5 -10t19 -25t11 -32t3.5 -30q0 -31 -19.5 -44.5t-47.5 -13.5q-29 0 -44 12t-15 42zM73 715q0 13 4 30.5t12 33t20 26.5t28 11q17 0 28.5 -10t19 -25t11 -32t3.5 -30q0 -31 -19.5 -44.5t-47.5 -13.5q-29 0 -44 12
t-15 42zM186 443q0 -30 10.5 -51t32.5 -21t30.5 17t8.5 52q0 11 -0.5 28t-4.5 32.5t-13 26.5t-25 11q-15 0 -22.5 -11t-11.5 -26.5t-4.5 -31.5t-0.5 -26zM20 241q0 31 3 73.5t11.5 87t23.5 88t38 77.5t55 55t76 21q43 0 73.5 -20.5t51.5 -53.5t33.5 -75.5t19.5 -85.5
t9 -83.5t2 -70.5q0 -54 -8.5 -105.5t-32 -92.5t-64 -66t-104.5 -25q-55 0 -91 26t-57.5 66.5t-30 89.5t-8.5 94z" />
    <glyph glyph-name="divide" unicode="&#xf7;" horiz-adv-x="503" 
d="M312 137q0 -4 -3 -13t-20 -9h-80q-18 0 -22 12t-4 19v84q0 7 5.5 14.5t20.5 7.5h82q6 0 10.5 -3t6.5 -6q3 -4 4 -8v-98zM463 368q0 -23 -10.5 -40t-30.5 -17h-340q-21 0 -31.5 18t-10.5 40q0 23 10.5 41t31.5 18h340q22 0 31.5 -19.5t9.5 -40.5zM312 501q0 -4 -3 -13
t-20 -9h-80q-18 0 -22 12t-4 19v84q0 7 5.5 14.5t20.5 7.5h82q6 0 10.5 -3t6.5 -6q3 -4 4 -8v-98z" />
    <glyph glyph-name="oslash" unicode="&#xf8;" horiz-adv-x="436" 
d="M20 236q0 31 3 73.5t11.5 87t23.5 88t38 77.5t55 55t76 21q16 0 30 -3.5t27 -8.5l20 59q5 16 13.5 19t27.5 3h7q19 0 27.5 -2t8.5 -11q0 -3 -1 -7.5t-2 -9.5l-37 -108q22 -33 35.5 -75.5t20.5 -86.5t9.5 -85.5t2.5 -72.5q0 -54 -8.5 -105.5t-32 -92.5t-64 -66t-104.5 -25
q-35 0 -66 13l-18 -54q-5 -17 -13.5 -20.5t-32.5 -3.5q-19 0 -28 2.5t-9 12.5q0 2 1 6t3 9l33 98q-32 42 -44.5 100t-12.5 113zM186 438q0 -30 10.5 -51t32.5 -21t30.5 17t8.5 52q0 11 -0.5 28t-4.5 32.5t-13 26.5t-25 11q-15 0 -22.5 -11t-11.5 -26.5t-4.5 -31.5t-0.5 -26z
" />
    <glyph glyph-name="ugrave" unicode="&#xf9;" horiz-adv-x="451" 
d="M273 684q0 -24 -17 -33q-10 -2 -16 -2q-25 0 -47.5 15.5t-39 39t-26.5 51.5t-10 52q0 17 8.5 27.5t25.5 10.5q29 0 52 -15.5t38.5 -39.5t23.5 -52.5t8 -53.5zM29 99q0 30 6.5 58t14.5 56t14.5 58t6.5 64q0 29 -8 59t-17.5 59t-17.5 55t-8 46q0 19 8 33.5t21 24t29.5 14
t34.5 4.5q43 0 67.5 -23.5t24.5 -66.5q0 -21 -4 -39.5t-8.5 -37.5t-8 -39.5t-3.5 -45.5q0 -29 16 -45t35 -16q18 0 32.5 14.5t14.5 46.5q0 24 -5 46.5t-11.5 44.5t-11.5 42.5t-5 39.5q0 44 28 61.5t66 17.5q41 0 66 -17.5t25 -54.5q0 -27 -7 -52.5t-16 -51t-16 -52.5t-7 -56
q0 -30 6 -58.5t12.5 -57t12.5 -56.5t6 -57q0 -47 -18 -77t-48 -46.5t-68.5 -22.5t-78.5 -6q-29 0 -61 8t-58.5 24.5t-43.5 41.5t-17 60z" />
    <glyph glyph-name="uacute" unicode="&#xfa;" horiz-adv-x="451" 
d="M353 807q0 -24 -10 -52t-26.5 -51.5t-39 -39t-47.5 -15.5q-6 0 -16 2q-17 9 -17 33q0 25 8 53.5t23.5 52.5t38.5 39.5t52 15.5q17 0 25.5 -10.5t8.5 -27.5zM29 99q0 30 6.5 58t14.5 56t14.5 58t6.5 64q0 29 -8 59t-17.5 59t-17.5 55t-8 46q0 19 8 33.5t21 24t29.5 14
t34.5 4.5q43 0 67.5 -23.5t24.5 -66.5q0 -21 -4 -39.5t-8.5 -37.5t-8 -39.5t-3.5 -45.5q0 -29 16 -45t35 -16q18 0 32.5 14.5t14.5 46.5q0 24 -5 46.5t-11.5 44.5t-11.5 42.5t-5 39.5q0 44 28 61.5t66 17.5q41 0 66 -17.5t25 -54.5q0 -27 -7 -52.5t-16 -51t-16 -52.5t-7 -56
q0 -30 6 -58.5t12.5 -57t12.5 -56.5t6 -57q0 -47 -18 -77t-48 -46.5t-68.5 -22.5t-78.5 -6q-29 0 -61 8t-58.5 24.5t-43.5 41.5t-17 60z" />
    <glyph glyph-name="ucircumflex" unicode="&#xfb;" horiz-adv-x="451" 
d="M386 680q0 -12 -9.5 -19.5t-18.5 -7.5q-19 0 -34 8t-29.5 17.5t-29.5 17t-34 7.5q-21 0 -37.5 -9t-31.5 -19.5t-30.5 -19t-34.5 -8.5q-12 0 -22.5 10.5t-10.5 22.5q0 25 18 45.5t44.5 35t55 22.5t49.5 8q23 0 50 -6.5t50.5 -20t39 -34.5t15.5 -50zM29 99q0 30 6.5 58
t14.5 56t14.5 58t6.5 64q0 29 -8 59t-17.5 59t-17.5 55t-8 46q0 19 8 33.5t21 24t29.5 14t34.5 4.5q43 0 67.5 -23.5t24.5 -66.5q0 -21 -4 -39.5t-8.5 -37.5t-8 -39.5t-3.5 -45.5q0 -29 16 -45t35 -16q18 0 32.5 14.5t14.5 46.5q0 24 -5 46.5t-11.5 44.5t-11.5 42.5t-5 39.5
q0 44 28 61.5t66 17.5q41 0 66 -17.5t25 -54.5q0 -27 -7 -52.5t-16 -51t-16 -52.5t-7 -56q0 -30 6 -58.5t12.5 -57t12.5 -56.5t6 -57q0 -47 -18 -77t-48 -46.5t-68.5 -22.5t-78.5 -6q-29 0 -61 8t-58.5 24.5t-43.5 41.5t-17 60z" />
    <glyph glyph-name="udieresis" unicode="&#xfc;" horiz-adv-x="451" 
d="M244 715q0 13 4 30.5t12 33t20 26.5t28 11q17 0 28.5 -10t19 -25t11 -32t3.5 -30q0 -31 -19.5 -44.5t-47.5 -13.5q-29 0 -44 12t-15 42zM80 715q0 13 4 30.5t12 33t20 26.5t28 11q17 0 28.5 -10t19 -25t11 -32t3.5 -30q0 -31 -19.5 -44.5t-47.5 -13.5q-29 0 -44 12
t-15 42zM29 99q0 30 6.5 58t14.5 56t14.5 58t6.5 64q0 29 -8 59t-17.5 59t-17.5 55t-8 46q0 19 8 33.5t21 24t29.5 14t34.5 4.5q43 0 67.5 -23.5t24.5 -66.5q0 -21 -4 -39.5t-8.5 -37.5t-8 -39.5t-3.5 -45.5q0 -29 16 -45t35 -16q18 0 32.5 14.5t14.5 46.5q0 24 -5 46.5
t-11.5 44.5t-11.5 42.5t-5 39.5q0 44 28 61.5t66 17.5q41 0 66 -17.5t25 -54.5q0 -27 -7 -52.5t-16 -51t-16 -52.5t-7 -56q0 -30 6 -58.5t12.5 -57t12.5 -56.5t6 -57q0 -47 -18 -77t-48 -46.5t-68.5 -22.5t-78.5 -6q-29 0 -61 8t-58.5 24.5t-43.5 41.5t-17 60z" />
    <glyph glyph-name="yacute" unicode="&#xfd;" horiz-adv-x="404" 
d="M320 807q0 -24 -10 -52t-26.5 -51.5t-39 -39t-47.5 -15.5q-6 0 -16 2q-17 9 -17 33q0 25 8 53.5t23.5 52.5t38.5 39.5t52 15.5q17 0 25.5 -10.5t8.5 -27.5zM48 99q0 48 13.5 83t30 64.5t30.5 56.5t14 60q0 51 -18 80.5t-40 49.5t-40 36.5t-18 42.5q0 15 7.5 25t19 16.5
t25 9t24.5 2.5q30 0 47 -13t26 -32.5t11.5 -42t4.5 -42t4.5 -32.5t10.5 -13q11 0 16 13t8.5 32.5t7 42t13 42t27 32.5t47.5 13q9 0 20 -2t21 -6.5t17 -12t7 -19.5q0 -20 -18 -38t-40 -42t-40 -58t-18 -85q0 -33 11 -63.5t24 -60t24 -59.5t11 -64q0 -35 -11.5 -62.5t-32 -47
t-48 -30t-60.5 -10.5q-61 0 -99.5 36.5t-38.5 97.5z" />
    <glyph glyph-name="thorn" unicode="&#xfe;" horiz-adv-x="535" 
d="M182 842q29 0 49.5 -8t34 -20t20 -27t6.5 -28q0 -26 -8.5 -45.5t-19 -39.5t-20.5 -43t-14 -56q24 4 47 4.5t37 0.5q33 0 69 -7t65.5 -23t49 -43.5t19.5 -67.5q0 -37 -16 -58t-40 -32t-52.5 -17t-52.5 -13t-40 -20t-16 -38q0 -20 4.5 -39t10 -37.5t10 -36.5t4.5 -35
q0 -77 -42.5 -109.5t-115.5 -32.5q-69 0 -110 30.5t-41 106.5q0 56 14.5 110.5t31.5 108.5t31.5 109t14.5 112q0 46 -8.5 74.5t-19 50t-19 41t-8.5 47.5q0 11 5.5 25t20 26.5t38.5 21t61 8.5zM360 461q0 14 -12.5 20.5t-23.5 6.5q-23 0 -30.5 -10.5t-7.5 -27.5q0 -8 0.5 -17
t2 -17t5.5 -13.5t12 -5.5q10 0 20 5.5t17.5 14.5t12 20.5t4.5 23.5z" />
    <glyph glyph-name="ydieresis" unicode="&#xff;" horiz-adv-x="404" 
d="M221 715q0 13 4 30.5t12 33t20 26.5t28 11q17 0 28.5 -10t19 -25t11 -32t3.5 -30q0 -31 -19.5 -44.5t-47.5 -13.5q-29 0 -44 12t-15 42zM57 715q0 13 4 30.5t12 33t20 26.5t28 11q17 0 28.5 -10t19 -25t11 -32t3.5 -30q0 -31 -19.5 -44.5t-47.5 -13.5q-29 0 -44 12
t-15 42zM48 99q0 48 13.5 83t30 64.5t30.5 56.5t14 60q0 51 -18 80.5t-40 49.5t-40 36.5t-18 42.5q0 15 7.5 25t19 16.5t25 9t24.5 2.5q30 0 47 -13t26 -32.5t11.5 -42t4.5 -42t4.5 -32.5t10.5 -13q11 0 16 13t8.5 32.5t7 42t13 42t27 32.5t47.5 13q9 0 20 -2t21 -6.5
t17 -12t7 -19.5q0 -20 -18 -38t-40 -42t-40 -58t-18 -85q0 -33 11 -63.5t24 -60t24 -59.5t11 -64q0 -35 -11.5 -62.5t-32 -47t-48 -30t-60.5 -10.5q-61 0 -99.5 36.5t-38.5 97.5z" />
    <glyph glyph-name="OE" unicode="&#x152;" horiz-adv-x="743" 
d="M20 384q0 38 4 87.5t14.5 100.5t28.5 100t45.5 87t65.5 61.5t88 23.5q23 0 44 -5.5t39 -15.5q21 8 46.5 10.5t51.5 2.5q44 0 83.5 -2.5t69 -14.5t46.5 -38t17 -73q0 -17 -7.5 -30.5t-29.5 -13.5q-21 0 -33 10t-21 22t-19 22t-28 10q-29 0 -29 -27q0 -16 7 -22t17 -8
t22 -2.5t22 -5.5t17 -17t7 -37q0 -17 -7 -25t-16 -8q-12 0 -23.5 -1t-20.5 -5.5t-14.5 -14t-5.5 -25.5q0 -20 11.5 -31t30.5 -11q18 0 29 11t20 23.5t19.5 23.5t27.5 11q20 0 34 -15t23.5 -39.5t14.5 -55.5t8 -61.5t3.5 -58.5t0.5 -47q0 -101 -12.5 -162t-41 -93.5
t-73.5 -43t-111 -10.5q-32 0 -66 5t-64 16q-20 -7 -42.5 -11t-48.5 -4q-56 0 -96 18.5t-67 49t-43 71.5t-24.5 86.5t-11 92t-2.5 89.5zM206 622q0 -12 2 -30.5t8.5 -36.5t18 -30.5t31.5 -12.5q13 0 21.5 11t13 27t6.5 35t2 36q0 10 -2 28t-8 35.5t-17 30t-29 12.5t-27.5 -13
t-14 -30t-5 -34.5t-0.5 -27.5z" />
    <glyph glyph-name="oe" unicode="&#x153;" horiz-adv-x="688" 
d="M20 236q0 31 3 73.5t11.5 87t23.5 88t38 77.5t55 55t76 21q42 0 72.5 -20.5t51.5 -52.5q26 29 60.5 46.5t81.5 17.5q26 0 49.5 -7.5t41 -22.5t28 -36t10.5 -48q0 -33 -15.5 -52t-40 -29t-54 -13t-56.5 -3h-46q-1 -7 -1.5 -11t-0.5 -7q0 -32 16.5 -44t44.5 -12
q25 0 43.5 10t32.5 21.5t25 21.5t22 10q19 0 32 -15.5t21 -39.5t13 -53.5t7 -56.5t2.5 -49t0.5 -32q0 -41 -15.5 -76.5t-42 -62t-61.5 -42t-75 -15.5q-41 0 -72 13t-54 36q-23 -25 -58 -39.5t-83 -14.5q-55 0 -91 26t-57.5 66.5t-30 89.5t-8.5 94zM186 438q0 -30 10.5 -51
t32.5 -21t30.5 17t8.5 52q0 11 -0.5 28t-4.5 32.5t-13 26.5t-25 11q-15 0 -22.5 -11t-11.5 -26.5t-4.5 -31.5t-0.5 -26zM472 546q-11 0 -24 -2.5t-23.5 -8.5t-17.5 -16t-7 -24h115q8 0 9.5 6t1.5 11q0 10 -5 16.5t-13 10.5t-17.5 5.5t-18.5 1.5z" />
    <glyph glyph-name="Scaron" unicode="&#x160;" horiz-adv-x="482" 
d="M402 969q0 -29 -15.5 -50t-39 -34.5t-50.5 -20t-50 -6.5q-21 0 -49.5 8t-55 22.5t-44.5 35t-18 45.5q0 12 10.5 22.5t22.5 10.5q19 0 34.5 -9t30.5 -19.5t31.5 -19t37.5 -8.5q19 0 34 7.5t29.5 17t29.5 17.5t34 8q9 0 18.5 -7.5t9.5 -19.5zM331 627q-23 0 -37 9t-15 26
q0 15 -2 29.5t-7.5 25.5t-16 18t-28.5 7q-23 0 -40.5 -14.5t-17.5 -39.5q0 -28 22 -48.5t52 -36.5t61 -29t49 -26q31 -23 52.5 -52.5t34.5 -64t18.5 -71t5.5 -72.5q0 -59 -10 -117t-36.5 -103.5t-71.5 -73.5t-115 -28q-57 0 -97 24.5t-64.5 66.5t-36 97t-11.5 115q0 27 1 60
t5.5 62.5t15 49.5t28.5 20q11 0 19.5 -4.5t17 -9.5t17.5 -9.5t20 -4.5q18 0 28.5 14.5t10.5 32.5t-12 32q-18 19 -37.5 38t-35.5 39t-26.5 43.5t-10.5 51.5q0 35 14.5 61.5t38 44t53.5 26.5t62 9q29 0 59 -5.5t54.5 -19t40 -36t15.5 -56.5t-15 -57.5t-52 -23.5z" />
    <glyph glyph-name="scaron" unicode="&#x161;" horiz-adv-x="409" 
d="M365 761q0 -29 -15.5 -50t-39 -34.5t-50.5 -20t-50 -6.5q-21 0 -49.5 8t-55 22.5t-44.5 35t-18 45.5q0 12 10.5 22.5t22.5 10.5q19 0 34.5 -9t30.5 -19.5t31.5 -19t37.5 -8.5q19 0 34 7.5t29.5 17t29.5 17.5t34 8q9 0 18.5 -7.5t9.5 -19.5zM20 212q0 10 1 37.5t6 57
t15 52t28 22.5q10 0 17 -6.5t13 -14t12.5 -14t17.5 -6.5q28 0 28 30q0 19 -16 32t-34.5 28.5t-34.5 37.5t-16 59q0 28 14.5 49.5t36.5 35t49 20.5t52 7q28 0 52 -6t42 -19t28.5 -33.5t10.5 -49.5q0 -35 -11.5 -51t-40.5 -16q-25 0 -33.5 12t-12 27t-9 27t-24.5 12
q-14 0 -24.5 -4.5t-10.5 -19.5q0 -23 16 -38t39.5 -28t51 -29t51 -42t39.5 -65t16 -99q0 -42 -9.5 -87t-31 -81.5t-56 -60t-85.5 -23.5q-55 0 -91 21t-57.5 55.5t-30 79t-8.5 91.5z" />
    <glyph glyph-name="Ydieresis" unicode="&#x178;" 
d="M272 923q0 13 4 30.5t12 33t20 26.5t28 11q17 0 28.5 -10t19 -25t11 -32t3.5 -30q0 -31 -19.5 -44.5t-47.5 -13.5q-29 0 -44 12t-15 42zM108 923q0 13 4 30.5t12 33t20 26.5t28 11q17 0 28.5 -10t19 -25t11 -32t3.5 -30q0 -31 -19.5 -44.5t-47.5 -13.5q-29 0 -44 12
t-15 42zM105 824q12 0 28 -2t30.5 -8t25 -17t11.5 -29q1 -12 1 -37t4.5 -51t15 -45.5t31.5 -19.5q14 0 22.5 4.5t13 17t6 34t1.5 55.5q0 15 1.5 32.5t11 32t30 24t58.5 9.5q16 0 32 -1.5t29 -7.5t21 -17.5t8 -31.5q0 -36 -22.5 -69t-49.5 -67.5t-49.5 -71.5t-22.5 -82
q0 -24 13 -57.5t29 -74.5t29 -88.5t13 -99.5q0 -98 -46.5 -144t-140.5 -46q-34 0 -65 10.5t-55 32.5t-38.5 56.5t-14.5 83.5q0 58 16 100t34.5 78t34.5 71.5t16 79.5q0 40 -23 73t-50.5 64.5t-50.5 64.5t-23 75q0 38 25 53.5t60 15.5z" />
    <glyph glyph-name="Zcaron" unicode="&#x17d;" horiz-adv-x="454" 
d="M388 969q0 -29 -15.5 -50t-39 -34.5t-50.5 -20t-50 -6.5q-21 0 -49.5 8t-55 22.5t-44.5 35t-18 45.5q0 12 10.5 22.5t22.5 10.5q19 0 34.5 -9t30.5 -19.5t31.5 -19t37.5 -8.5q19 0 34 7.5t29.5 17t29.5 17.5t34 8q9 0 18.5 -7.5t9.5 -19.5zM107 -29q-24 7 -41 21.5
t-27 34t-14.5 42t-4.5 45.5q5 50 9 100t9 98q5 39 7 71.5t8 62.5t20 58t43 58q16 17 37 37t39.5 39.5t31 36t12.5 26.5q0 15 -8 18.5t-22 3.5q-27 0 -39.5 -15t-23 -33t-25.5 -33t-48 -15q-15 0 -24.5 10t-14.5 25.5t-6.5 35t-1.5 37.5q0 32 5 51t23 28.5t53.5 12t97.5 2.5
q55 0 95 -3t65 -11.5t37 -24t12 -41.5q0 -25 -14.5 -48t-35.5 -45.5t-46.5 -44.5t-46.5 -44t-35.5 -44t-14.5 -44q0 -12 7 -17.5t18 -5.5q19 0 28.5 13t17 28.5t17 28.5t29.5 13q21 0 30.5 -12t13.5 -28.5t3.5 -33.5t1.5 -27q1 -14 5 -39t9.5 -56t12 -64.5t11.5 -65.5
t8.5 -59.5t3.5 -45.5q0 -40 -8 -67t-25.5 -43.5t-45.5 -24t-68 -7.5q-9 0 -29.5 1t-46 1.5t-53.5 1.5t-51 1z" />
    <glyph glyph-name="zcaron" unicode="&#x17e;" horiz-adv-x="375" 
d="M349 761q0 -29 -15.5 -50t-39 -34.5t-50.5 -20t-50 -6.5q-21 0 -49.5 8t-55 22.5t-44.5 35t-18 45.5q0 12 10.5 22.5t22.5 10.5q19 0 34.5 -9t30.5 -19.5t31.5 -19t37.5 -8.5q19 0 34 7.5t29.5 17t29.5 17.5t34 8q9 0 18.5 -7.5t9.5 -19.5zM352 81q0 -32 -14.5 -54
t-38 -36t-52 -20t-56.5 -6q-23 0 -52.5 2t-55.5 12.5t-44.5 32.5t-18.5 62q0 69 10 142.5t36 136.5q8 20 31 40t47 39.5t42.5 38t18.5 35.5q0 12 -6.5 15t-17.5 3q-18 0 -27 -10t-16 -22t-15.5 -22t-25.5 -10q-15 0 -26 14.5t-18.5 33.5t-11 38.5t-3.5 30.5q0 19 18 29.5
t44 16t54.5 7t48.5 1.5t48.5 -2t55 -9.5t45 -21.5t18.5 -39q0 -14 -12.5 -30.5t-29.5 -34t-35 -33t-29 -25.5q-8 -7 -19.5 -17t-22 -22.5t-18.5 -26t-8 -28.5q0 -11 7.5 -13.5t14.5 -2.5q12 0 19.5 8.5t14 19t14.5 19t22 8.5q12 0 19.5 -7.5t11.5 -18.5t6 -23t3 -22
q3 -23 7 -51t8 -58t6.5 -60.5t2.5 -59.5z" />
    <glyph glyph-name="florin" unicode="&#x192;" horiz-adv-x="499" 
d="M27 105q0 48 12.5 95.5t27.5 97t27.5 100t12.5 104.5q0 57 -14.5 97.5t-31.5 71.5t-31.5 55.5t-14.5 49.5q0 21 11.5 34.5t29 21t38 10.5t39.5 3q46 0 66 -21t31 -68q1 -1 14 12t34.5 29t49.5 29.5t58 13.5q37 0 57.5 -21.5t30.5 -51.5t11.5 -62.5t1.5 -55.5
q0 -20 -5 -41t-16 -38t-28.5 -28t-42.5 -11q-24 0 -45.5 9.5t-21.5 39.5q0 15 0.5 31t2.5 32q-24 0 -37.5 -12.5t-20 -31t-8.5 -41t-2 -42.5q0 -77 15 -134t33.5 -102.5t33.5 -83.5t15 -75q0 -75 -38.5 -117t-118.5 -42q-36 0 -68 5.5t-56 21.5t-38 43.5t-14 72.5z" />
    <glyph glyph-name="circumflex" unicode="&#x2c6;" horiz-adv-x="402" 
d="M362 680q0 -12 -9.5 -19.5t-18.5 -7.5q-19 0 -34 8t-29.5 17.5t-29.5 17t-34 7.5q-21 0 -37.5 -9t-31.5 -19.5t-30.5 -19t-34.5 -8.5q-12 0 -22.5 10.5t-10.5 22.5q0 25 18 45.5t44.5 35t55 22.5t49.5 8q23 0 50 -6.5t50.5 -20t39 -34.5t15.5 -50z" />
    <glyph glyph-name="tilde" unicode="&#x2dc;" horiz-adv-x="436" 
d="M396 729q0 -23 -10.5 -37t-26 -22t-34.5 -10.5t-35 -2.5q-17 0 -31.5 4.5t-29 9.5t-28 9.5t-28.5 4.5t-27 -5t-23.5 -11.5t-23 -11.5t-26.5 -5q-12 0 -22.5 10.5t-10.5 22.5q0 21 9.5 37.5t24 28t32 17.5t34.5 6q15 0 29.5 -3.5t28.5 -7.5t27.5 -7.5t25.5 -3.5
q25 0 52.5 8t53.5 8q17 0 28 -11t11 -28z" />
    <glyph glyph-name="endash" unicode="&#x2013;" horiz-adv-x="625" 
d="M49 232q0 50 1 78t7.5 41.5t21 16.5t40.5 3q29 0 138.5 2.5t279.5 2.5q29 -4 39.5 -14.5t10.5 -30.5q0 -46 -1 -72t-7 -39t-19.5 -16.5t-38.5 -3.5q-7 0 -31.5 -0.5t-59 -1t-75.5 -1.5t-81 -1.5t-75.5 -1t-58.5 -0.5q-43 0 -67 6.5t-24 31.5z" />
    <glyph glyph-name="emdash" unicode="&#x2014;" horiz-adv-x="788" 
d="M49 228q0 51 1.5 80t10 43t27 17t52.5 3q19 0 65 1t115.5 1.5t161.5 1.5t203 1q37 -4 51 -14.5t14 -31.5q0 -47 -1.5 -74t-9.5 -40.5t-25.5 -17t-49.5 -3.5q-9 0 -41 -0.5t-77 -1.5t-98.5 -1.5t-105.5 -1.5t-98 -1.5t-77 -0.5q-56 0 -87 7t-31 33z" />
    <glyph glyph-name="quoteleft" unicode="&#x2018;" horiz-adv-x="270" 
d="M238 823q0 -13 -7.5 -25.5t-16 -26t-16 -29.5t-7.5 -36q0 -26 7.5 -49t16 -46t16 -46t7.5 -48q0 -26 -6 -49.5t-19 -42t-33 -29.5t-48 -11q-33 0 -53 15.5t-30.5 39.5t-14 52.5t-3.5 54.5q0 53 15 107.5t40 98.5t57 71.5t65 27.5q11 0 20.5 -8t9.5 -21z" />
    <glyph glyph-name="quoteright" unicode="&#x2019;" horiz-adv-x="256" 
d="M27 406q0 13 7.5 25.5t16 26t16 29.5t7.5 36q0 25 -7.5 48.5t-16 46.5t-16 46t-7.5 48t6 49t19 42.5t33 29.5t48 11q33 0 53 -16t30.5 -40t14 -52.5t3.5 -53.5q0 -53 -15 -107.5t-40 -98.5t-57 -71.5t-65 -27.5q-11 0 -20.5 8t-9.5 21z" />
    <glyph glyph-name="quotesinglbase" unicode="&#x201a;" horiz-adv-x="303" 
d="M52 -155q0 13 7.5 25.5t16 26t16 29.5t7.5 36q0 25 -7.5 48.5t-16 46.5t-16 46t-7.5 48t6 49t19 42.5t33 29.5t48 11q33 0 53 -16t30.5 -40t14 -52.5t3.5 -53.5q0 -53 -15 -107.5t-40 -98.5t-57 -71.5t-65 -27.5q-11 0 -20.5 8t-9.5 21z" />
    <glyph glyph-name="quotedblleft" unicode="&#x201c;" horiz-adv-x="519" 
d="M238 822q0 -13 -7.5 -25.5t-16 -26t-16 -29.5t-7.5 -36q0 -26 7.5 -49t16 -46t16 -46t7.5 -48q0 -26 -6 -49.5t-19 -42t-33 -29.5t-48 -11q-33 0 -53 15.5t-30.5 39.5t-14 52.5t-3.5 54.5q0 53 15 107.5t40 98.5t57 71.5t65 27.5q11 0 20.5 -8t9.5 -21zM487 822
q0 -13 -7.5 -25.5t-16 -26t-16 -29.5t-7.5 -36q0 -26 7.5 -49t16 -46t16 -46t7.5 -48q0 -26 -6 -49.5t-19 -42t-33 -29.5t-48 -11q-33 0 -53 15.5t-30.5 39.5t-14 52.5t-3.5 54.5q0 53 15 107.5t40 98.5t57 71.5t65 27.5q11 0 20.5 -8t9.5 -21z" />
    <glyph glyph-name="quotedblright" unicode="&#x201d;" horiz-adv-x="505" 
d="M276 403q0 13 7.5 25.5t16 26t16 29.5t7.5 36q0 25 -7.5 48.5t-16 46.5t-16 46t-7.5 48t6 49t19 42.5t33 29.5t48 11q33 0 53 -16t30.5 -40t14 -52.5t3.5 -53.5q0 -53 -15 -107.5t-40 -98.5t-57 -71.5t-65 -27.5q-11 0 -20.5 8t-9.5 21zM27 403q0 13 7.5 25.5t16 26
t16 29.5t7.5 36q0 25 -7.5 48.5t-16 46.5t-16 46t-7.5 48t6 49t19 42.5t33 29.5t48 11q33 0 53 -16t30.5 -40t14 -52.5t3.5 -53.5q0 -53 -15 -107.5t-40 -98.5t-57 -71.5t-65 -27.5q-11 0 -20.5 8t-9.5 21z" />
    <glyph glyph-name="quotedblbase" unicode="&#x201e;" horiz-adv-x="552" 
d="M301 -155q0 13 7.5 25.5t16 26t16 29.5t7.5 36q0 25 -7.5 48.5t-16 46.5t-16 46t-7.5 48t6 49t19 42.5t33 29.5t48 11q33 0 53 -16t30.5 -40t14 -52.5t3.5 -53.5q0 -53 -15 -107.5t-40 -98.5t-57 -71.5t-65 -27.5q-11 0 -20.5 8t-9.5 21zM52 -155q0 13 7.5 25.5t16 26
t16 29.5t7.5 36q0 25 -7.5 48.5t-16 46.5t-16 46t-7.5 48t6 49t19 42.5t33 29.5t48 11q33 0 53 -16t30.5 -40t14 -52.5t3.5 -53.5q0 -53 -15 -107.5t-40 -98.5t-57 -71.5t-65 -27.5q-11 0 -20.5 8t-9.5 21z" />
    <glyph glyph-name="dagger" unicode="&#x2020;" horiz-adv-x="588" 
d="M26 515q0 29 1 45.5t7.5 24.5t21 9.5t40.5 1.5h36t62 1q-6 20 -14.5 39.5t-16 39t-13 39.5t-5.5 41q0 30 15.5 47t39 26t50 11t49.5 2q22 0 46 -2.5t44 -11t33 -25.5t13 -45q0 -21 -6 -40t-14.5 -38.5t-17.5 -39.5t-15 -41h133q29 -2 39.5 -8.5t10.5 -17.5
q0 -27 -1 -42.5t-7 -23t-19.5 -9.5t-38.5 -2q-8 0 -41.5 -0.5t-78.5 -1.5q6 -47 18 -90t24.5 -86t22 -86t9.5 -89q0 -82 -37.5 -128t-123.5 -46q-83 0 -133.5 42t-50.5 128q0 47 12.5 91t28.5 87.5t31.5 86.5t21.5 88h-85q-43 0 -67 4t-24 19z" />
    <glyph glyph-name="daggerdbl" unicode="&#x2021;" horiz-adv-x="588" 
d="M26 553q0 29 1 45.5t7.5 24.5t21 9.5t40.5 1.5h32t52 1q-12 30 -23.5 59.5t-11.5 61.5q0 30 15.5 47t39 26t50 11t49.5 2q22 0 46 -2.5t44 -11t33 -25.5t13 -45q0 -32 -13 -61t-26 -60h119q29 -2 39.5 -8.5t10.5 -17.5q0 -27 -1 -42.5t-7 -23t-19.5 -9.5t-38.5 -2
q-9 0 -43 -0.5t-80 -1.5q1 -17 3 -33l4 -32h132q29 -2 39.5 -8.5t10.5 -17.5q0 -27 -1 -42.5t-7 -23t-19.5 -9.5t-38.5 -2q-8 0 -32 -0.5t-59 -0.5q16 -55 30.5 -108.5t14.5 -111.5q0 -82 -37.5 -128t-123.5 -46q-83 0 -133.5 42t-50.5 128q0 58 18 112.5t38 108.5h-47
q-43 0 -67 4t-24 19q0 29 1 45.5t7.5 24.5t21 9.5t40.5 1.5q12 0 37.5 0.5t63.5 0.5q3 17 5 32.5t3 32.5h-88q-43 0 -67 4t-24 19z" />
    <glyph glyph-name="bullet" unicode="&#x2022;" horiz-adv-x="308" 
d="M23 378q0 27 10 63t28.5 68.5t44.5 55t57 22.5q34 0 58 -21t38 -52t20.5 -65.5t6.5 -61.5q0 -35 -10 -57.5t-28.5 -35.5t-44 -18.5t-56.5 -5.5q-57 0 -90.5 23t-33.5 85z" />
    <glyph glyph-name="ellipsis" unicode="&#x2026;" horiz-adv-x="908" 
d="M624 75q0 27 8.5 63t25 69t41.5 55.5t59 22.5q35 0 60 -21.5t40.5 -52.5t22.5 -66t7 -62q0 -32 -11 -55t-30 -37.5t-45 -21.5t-55 -7q-61 0 -92 25t-31 88zM324 75q0 27 8.5 63t25 69t41.5 55.5t59 22.5q35 0 60 -21.5t40.5 -52.5t22.5 -66t7 -62q0 -32 -11 -55
t-30 -37.5t-45 -21.5t-55 -7q-61 0 -92 25t-31 88zM24 75q0 27 8.5 63t25 69t41.5 55.5t59 22.5q35 0 60 -21.5t40.5 -52.5t22.5 -66t7 -62q0 -32 -11 -55t-30 -37.5t-45 -21.5t-55 -7q-61 0 -92 25t-31 88z" />
    <glyph glyph-name="perthousand" unicode="&#x2030;" horiz-adv-x="1093" 
d="M573 842q0 -4 -1 -9t-3 -10l-285 -848q-6 -19 -15 -22.5t-35 -3.5q-20 0 -30 2.5t-10 13.5q0 3 1 7.5t3 9.5l283 850q6 18 15.5 21.5t29.5 3.5h7q21 0 30.5 -2.5t9.5 -12.5zM20 539q0 36 6 88.5t23 101t48.5 83t81.5 34.5q33 0 56.5 -15.5t39.5 -41t25.5 -57.5t14.5 -65
t6.5 -64t1.5 -54q0 -41 -6.5 -80.5t-24.5 -71t-49 -50.5t-80 -19q-42 0 -69.5 20t-44 51t-23 68t-6.5 72zM147 693q0 -23 8 -39t25 -16t23.5 13.5t6.5 39.5q0 9 -0.5 21.5t-3.5 24.5t-10 20.5t-19 8.5q-11 0 -17 -8.5t-9 -20.5t-3.5 -24.5t-0.5 -19.5zM433 184q0 36 6 88.5
t23 101t48.5 83t81.5 34.5q33 0 56.5 -15.5t39.5 -41t25.5 -57.5t14.5 -65t6.5 -64t1.5 -54q0 -41 -6.5 -80.5t-24.5 -71t-49 -50.5t-80 -19q-42 0 -69.5 20t-44 51t-23 68t-6.5 72zM560 338q0 -23 8 -39t25 -16t23.5 13.5t6.5 39.5q0 9 -0.5 21.5t-3.5 24.5t-10 20.5
t-19 8.5q-11 0 -17 -8.5t-9 -20.5t-3.5 -24.5t-0.5 -19.5zM770 184q0 36 6 88.5t23 101t48.5 83t81.5 34.5q33 0 56.5 -15.5t39.5 -41t25.5 -57.5t14.5 -65t6.5 -64t1.5 -54q0 -41 -6.5 -80.5t-24.5 -71t-49 -50.5t-80 -19q-42 0 -69.5 20t-44 51t-23 68t-6.5 72zM897 338
q0 -23 8 -39t25 -16t23.5 13.5t6.5 39.5q0 9 -0.5 21.5t-3.5 24.5t-10 20.5t-19 8.5q-11 0 -17 -8.5t-9 -20.5t-3.5 -24.5t-0.5 -19.5z" />
    <glyph glyph-name="guilsinglleft" unicode="&#x2039;" horiz-adv-x="297" 
d="M260 159q0 -21 -12 -35.5t-33 -14.5t-50.5 21.5t-56.5 52.5t-46 64t-19 56q0 21 19 53t47 62.5t58.5 52t53.5 21.5q21 0 30 -13t9 -26q0 -23 -12 -40.5t-27 -34t-27 -34.5t-12 -41t12 -41.5t27 -35t27 -32.5t12 -35z" />
    <glyph glyph-name="guilsinglright" unicode="&#x203a;" horiz-adv-x="297" 
d="M259 303q0 -23 -19 -56t-46 -64t-56.5 -52.5t-50.5 -21.5t-33 14.5t-12 35.5q0 19 12 35t27 32.5t27 35t12 41.5t-12 41t-27 34.5t-27 34t-12 40.5q0 13 9 26t30 13q23 0 53.5 -21.5t58.5 -52t47 -62.5t19 -53z" />
    <glyph glyph-name="Euro" unicode="&#x20ac;" horiz-adv-x="709" 
d="M669 272q0 -62 -21.5 -112.5t-59 -86t-88 -54.5t-108.5 -19q-75 0 -132 33.5t-96.5 87.5t-61.5 121t-26 133q-24 3 -39.5 7.5t-15.5 12.5v43q0 7 14 9.5t22 2.5h20q1 14 3 27.5t5 27.5h-33q-8 0 -19.5 2t-11.5 9v44q0 10 25.5 15t61.5 7q19 52 49.5 98.5t71 81.5t91.5 56
t111 21q37 0 74 -13t66 -37.5t47 -59.5t18 -79q0 -27 -9.5 -50.5t-27 -40.5t-41 -27t-50.5 -10q-10 0 -21.5 1.5t-21.5 6.5t-16.5 13.5t-6.5 23.5l16 61q0 25 -12 34.5t-38 9.5q-43 0 -66 -26.5t-34 -62.5q38 0 61.5 -2t36 -9t17 -19.5t4.5 -33.5q0 -14 -22 -14h-108v-16
v-19.5t2 -19.5h170q26 0 26 -14q0 -24 -6 -37t-24.5 -19t-52 -7.5t-87.5 -1.5q18 -34 47.5 -55.5t74.5 -21.5q33 0 50 19t29.5 42.5t27 42.5t43.5 19q23 0 37 -17t22 -40.5t10.5 -48t2.5 -39.5z" />
    <glyph glyph-name="trademark" unicode="&#x2122;" horiz-adv-x="648" 
d="M251 454q0 38 6 64t13.5 50t14 50t6.5 65q0 19 -5.5 34t-12 29t-12 29t-5.5 33q0 15 6.5 24.5t16.5 14t22.5 6t25.5 1.5q22 0 37.5 -4.5t26.5 -13.5t19.5 -23.5t16.5 -34.5q10 16 20.5 30t23 24t28.5 15.5t38 5.5q10 0 21 -1.5t21 -6t16.5 -12t6.5 -19.5q0 -17 -6 -30.5
t-13 -28t-13 -31.5t-6 -41q0 -29 9 -56t20.5 -53.5t20.5 -53.5t9 -56q0 -52 -24.5 -74t-74.5 -22q-40 0 -61.5 24t-21.5 63q0 23 7.5 45t17 46.5t17 52t7.5 60.5q0 14 -3.5 27t-11.5 13q-11 0 -15 -11t-4 -21q0 -17 3 -32t3 -32q0 -22 -10 -36.5t-27 -14.5q-11 0 -22 11.5
t-11 34.5q0 8 2 27t2 48q0 5 -4.5 15.5t-14.5 10.5t-12.5 -14.5t-2.5 -25.5q0 -29 8.5 -55t18.5 -51t18.5 -50t8.5 -51t-6.5 -42t-18.5 -25.5t-28 -13t-35 -3.5q-42 0 -59.5 23t-17.5 63zM25 456q0 38 11.5 73.5t26 70.5t26 70t11.5 73q0 8 -1.5 17t-11.5 9q-8 0 -9.5 -12.5
t-3 -27.5t-6.5 -27.5t-20 -12.5q-11 0 -16.5 7t-8 17.5t-3 23.5t-0.5 24q0 15 1.5 29t6.5 25.5t16 18t31 6.5h113q16 0 25.5 -7t13.5 -17.5t5 -23.5t1 -26v-51q-2 -21 -15 -21q-16 0 -22 12.5t-9 27.5t-6.5 27.5t-13.5 12.5q-8 0 -9.5 -7.5t-1.5 -14.5q0 -30 10.5 -64
t23 -70.5t23 -74.5t10.5 -75q0 -46 -23.5 -77t-74.5 -31q-46 0 -73 23.5t-27 72.5z" />
    </font>
</defs>
</svg>
