<?xml version="1.0" standalone="no"?>
<!DOCTYPE svg PUBLIC "-//W3C//DTD SVG 1.1//EN" "http://www.w3.org/Graphics/SVG/1.1/DTD/svg11.dtd" >
<svg xmlns="http://www.w3.org/2000/svg" xmlns:xlink="http://www.w3.org/1999/xlink" version="1.1">
<metadata>
Created by FontForge 20200314 at Tue Oct 27 03:48:16 2009
 By Unknown
</metadata>
<defs>
<font id="18thCenturyKurrent-Regular" horiz-adv-x="900" >
  <font-face 
    font-family="18th Century Kurrent"
    font-weight="400"
    font-stretch="normal"
    units-per-em="2048"
    panose-1="2 11 6 3 5 3 2 2 2 4"
    ascent="1638"
    descent="-410"
    x-height="358"
    cap-height="1782"
    bbox="-2035 -2073 3756 3729"
    underline-thickness="0"
    underline-position="0"
    unicode-range="U+0020-20AC"
  />
<missing-glyph horiz-adv-x="793" 
d="M154 256h497v1145h-497v-1145zM113 1447h580v-1236h-580v1236z" />
    <glyph glyph-name=".notdef" horiz-adv-x="793" 
d="M154 256h497v1145h-497v-1145zM113 1447h580v-1236h-580v1236z" />
    <glyph glyph-name="A" unicode="A" horiz-adv-x="1802" 
d="M1316 234q-61 16 -61 117v12q4 18 11 40t26 46q46 48 98 55h12q5 1 10 1.5t10 0.5q42 0 57 -17.5t15 -51.5q0 -23 -10 -47t-25.5 -46.5t-34 -43t-34.5 -36.5q16 0 32.5 4.5t16.5 8.5q42 13 97.5 37.5t130.5 66.5q8 8 12 8l2 -3t4.5 -6t4 -5.5l1.5 -2.5q0 -3 -6 -9
l-123 -246l400 160q20 0 20 -18q0 -5 -8 -13l-652 -257q-4 0 -18 11v12l111 222q-20 -6 -56 -6l-6 -7h-6v-6h-6q-15 -18 -31.5 -33t-30.5 -28h-6l-6 -6q-58 -49 -125 -95t-137.5 -82t-141 -57.5t-136.5 -21.5q-77 0 -142 30.5t-130 95.5h-18l-31 -6l-55 -6h-80l-74 12
l-68 25q-31 12 -51 25t-34 29t-24 37.5t-20 50.5q0 47 13.5 69.5t41.5 40.5q106 69 208 69q55 0 107 -19t102.5 -50.5t99.5 -73t98 -86.5l197 111q77 53 155 107t153 108.5t145 108.5t131 107q102 82 173.5 173.5t116.5 185t65.5 184.5t20.5 172q0 50 -5.5 95.5t-20.5 85
t-41.5 74t-68.5 63.5q-49 25 -109 25q-86 0 -161.5 -25.5t-153.5 -82.5q-86 -62 -150.5 -126.5t-107.5 -126.5t-64.5 -120t-21.5 -107q0 -48 17.5 -81.5t43.5 -55t56 -31t55 -9.5q88 0 198 76.5t238 232.5v6h19v-6h6v-18q-63 -87 -135 -154t-143 -112t-136 -68t-114 -23
q-20 0 -42.5 4.5t-43.5 13t-39 21t-30 29.5h-6q-23 38 -36 71t-13 74q0 68 31.5 141.5t96 149t163.5 152.5t234 152q93 51 175.5 77t160.5 26q66 0 126.5 -19t106.5 -58t73 -98t27 -138q0 -101 -31 -198t-86.5 -190.5t-133 -183t-169.5 -175t-196.5 -166.5t-214.5 -158
q-75 -57 -148.5 -110.5t-146.5 -99.5l-191 -110q110 -89 229 -89q79 0 161 41.5t163 108.5l7 6q16 13 31 26.5t30 29.5zM62 129q31 -43 98 -67l49 -13l25 -6l55 -6h43l62 6l37 6q-32 32 -74.5 71.5t-86.5 74t-87 57.5t-76 23q-43 0 -64 -41v-6q-4 -9 -4 -32q0 -8 2.5 -18
t5.5 -19t5.5 -15.5t2.5 -8.5z" />
    <glyph glyph-name="Adieresis" unicode="&#xc4;" horiz-adv-x="1802" 
d="M1316 234q-61 16 -61 117v12q4 18 11 40t26 46q46 48 98 55h12q5 1 10 1.5t10 0.5q42 0 57 -17.5t15 -51.5q0 -23 -10 -47t-25.5 -46.5t-34 -43t-34.5 -36.5q16 0 32.5 4.5t16.5 8.5q42 13 97.5 37.5t130.5 66.5q8 8 12 8l2 -3t4.5 -6t4 -5.5l1.5 -2.5q0 -3 -6 -9
l-123 -246l400 160q20 0 20 -18q0 -5 -8 -13l-652 -257q-4 0 -18 11v12l111 222q-20 -6 -56 -6l-6 -7h-6v-6h-6q-15 -18 -31.5 -33t-30.5 -28h-6l-6 -6q-58 -49 -125 -95t-137.5 -82t-141 -57.5t-136.5 -21.5q-77 0 -142 30.5t-130 95.5h-18l-31 -6l-55 -6h-80l-74 12
l-68 25q-31 12 -51 25t-34 29t-24 37.5t-20 50.5q0 47 13.5 69.5t41.5 40.5q106 69 208 69q55 0 107 -19t102.5 -50.5t99.5 -73t98 -86.5l197 111q77 53 155 107t153 108.5t145 108.5t131 107q102 82 173.5 173.5t116.5 185t65.5 184.5t20.5 172q0 50 -5.5 95.5t-20.5 85
t-41.5 74t-68.5 63.5q-49 25 -109 25q-86 0 -161.5 -25.5t-153.5 -82.5q-86 -62 -150.5 -126.5t-107.5 -126.5t-64.5 -120t-21.5 -107q0 -48 17.5 -81.5t43.5 -55t56 -31t55 -9.5q88 0 198 76.5t238 232.5v6h19v-6h6v-18q-63 -87 -135 -154t-143 -112t-136 -68t-114 -23
q-20 0 -42.5 4.5t-43.5 13t-39 21t-30 29.5h-6q-23 38 -36 71t-13 74q0 68 31.5 141.5t96 149t163.5 152.5t234 152q93 51 175.5 77t160.5 26q66 0 126.5 -19t106.5 -58t73 -98t27 -138q0 -101 -31 -198t-86.5 -190.5t-133 -183t-169.5 -175t-196.5 -166.5t-214.5 -158
q-75 -57 -148.5 -110.5t-146.5 -99.5l-191 -110q110 -89 229 -89q79 0 161 41.5t163 108.5l7 6q16 13 31 26.5t30 29.5zM62 129q31 -43 98 -67l49 -13l25 -6l55 -6h43l62 6l37 6q-32 32 -74.5 71.5t-86.5 74t-87 57.5t-76 23q-43 0 -64 -41v-6q-4 -9 -4 -32q0 -8 2.5 -18
t5.5 -19t5.5 -15.5t2.5 -8.5zM1876 2775q51 66 107 134t102 143q42 75 76.5 152t52.5 156q0 1 1.5 5t5.5 8t9.5 7.5t14.5 3.5h25q12 0 30 -18v-6q5 0 5 -3q0 -2 -5 -10q-33 -93 -77 -175.5t-95.5 -156t-109 -139t-117.5 -125.5q-17 0 -23.5 5t-6.5 10q0 4 5 9zM2485 3286v-6
q-48 -88 -95 -174.5t-102 -164.5q-108 -166 -234 -301v-6q-5 -5 -9 -5q-7 0 -13 8t-6 13q0 4 4 9q58 67 107.5 142t93.5 154.5t84 163t78 167.5l18 18q0 10 19 19h18q11 0 24 -12t13 -25z" />
    <glyph glyph-name="Agrave" unicode="&#xc0;" horiz-adv-x="1747" 
d="M2244 1230q11 36 11 57q0 16 -2.5 30t-9.5 24t-20.5 16t-35.5 6q-62 0 -170 -53q-5 -5 -13 -6.5t-12 -5.5q-47 -37 -97 -111.5t-105.5 -171.5t-116.5 -207t-130 -218l-6 -12q52 26 112.5 62.5t122.5 79t123 88t116 90.5q83 67 143.5 147t89.5 185zM258 -85q0 -6 -6 -6
l-615 -935q-5 -9 -14 -9q-5 0 -10.5 3t-5.5 9q0 4 5 9l615 941v337l-270 -98q-8 -3 -15 -3q-4 8 -7.5 10t-3.5 4t13 14l431 166l18 12q7 0 19 -12v-154q37 63 129 123q12 6 31 25q14 7 45.5 22t65.5 31t62 29t36 16q18 0 18 -25q-1 -5 -1 -10v-10q0 -26 6 -60t14 -66.5
t16.5 -56.5t13.5 -30q50 31 97.5 61t98.5 62t109.5 66.5t131.5 74.5l86 154q70 115 140.5 219t144.5 194.5t153 166t165 133.5q9 4 15.5 8.5t15.5 10.5q122 78 217 78q37 0 64 -10t43.5 -28t24.5 -41.5t8 -50.5q0 -30 -15.5 -65t-41.5 -72.5t-60 -75.5t-71 -74t-74.5 -69
t-70.5 -60q-137 -112 -295 -215q-57 -37 -115 -70t-113 -65q-75 -121 -144.5 -252t-144.5 -271l658 264q2 1 7 1q3 0 6 -7t3 -12t-3 -6l-689 -276q-185 -336 -408 -647t-558 -478q-116 -62 -201 -62q-38 0 -70 9.5t-56 30.5t-37.5 54t-13.5 81q0 26 5 51.5t18 53t35.5 59.5
t58.5 71q73 79 182 172t242 187.5t283 186.5t305 170q26 60 44 101.5t33.5 74t30.5 61t35 62t47.5 77.5l67.5 108q-57 -33 -102.5 -61.5t-85.5 -53.5t-77.5 -48.5t-78.5 -46.5t-89 -47t-108 -50l-13 -6q-2 -2 -7 -2q-11 0 -22.5 25.5t-21.5 60.5t-18 71.5t-11 59.5
q0 35 -13 35q-4 0 -5 -4q-44 -23 -79.5 -54.5t-65 -67.5t-54 -74t-47.5 -75q-15 -24 -28.5 -42.5t-26.5 -42.5zM953 -165q-180 -97 -340.5 -211.5t-307.5 -250.5q-85 -78 -146 -146.5t-100.5 -128.5t-58 -111.5t-18.5 -96.5q0 -19 5 -39l19 -19q12 -12 26 -13t28 -1
q78 0 155 45q275 149 444 427q85 141 158 275.5t136 269.5z" />
    <glyph glyph-name="B" unicode="B" horiz-adv-x="1390" 
d="M234 806v-6h-25v6l-6 6v6q4 4 5.5 8.5t6.5 9.5q111 291 348 297q17 0 33 0.5t33 0.5q207 0 435 -39l43 -6q49 65 105 129.5t116 123.5t123.5 109.5t128.5 87.5t130 58t128 21q52 0 98 -19t80.5 -49.5t55 -68.5t20.5 -76q0 -37 -15 -74t-54 -83l-18 -18
q-90 -93 -178 -163.5t-177 -118.5t-181 -72.5t-190 -24.5q-123 0 -258 41q-85 -139 -175.5 -250t-187.5 -199q-160 -121 -307 -154q9 -37 14 -82l10 -90q6 -61 21 -112.5t40.5 -92.5t63.5 -72.5t90 -53.5q70 -19 154 -19q88 10 184.5 55t184.5 130q108 94 135 177
q-5 -2 -14.5 -4t-21 -3.5t-23 -2.5t-20.5 -1q-34 0 -57 11.5t-37.5 28t-20.5 36t-6 36.5q0 15 3.5 33.5t12 37.5t22 36.5t33.5 31.5q13 7 50 18q4 0 11.5 -0.5t18.5 -4.5t25 -13t31 -25q44 -65 44 -140v-13t-1 -13l252 99q6 0 18 -13q0 -12 -12 -18l-246 -98q-12 0 -25 -13
q-14 -49 -55.5 -106t-100.5 -111t-130.5 -100t-144.5 -72q-150 -53 -280 -53q-51 0 -102 10.5t-95 27t-78.5 37.5t-52.5 42q-81 73 -81 180v11t1 11q0 85 -1 149.5t-5 115.5q-25 0 -49 6t-44 16t-34.5 23.5t-20.5 28.5v6q-10 13 -10 36q0 19 2 33.5t7.5 26.5t16 22.5
t27.5 22.5q15 15 41 29t54 14q25 0 52 -11t52.5 -37t48.5 -68t41 -105q88 14 173.5 63.5t167 127t158.5 178t147 215.5q-134 43 -251 70.5t-220 38.5q-9 1 -18 1.5t-17 0.5q-175 0 -250 -209zM1144 1076l37 -6q62 -10 110.5 -18.5t91 -14.5t81.5 -9.5t82 -3.5q22 0 42.5 1
t40.5 3q150 14 357 227l13 12q61 61 61 123q0 45 -20 81.5t-52 62t-72.5 39.5t-80.5 14q-50 0 -103 -16t-106.5 -43.5t-106.5 -64.5t-104 -79l-179 -179q-24 -33 -46.5 -63t-45.5 -66zM6 424q0 13 12 13zM128 310q8 -1 14.5 -1.5t11.5 -0.5q-13 51 -22 81.5t-17.5 47
t-18 22.5t-22.5 8q-21 -20 -27 -39.5t-6 -40.5q0 -46 51 -67z" />
    <glyph glyph-name="C" unicode="C" horiz-adv-x="1596" 
d="M160 498l6 -6h12q37 -8 55 -8q5 0 9.5 0.5t9.5 1.5q0 52 -2.5 98.5t-11 81.5t-25.5 55t-46 20q-26 0 -62 -15h-7l-6 -6h-6v-7h-12v-6h-6v-6h-6v-6h-7v-6h-6v-6h-6v-13h-6v-18h-6v-12l6 -7v-18q18 -37 47 -70t76 -47zM1335 111l424 166q6 0 18 -13q0 -6 -12 -18l-418 -166
q-78 -31 -155 -63t-156 -67q-98 -45 -200 -67.5t-204 -22.5q-83 0 -148.5 26t-112 74t-73.5 117.5t-34 156.5q-9 55 -10.5 109.5t-1.5 105.5h-31h-6v6h-24h-13v6h-18l-6 6q-108 36 -148 136v24h-6v25v6h6v25h6v12h6v6h7v6l6 6v7h6v6h6l6 6h6v6h7v6h12v6h12v6h12
q63 27 118 27q167 0 227 -254q72 27 144 61t126 80q142 120 142 330q0 19 -1.5 37.5t-1.5 37.5q0 85 30 160t92.5 139t159.5 117.5t231 95.5h6l13 6q7 0 12 -3.5t7.5 -7.5t3.5 -8t1 -5q0 -7 -18 -7l-12 -6h-7q-76 -24 -128 -48t-86.5 -50t-54 -54t-29 -60t-11.5 -68t-2 -77
q0 -30 1.5 -59t4 -52t4 -38.5t1.5 -19.5q0 -221 -206 -338q-110 -63 -213.5 -111t-202.5 -83q17 -128 39.5 -229.5t63.5 -171.5t107.5 -107t171.5 -37q57 0 123 16.5t133 40.5t131 51.5t117 49.5zM1697 1771h7q4 4 9 4t9 -4l6 -6v-6q15 -259 178 -259q88 0 214 68t297 209
q5 5 11 5t10.5 -4t4.5 -9q0 -1 -0.5 -2t-0.5 -2v-6h-7q-95 -103 -189 -172t-181.5 -110.5t-166 -59t-141.5 -17.5q-28 0 -57.5 8.5t-54 26t-40 44.5t-15.5 64q0 100 107 228z" />
    <glyph glyph-name="D" unicode="D" horiz-adv-x="1521" 
d="M910 990q-12 -26 -12 -49q12 -24 24.5 -37.5t23 -20t17.5 -8.5t9 -2q34 -15 77 -15q32 0 70 9v6h6v50v30l-12 43l-6 13l-12 18l-25 19l-12 6l-34 4l-34 -4l-31 -13l-30 -24zM1328 1593v6h-6l-6 6q-68 38 -147 38q-32 0 -81 -12t-104 -43.5t-111.5 -86.5t-103.5 -142
q-29 -49 -52.5 -103.5t-40.5 -112t-26.5 -116.5t-9.5 -116q0 -45 5.5 -88t18.5 -85q84 -273 283 -289q114 169 160 344q-27 -7 -66 -7q-33 0 -65.5 7t-58.5 24t-42 44.5t-16 68.5q0 10 1.5 22t7.5 26.5t19 32.5t36 41l18 12l37 18l31 7h24l31 -7l18 -6l19 -12l24 -25l7 -12
l18 -49l6 -49v-56q24 10 46.5 19.5t44.5 22.5t44 31t44 44q7 11 16 28t20 40h7q30 70 55 148.5t25 159.5q0 69 -28.5 127t-101.5 100zM1728 793h6v7h6v-7h7v-6h6v-12h-6v-6q-119 -94 -228 -161.5t-209 -112.5t-190.5 -69.5t-172.5 -31.5l-12 -19q-167 -223 -406 -363v-6h-6
q-46 -26 -101.5 -54t-116.5 -51.5t-125.5 -38.5t-128.5 -15q-48 0 -95 8.5t-93 28t-90 52.5t-86 82l-18 25q-37 43 -77 83t-80.5 71t-80 49.5t-75.5 18.5q-106 0 -265 -105q-19 0 -22 7.5t-3 10.5q0 5 6 13q132 82 239 127t204 45q103 0 191 -47t166 -144
q81 -100 184.5 -150.5t221.5 -50.5q119 0 232 60v6q239 136 400 357q-81 0 -152.5 21t-129 62t-99 102t-62.5 141q-17 62 -17 125q0 93 29 190.5t79 189.5t117 173.5t143 142.5t156.5 96.5t157.5 35.5q8 1 15.5 1h15.5q90 0 172 -44l6 -6h6q141 -89 141 -257q0 -85 -26 -168
t-60 -153q0 -19 -18.5 -48.5t-47.5 -61.5t-65 -62t-72 -50q-14 -5 -28 -9.5t-27 -8.5q-48 -192 -160 -357h6q129 0 309 86.5t429 257.5z" />
    <glyph glyph-name="E" unicode="E" horiz-adv-x="854" 
d="M0 111h-11v6h-6v18h6v6q207 80 300 80h31q72 106 147 208.5t154 203.5q-67 -36 -136 -70.5t-141.5 -70.5t-149 -74t-157.5 -80q-19 0 -25 13q0 12 6 18q104 54 191.5 97.5t167 83.5t155.5 79t157 84q142 175 308 354.5t362 371.5l25 22q57 48 97 74.5t70.5 39t54.5 15
t50 2.5q27 0 52 -7t45 -23q26 -38 26 -69q0 -25 -17 -54.5t-42 -59t-53 -55.5t-50 -45l-24 -24q-95 -88 -198.5 -165.5t-213.5 -148t-226 -134.5t-235 -124q-97 -129 -183.5 -250t-149.5 -242q8 -13 11 -28.5t5.5 -31.5t6.5 -31t15 -27t31 -19t53 -7q29 0 63.5 5t67.5 10h18
v-25h-6v-6q-19 -6 -48.5 -16.5t-65.5 -23.5t-74.5 -26.5t-75.5 -24.5t-69.5 -18t-54.5 -7q-18 0 -30 6q-127 -264 -191.5 -492.5t-64.5 -424.5q0 -337 188 -534q18 -23 43.5 -42.5t48.5 -37.5q151 -96 325 -96q256 0 426 126h6l12 13h6l25 24h6v6h6v7h6l6 12h7
q112 100 166 204t54 207q0 79 -28.5 140t-70.5 103t-91.5 64.5t-91.5 25.5q-124 0 -295 -117l-6 -6h-6v-6h-7v-6h-6l-6 -6h-6v-7q-3 -3 -8 -3q-2 0 -11.5 5t-9.5 12q0 6 11 11v6h6v6h6l6 7h6v6l12 6q109 70 198.5 109t177.5 45q56 0 111 -18.5t98.5 -56.5t70.5 -96.5
t27 -138.5q0 -59 -19 -124.5t-57 -133.5t-94 -138t-131 -137h-6v-6h-7l-24 -25l-6 -6h-6l-13 -12q-48 -35 -114 -67.5t-144 -58t-163 -41t-170 -15.5q-66 0 -137.5 10t-142 32.5t-135.5 60t-118 91.5q-78 80 -115 187t-37 247q0 229 102 511t301 623l25 36q0 14 -6.5 33
t-20 36.5t-34.5 29.5t-50 12q-43 0 -74 -12zM1384 1421q-173 -169 -319.5 -331.5t-277.5 -320.5q92 51 180 105.5t173.5 116t169 131.5t166.5 151q36 39 65 66.5t49.5 50t31.5 41.5t11 40q0 4 -2.5 13.5t-8.5 19t-17 17t-27 7.5q-21 0 -48 -7q-29 -6 -146 -100z" />
    <glyph glyph-name="F" unicode="F" horiz-adv-x="1416" 
d="M1574 277q21 0 21 -18q0 -5 -8 -13q-87 -33 -182.5 -75.5t-192.5 -85t-192.5 -80t-183.5 -59.5q-85 -136 -178.5 -255t-196.5 -231t-226.5 -231.5t-263.5 -233t-293 -214.5t-314 -177.5t-327.5 -121t-333.5 -44.5q-102 0 -180.5 18.5t-132.5 50.5q-212 -162 -406 -246
h-19v24h6v6q39 17 83.5 43.5t91 59.5t93 69.5t89.5 73.5q-79 60 -116.5 136.5t-37.5 173.5q0 139 80 311v7q56 96 115 163t115.5 109t107.5 61t92 19q37 0 76 -20t71 -58t52.5 -92.5t20.5 -124.5q0 -77 -30.5 -157.5t-84.5 -161t-128 -159t-161 -151.5q63 -26 144.5 -44
t177.5 -18q480 0 872 299q200 152 365 317.5t299 349.5q73 100 137 203t126 209q-17 0 -37.5 2t-40.5 6.5t-38 13t-31 21.5q-10 -9 -16 -18.5t-14 -18.5q-48 -55 -109.5 -106.5t-130.5 -102.5q-5 -5 -12 -5q-8 0 -13 5q0 18 7 24q79 57 143.5 116t119.5 124q-18 22 -29 38.5
t-17 33.5t-8 38.5t-2 53.5q0 29 15 53.5t47 33.5h19q61 0 80 -49v-12q0 -37 -12 -71t-25 -71q19 -6 35 -9.5t32 -5.5t35 -2.5t45 -0.5q96 175 181.5 354t181.5 359q-18 -14 -36 -24.5t-32 -18.5q-153 -91 -308 -172.5t-318 -159.5q-20 0 -20 15q0 8 8 16q149 70 302.5 151
t317.5 175q27 18 58 36.5t59 37.5q54 92 108 171t111.5 153t120.5 147t134 152q52 58 119.5 121t141.5 115.5t151.5 86.5t149.5 34q24 0 42 -2.5t30 -10t18 -22t6 -38.5v-10.5t-1 -11.5v-6q-34 -68 -73 -123.5t-84 -102t-95.5 -85.5t-106.5 -73q-36 -22 -74 -49.5t-74 -54.5
t-67 -49.5t-53 -34.5q-57 -46 -115 -88t-112 -78q-59 -108 -110 -213t-94 -197.5t-76 -166t-55 -116.5q-47 -92 -102 -180q82 20 168 48t173 60t171.5 66t163.5 66zM1630 1162q19 15 46 35t57.5 42.5t62 45.5t59 45t49.5 40.5t33 31.5q12 14 36 46t47.5 70t41 77t17.5 67
q0 15 -4 30t-25 15q-12 0 -28.5 -4t-33 -9t-30.5 -11t-21 -10q-146 -51 -262 -221q-58 -85 -106 -155.5t-87 -127.5q-28 -48 -56.5 -97t-60.5 -100q67 45 133 91.5t132 98.5zM-1567 -1364q76 76 134.5 146.5t102 139t73 134.5t46.5 133q12 48 12 95q0 28 -6 63.5t-19 67
t-33.5 53t-49.5 21.5q-25 0 -55.5 -10.5t-59 -24.5t-51.5 -28t-33 -22q-113 -80 -209 -258q-33 -99 -33 -185q0 -109 46.5 -191.5t134.5 -133.5z" />
    <glyph glyph-name="G" unicode="G" horiz-adv-x="1887" 
d="M1335 1593h18v-12h6v-7h-6v-12h-6q-28 -14 -59 -24t-58 -19q-60 -28 -110.5 -53.5t-86.5 -57.5l-55 -55q-67 -76 -92 -197q-12 -31 -32 -68.5t-50.5 -76.5t-72.5 -76t-96.5 -66t-123 -46.5t-152.5 -17.5q-42 0 -94 6t-124 25h-18v7h-18q-10 7 -10 15q0 5 2.5 11.5
t7.5 6.5q4 0 12 -3h12l6 -6h13l18 -6q49 -14 95 -17.5t86 -3.5q150 0 209 89q35 54 60 104t42 99q3 9 5 21t7 22v6q31 76 77.5 130.5t109.5 86.5q81 40 171 78.5t190 67.5v6l55.5 18.5t61.5 24.5zM1630 111l418 166q6 0 18 -13q0 -12 -6 -18l-412 -160q-75 -33 -147.5 -59.5
t-141.5 -62.5l-67 -37q-44 -61 -87 -123t-92 -129.5t-106 -144t-130 -166.5q-72 -89 -159 -181t-183.5 -174t-201 -147.5t-210.5 -102.5h-6q-24 -6 -40 -9.5t-27 -5t-18 -2t-14 -0.5q-55 0 -103 14.5t-83.5 38t-56 52.5t-20.5 59v6q-1 3 -1 14q0 46 30 101.5t87.5 115
t141 121.5t190.5 122l12 12h6q223 130 447 247.5t451 232.5q82 160 180 369l195 417q45 99 90.5 197t88.5 186.5t80.5 162.5t66.5 125q-18 0 -36.5 -3.5t-36.5 -3.5q-13 7 -43 7q-4 -7 -8.5 -16l-10.5 -21q-8 -9 -16 -19.5t-15 -23.5v-7q-115 -200 -239.5 -376t-264.5 -325
q-135 -154 -281 -274.5t-303 -223.5h-6l-6 -6q-75 -44 -117 -48q-54 -19 -107 -19q-56 0 -106.5 17.5t-88.5 53.5t-60.5 90.5t-22.5 128.5q0 25 3 54.5t7 59.5t9 57.5t9 48.5q9 63 17.5 110.5t8.5 82.5q0 29 -9.5 48.5t-43.5 19.5q-61 0 -193 -64h-19v6h-6v18h6v6h6
q81 39 157.5 63.5t143.5 24.5q43 0 74.5 -15t52.5 -41.5t31 -63t10 -79.5q0 -44 -9 -97t-20 -107t-20 -105t-9 -91q0 -37 5.5 -70t20.5 -58.5t41.5 -40.5t68.5 -15q28 0 62 14.5t85 41.5h6v6q304 187 585 486q274 313 492 701q26 40 30 49l19 31q-23 9 -44 29t-37.5 48.5
t-26.5 65t-10 78.5q0 25 7.5 48t17.5 42.5t20.5 34.5t16.5 23q25 24 62 24h37l29 -14.5t22 -20t14 -37.5t5 -67q0 -72 -18 -128.5t-46 -107.5h31q4 -1 8.5 -1.5t11.5 -0.5q63 0 145.5 34t184.5 91q7 7 13 7q2 0 6 -8.5t4 -13.5t-4 -9q-77 -86 -135.5 -180.5t-110.5 -201
t-104 -226.5t-115 -256t-144 -289.5t-191 -327.5l25 12q69 31 138.5 57t144.5 59zM1095 -171q-218 -112 -433 -223t-428 -238q-80 -48 -142 -107t-104 -120t-64 -118.5t-22 -102.5q0 -47 12 -75t28 -43t32.5 -20t25.5 -5h43q18 0 68 12q248 84 445 311q126 145 225 273
t185 241q27 35 58.5 89t70.5 126z" />
    <glyph glyph-name="H" unicode="H" horiz-adv-x="1711" 
d="M209 -706q-42 -55 -70 -109t-28 -100q0 -15 4 -33.5t14 -34t26.5 -26t41.5 -10.5q26 0 57 11t66 31v6q12 6 22 13.5t21 17.5q69 60 150.5 143.5t166 180.5t166 203t150.5 211q14 24 27 43t23 37q-99 -57 -208 -119t-235 -134q-247 -142 -394 -331zM1273 37l597 240
q6 0 18 -13q0 -12 -6 -18l-634 -246q-87 -135 -189.5 -267t-214 -255.5t-227.5 -235.5t-230 -207h-6q-19 -19 -43 -30v-6q-63 -38 -115 -58t-103 -20q-45 0 -69 16.5t-35.5 39t-13.5 44.5t-2 33q8 70 33.5 129t66.5 110t96.5 96.5t123.5 88.5q190 117 378.5 231.5
t383.5 229.5q39 69 73 136.5t59.5 131.5t41 123.5t17.5 112.5q2 25 3 56.5t1 69.5q0 39 -6.5 76.5t-21.5 66.5t-40 47t-61 18q-46 0 -121 -39q-68 -36 -128 -77t-115.5 -91.5t-109 -112t-108.5 -137.5q6 -6 18 -6q46 -27 46 -78q0 -27 -7.5 -51.5t-19 -44.5t-24.5 -34
t-25 -20h-7q-12 -12 -49 -12q-17 8 -26 16t-13.5 16.5t-5.5 17t-1 17.5q0 15 5.5 32.5t14 36.5t18.5 39l20 40l-12 -6q-47 -6 -95.5 -21t-95 -35t-89 -44t-77.5 -48v-6h-18v6h-6v19q90 134 168 265.5t152.5 259.5t150.5 252t162 244q91 127 189 243.5t210.5 213.5
t244.5 169.5t291 111.5q41 5 85.5 11t76.5 6q51 0 104.5 -12.5t99 -37.5t77 -63t37.5 -89q5 -18 6.5 -36t1.5 -37q0 -48 -14 -99q-26 -93 -72.5 -165t-107.5 -125.5t-134.5 -91t-152.5 -62.5q-52 -16 -99.5 -30.5t-84.5 -25.5t-59 -18l-22 -7q-6 0 -6 15q0 12 43 30
q104 27 193 58.5t160.5 82.5t125 130.5t87.5 202.5q19 58 19 122q0 111 -58 168t-158 57q-81 0 -161.5 -20t-152.5 -52.5t-132.5 -74.5t-102.5 -86q-194 -204 -380 -495q-56 -76 -99 -148t-79.5 -143t-69.5 -141t-68 -141t-74.5 -144.5t-89.5 -150.5q43 13 68 13q12 6 37 6
q36 55 78.5 108t93.5 101q41 47 101.5 99.5t130.5 96t145 72t147 28.5q50 0 88 -12.5t65 -33t45 -45.5t28.5 -49.5t15 -46.5t4.5 -35v-9.5t-1 -9.5q-18 -241 -185 -529z" />
    <glyph glyph-name="I" unicode="I" horiz-adv-x="748" 
d="M-762 -1124q42 27 80 58.5t74 64.5q96 87 198 191.5t204.5 223t204.5 249t198 270.5q-95 -53 -203 -116t-220.5 -132t-225 -142t-215.5 -145.5t-192 -143.5t-154 -135.5t-102.5 -122t-37.5 -102.5q0 -26 12.5 -48t34.5 -37.5t51 -24.5t61 -9t67.5 9.5t72.5 29.5
q25 14 47 28.5t45 26.5v7zM381 886l19 6l8 -5l4 -8v-12l-6 -6q-138 -129 -240 -166q-95 -45 -169 -45q-26 0 -56.5 10t-57 33t-44.5 59.5t-18 89.5q0 127 41.5 240t132.5 225q86 105 183 192.5t199 150t205.5 97.5t202.5 35q100 0 175 -41.5t110 -129.5q28 -55 28 -126
q0 -57 -16 -114q-212 -635 -621 -1230q9 -5 18.5 -8.5t24.5 -3.5l6 -6v-18l-6 -7l-117 -61l-12 -25q-211 -284 -450.5 -542t-513.5 -496q-42 -32 -79.5 -63.5t-74.5 -59.5v-6q-78 -60 -152 -84.5t-155 -24.5q-43 0 -83 9t-71 27t-50 43.5t-19 58.5q0 53 51 122t137 146.5
t198.5 160t235 164t247 157.5t234.5 140q118 69 220 127t190 109q14 14 29 35.5t32 50.5q-49 0 -74 20t-25 48q0 49 75 129l6 6h6q6 0 12 -6v-6q13 -46 62 -92q163 265 295.5 543.5t220.5 569.5q18 85 18 155q0 62 -15 114.5t-43.5 90.5t-70 59t-93.5 21q-36 0 -78.5 -14.5
t-84.5 -35t-79.5 -43.5t-63.5 -40q-92 -60 -170.5 -134t-148.5 -168q-130 -175 -130 -384q0 -47 11 -86t30.5 -67.5t47.5 -44.5t63 -16q32 0 82 15q45 27 103 66.5t124 99.5z" />
    <glyph glyph-name="J" unicode="J" horiz-adv-x="864" 
d="M-466 -958l30 30q227 213 423.5 424.5t363.5 436.5l-965 -547q-102 -67 -178 -142.5t-127 -147.5t-76.5 -134t-25.5 -102q0 -33 13 -52l7 -6q19 -27 73 -27q39 0 93 20t135 68q23 11 49 29.5t55 44.5h7l12 12h6v6h6l12 13l13 6v6l6 6h6v6h6l13 13h6v6h6v6l6 6h6v6h6v6h6
v7h7zM240 1027l6 6l14 -3l7 -6l2 -4v-9l-5 -9q-188 -194 -338 -194q-64 0 -106.5 23t-67.5 58t-35 76.5t-10 79.5q0 45 12 95.5t37 104t64.5 109t94.5 110.5q57 62 124 117.5t134.5 98t129.5 70.5t109 34q13 2 25 3t24 1q81 0 129 -48q5 -5 9.5 -12.5t9.5 -11.5
q18 -24 30.5 -38t21.5 -21t16 -9t14 -2q31 0 90 33q117 58 218 58q27 0 65.5 -6t74 -26t60.5 -59.5t25 -105.5q0 -14 -1 -29t-5 -29q-92 -369 -251.5 -695t-369.5 -621q7 -1 13.5 -1.5t13.5 -0.5q60 0 132 33h13q9 -7 11 -8.5t2 -4.5q0 -4 -1 -8.5t-6 -9.5l-301 -166
q-200 -254 -422 -488.5t-463 -457.5v-6l-19 -13l-12 -18h-6l-12 -12h-6v-6h-7v-7h-6v-6h-6v-6h-6v-6h-6l-12 -12h-7v-7l-6 -6q-9 -9 -25.5 -22t-35.5 -21l-19 -18q-47 -34 -95 -63.5t-95.5 -51t-93.5 -34t-88 -12.5q-26 0 -45.5 4.5t-35 13t-29 21.5t-28.5 30v6
q-16 25 -16 62q0 46 29.5 106t90 130.5t154 149t222.5 161.5l1032 584q13 17 30 39t31 46q-62 0 -80 37q-23 49 -45.5 72t-50.5 23q-36 0 -107 -40q-2 -2 -5 -2q-2 0 -9 4t-7 9q0 11 3 14q31 27 58.5 45.5t53.5 30t52.5 17t56.5 5.5q52 -8 80.5 -28t48.5 -58v-6
q4 -3 8.5 -7.5l10.5 -10.5q170 262 298.5 560.5t211.5 644.5q15 79 15 141q0 34 -8.5 63t-23 49.5t-34 32t-40.5 11.5q-19 0 -36.5 -1.5t-35.5 -6t-38.5 -12t-44.5 -19.5q-34 -13 -67.5 -37t-66.5 -47.5t-66 -41t-64 -17.5q-56 0 -80 69q-14 22 -27 39t-28 28t-34.5 16.5
t-46.5 5.5q-72 0 -169 -54.5t-211 -169.5q-82 -84 -118 -172t-36 -172q0 -48 14.5 -89t40 -70t60 -45.5t75.5 -16.5q60 0 128 35.5t143 117.5z" />
    <glyph glyph-name="K" unicode="K" horiz-adv-x="2375" 
d="M1544 1132q75 120 165 230t198 212q-42 9 -88 11t-97 2q-88 0 -177 -15.5t-167 -33.5q-48 -15 -95.5 -32t-89.5 -30h-6q-156 -52 -292.5 -115t-251 -132.5t-205.5 -144.5t-156 -151q-70 -82 -117.5 -156.5t-76.5 -142.5t-41.5 -129.5t-12.5 -116.5q0 -58 19.5 -112.5
t60 -97t102 -68t145.5 -25.5q104 0 201.5 25t187 72t169 115.5t147.5 154.5q115 147 226.5 304.5t220.5 332.5zM3020 2011q-92 0 -184.5 -15.5t-183 -44t-176.5 -69.5t-164 -92q-105 -72 -215 -173q73 -15 129.5 -51t95.5 -84.5t59 -106t20 -115.5q0 -107 -62.5 -210.5
t-176 -204.5t-272.5 -198.5t-352 -191.5q42 9 77 9q81 0 124.5 -39.5t50.5 -123.5q2 -69 13 -114.5t29.5 -73.5t43.5 -39.5t55 -11.5q34 2 69.5 10.5t71 20.5t69.5 26.5t67 28.5l344 135q8 8 13 8l2.5 -4t5 -9l4.5 -9t2 -5q0 -6 -14 -6l-345 -135q-52 -21 -109 -47
t-114 -49.5t-112.5 -39t-104.5 -15.5q-40 0 -73 9t-60.5 30t-50 54.5t-40.5 82.5q-14 27 -20.5 58t-10.5 58q-5 23 -9.5 47.5t-8.5 39.5q-13 23 -32 31.5t-48 8.5q-6 0 -10 -0.5t-11.5 -3t-19.5 -7t-33 -11.5v-6h-12v6h-6v6q-10 9 -10 13q0 6 16 6l24 12q218 106 379 204.5
t267 201.5q181 190 181 397q0 120 -48 201t-133 121q-81 -85 -164 -190t-168 -234q-62 -94 -126.5 -186.5t-133 -180.5t-140 -169.5t-147.5 -152.5q-88 -85 -181.5 -152.5t-190 -115t-195 -72.5t-196.5 -25q-66 0 -131.5 17t-117.5 55.5t-84.5 101t-32.5 154.5
q0 84 28.5 187t96 214.5t180.5 226t282 221.5q115 73 260 145t331 132q35 14 116.5 37t196.5 55q106 23 195.5 37.5t173.5 14.5q68 0 130 -9q179 152 391.5 247t444.5 134h6q55 9 110 14.5t112 10.5q19 19 67 55q5 5 9 5t14 -4.5t10 -6.5q0 -4 -8 -12q-71 -137 -71 -229
q0 -41 14.5 -78t44 -65t73 -44t101.5 -16q85 0 190.5 32t231.5 105q10 10 14 10q3 0 6 -10t3 -15q0 -6 -4 -10q-172 -108 -320 -155t-269 -47q-64 0 -115.5 14.5t-88 39.5t-56.5 59.5t-20 74.5q0 63 34 127t103 133z" />
    <glyph glyph-name="L" unicode="L" horiz-adv-x="1365" 
d="M43 923q0 -12 -5.5 -22t-5.5 -22q0 -20 6.5 -41t22.5 -40.5t43 -36.5t68 -29h25q-15 61 -28.5 103.5t-27 69t-28.5 38.5t-34 12q-1 0 -6.5 -1t-12 -4t-12 -8t-5.5 -13v-6zM1292 185l239 92q6 2 5 2q6 0 14 -8q0 -19 -12 -19l-228 -92q-68 -26 -130.5 -55t-127.5 -53
t-135.5 -40t-153.5 -16q-78 0 -149.5 18.5t-133 60.5t-111.5 111t-86 171q-15 27 -25.5 78.5t-23.5 111.5q-5 37 -13 74t-12 74q-18 6 -43 6q-47 12 -78.5 33t-51 46t-27.5 51t-8 48q0 15 5.5 31.5t5.5 24.5q17 51 56 80v6q19 16 50 29.5t66 13.5q113 0 164 -84
q26 -45 45.5 -92t30.5 -101q46 27 100.5 78t116.5 131.5t131 194.5t144 267q28 64 74 129q-124 71 -197 153q-50 40 -61 99v6q-4 15 -4 30q0 35 20.5 69.5t61 65t100 56.5t136.5 44h12v-7h6v-24h-6q-114 -47 -114 -101q0 -18 15 -48t39 -62.5t54 -63.5t61 -51
q53 66 122.5 122.5t152 97.5t176.5 64t197 23q48 0 79 -9.5t54 -39.5q29 -30 41 -64.5t12 -73.5q0 -94 -60 -158.5t-159 -103.5q-219 -101 -410 -101q-75 0 -147 14.5t-150 49.5q-20 -27 -40 -60.5t-40 -74.5q-139 -279 -265.5 -450t-244.5 -233q0 -31 12 -67q0 -32 12 -92
q35 -148 82.5 -247.5t106.5 -160t128.5 -86t147.5 -25.5q48 0 96 10.5t94.5 26t92 34.5t89.5 36zM1138 1734q42 -36 91.5 -60t100.5 -39t100.5 -21t92.5 -6q37 0 69.5 4t63.5 12t62 20t66 29v6q34 16 59.5 39.5t41.5 50t24 53.5t8 50q0 30 -9 59.5t-32 61.5q-36 25 -61.5 31
t-54.5 6q-102 0 -191.5 -23.5t-167.5 -63.5t-143.5 -94t-119.5 -115zM62 984l18 -12q-6 12 -18 12z" />
    <glyph glyph-name="M" unicode="M" horiz-adv-x="3107" 
d="M2786 1107l31 31q6 12 6 37q0 9 -9 16.5t-21.5 13t-25.5 8t-21 2.5q-22 0 -47.5 -3t-35.5 -7q8 -110 80 -110q19 0 43 12zM2903 135l369 142q8 8 12 8q2 0 5 -5t3 -14q0 -6 -8 -14l-375 -147q-56 -22 -97.5 -41t-76.5 -35.5t-68.5 -32t-72.5 -29t-87.5 -26.5t-114.5 -26
q-23 -5 -45.5 -6t-42.5 -1q-92 0 -159.5 30t-111.5 82t-65.5 121.5t-21.5 148.5q0 90 28 189t84 202t141.5 206.5t199.5 201.5l6 6q18 13 33.5 23.5t33.5 25.5q-47 71 -47 146q0 28 3.5 57.5t3.5 52.5q0 55 -8.5 88.5t-23.5 51.5t-36 24t-46 6q-62 0 -153.5 -50t-227.5 -161
l-6 -6q-5 -28 -10 -59.5t-14 -63.5q-33 -112 -93 -247t-142 -277t-184.5 -282.5t-220.5 -263.5q-27 -43 -64 -78.5t-76 -61t-76 -39.5t-63 -14q-21 0 -42 7.5t-37.5 21.5t-27 35t-10.5 48q0 69 61.5 180.5t175 256.5t272.5 319.5t354 369.5q8 48 12.5 87t4.5 71
q0 69 -17 107.5t-49 60.5q-60 51 -146 51q-58 0 -113.5 -16.5t-106.5 -45.5t-97 -67.5t-84 -81.5q-24 -124 -85.5 -268.5t-155.5 -300.5t-218 -319t-273 -323q-48 -48 -88 -83.5t-74.5 -59t-66 -35t-62.5 -11.5q-19 0 -38.5 5.5t-36 17.5t-27 31t-10.5 46q0 58 46 143.5
t126.5 192t188.5 229.5t233 256l12 6l6 12q78 78 156.5 152.5t157.5 149.5q12 57 18.5 104t6.5 83q0 84 -39 124.5t-109 40.5q-47 0 -95.5 -14t-113.5 -56q-57 -37 -118.5 -88.5t-121.5 -120.5h-6v-6h-7q-5 -5 -9 -5q-6 0 -15 4.5t-9 6.5q0 4 9 13l12 12q74 81 149.5 149.5
t150.5 119t148.5 78.5t143.5 28q82 0 152 -43q4 -5 9 -9.5t10 -8.5q53 -47 53 -141q0 -13 -1 -27t-3 -29q67 67 135.5 116.5t136 82t132 48.5t122.5 16q57 0 108.5 -17t97.5 -49q62 -65 62 -189v-16.5t-1 -16.5q183 151 327 221t248 70q78 0 117.5 -52t39.5 -140v-7
q-4 -57 -6.5 -105.5t-2.5 -87.5q0 -37 3 -65q9 4 22 5.5t27 6.5q37 0 72 -7t57 -29v-7q8 -8 11.5 -19.5t3.5 -22.5q0 -16 -15 -38v-6q-16 -30 -37 -37q-24 -24 -60 -38t-78 -14q-48 0 -93.5 21.5t-81.5 67.5q-19 -14 -34.5 -24.5t-33.5 -24.5v-6q-64 -55 -116.5 -138.5
t-89.5 -179.5t-57.5 -197t-20.5 -191q0 -87 19.5 -155.5t56 -116t90 -72.5t121.5 -25q61 0 120.5 14t118 35t118 47t120.5 50zM1728 1150q-69 -66 -136.5 -131t-127.5 -140q-125 -137 -215 -250t-147.5 -204t-85 -161t-27.5 -121q0 -37 13 -63q0 -16 12 -20.5t32 -4.5
q16 0 37.5 4t47 17t53.5 37.5t58 64.5q73 94 135.5 190.5t114.5 191t94 186t75 177.5q22 64 37.5 120t29.5 107zM916 1156q-69 -66 -140.5 -133.5t-135.5 -136.5l-13 -7l-6 -12q-122 -126 -215.5 -236.5t-157 -203t-96 -166t-32.5 -125.5q0 -19 3.5 -36.5t17.5 -31.5
q5 -5 13.5 -6.5t17.5 -6.5q21 0 59 14t83 48l38.5 38.5t28.5 29.5q106 128 192.5 257.5t153 254t114 241t75.5 218.5z" />
    <glyph glyph-name="N" unicode="N" horiz-adv-x="2415" 
d="M2097 1304q-6 -20 -6 -43q8 -74 68 -74q8 0 18.5 6t20.5 14t17.5 16t10.5 13q13 12 13 31q0 12 -11 20t-26 13.5t-30 7.5t-23 2q-10 0 -22 -1.5t-30 -4.5zM2202 129l375 148q6 0 18 -13q0 -12 -12 -18l-363 -141q-85 -34 -171 -78t-174.5 -83t-179.5 -65.5t-185 -26.5
q-85 0 -151 27t-117 91q-48 48 -69 111.5t-21 126.5q0 78 25.5 160t70.5 166t107 167.5t134 164.5q37 42 118 121.5t207 199.5q54 44 99 74q-11 32 -17.5 71.5t-6.5 85.5q0 27 3.5 57.5t3.5 59.5q0 160 -135 160q-50 0 -118.5 -22t-149 -64.5t-171 -105.5t-184.5 -144
q-35 -107 -105 -270q-51 -112 -118 -232t-146.5 -239.5t-171 -234.5t-191.5 -217q-52 -50 -93 -86.5t-75.5 -60.5t-65 -36t-60.5 -12q-18 0 -37.5 5.5t-35.5 18t-26.5 31.5t-10.5 46q0 60 46.5 146.5t126 191.5t184.5 223.5t222 241.5q55 58 100.5 103t87 84t80.5 75t80 75
q19 87 29 159.5t10 129.5q0 103 -33 147q-23 23 -43.5 37.5t-39.5 22.5t-37 11t-36 3q-42 0 -92.5 -20.5t-104 -59t-106 -93.5t-99 -124t-84 -150.5t-59.5 -173.5v-6h-6v-6h-25v18q12 82 49.5 169t92 170.5t123 158t142 130t148.5 88.5t143 33q43 0 90 -13.5t86 -46.5
t64.5 -87t25.5 -135q0 -35 -4.5 -74.5t-12.5 -84.5q102 90 212 161.5t214.5 120.5t198.5 75t165 26q97 0 143.5 -45.5t46.5 -124.5q0 -8 -0.5 -17t-1.5 -18l-12 -80q-5 -51 -10 -96.5t-9 -81.5l8 3q14 2 25.5 3t22.5 1q36 0 60 -10.5t38.5 -24t20.5 -25.5t6 -16
q0 -5 -3 -15.5t-10 -23t-19.5 -26.5t-31.5 -26q-11 -11 -25.5 -19.5t-29 -13.5t-26 -7.5t-17.5 -2.5q-27 -8 -45 -8q-23 0 -45 9t-41.5 23.5t-35 33.5t-24.5 40q-44 -22 -98.5 -73.5t-112 -124t-114 -161.5t-103 -185t-78.5 -195t-42 -191q-2 -7 -2 -13v-13q0 -66 15.5 -118
t54.5 -94q0 -6 3 -7.5t3 -5.5q45 -48 96.5 -65.5t117.5 -17.5q67 0 138.5 17.5t141.5 42.5t135.5 53t121.5 50zM910 1156q-43 -41 -98 -93.5t-120 -117.5t-138.5 -144.5t-152.5 -174.5q-137 -165 -209 -288t-72 -202q0 -40 13 -57t39 -17q23 0 47 6t49.5 20t53.5 38t59 59
q82 93 154 194t131.5 203.5t107 204.5t81.5 197q20 51 33.5 94t21.5 78z" />
    <glyph glyph-name="O" unicode="O" horiz-adv-x="1433" 
d="M1525 1734l-24 -12q-152 -51 -258.5 -96t-177.5 -87.5t-111.5 -84t-61 -85.5t-26 -91.5t-5.5 -102.5q0 -76 -28 -141t-76.5 -121t-114.5 -103t-142.5 -86t-160 -70.5t-167.5 -56.5h19q30 -5 61.5 -17t57 -36.5t41.5 -64.5t16 -100q0 -36 -4.5 -80t-4.5 -83
q0 -158 51 -240t165 -82h11.5t11.5 2v7q64 21 132 59.5t137.5 90.5t138 114t132.5 130t122 139.5t106 141.5q63 92 117.5 190.5t102.5 204.5t91 220.5t83 239.5q-38 3 -76.5 16.5t-70 37.5t-51.5 57t-20 75q0 49 12.5 84t32 56.5t41.5 31.5t42 10q18 0 43.5 -8.5t49.5 -30.5
t41 -60t17 -96q0 -24 -3.5 -50.5t-8.5 -54.5q0 -10 -3 -19t-3 -18q43 0 90 12t95.5 31.5t96.5 45t93 52.5q3 3 8 3q6 0 17 -9q0 -18 -6 -18q-106 -64 -208 -106t-198 -42q-140 -474 -372 -830.5t-575 -602.5q-130 -109 -234 -128q-45 -20 -93 -32t-99 -12q-86 0 -146 28
t-98 74t-55.5 106t-17.5 125q0 33 4.5 68.5t9.5 70t9.5 65.5t4.5 54q0 69 -24 102t-86 33q-6 0 -18 12q0 18 12 18h13l6 6q139 32 248.5 79.5t185.5 108t116 133t40 155.5v31q0 159 146 295t432 250q60 27 130.5 55t158.5 56l19 6h12q8 8 13 8q8 0 8 -23q0 -10 -15 -10z" />
    <glyph glyph-name="Odieresis" unicode="&#xd6;" horiz-adv-x="1433" 
d="M1525 1734l-24 -12q-152 -51 -258.5 -96t-177.5 -87.5t-111.5 -84t-61 -85.5t-26 -91.5t-5.5 -102.5q0 -76 -28 -141t-76.5 -121t-114.5 -103t-142.5 -86t-160 -70.5t-167.5 -56.5h19q30 -5 61.5 -17t57 -36.5t41.5 -64.5t16 -100q0 -36 -4.5 -80t-4.5 -83
q0 -158 51 -240t165 -82h11.5t11.5 2v7q64 21 132 59.5t137.5 90.5t138 114t132.5 130t122 139.5t106 141.5q63 92 117.5 190.5t102.5 204.5t91 220.5t83 239.5q-38 3 -76.5 16.5t-70 37.5t-51.5 57t-20 75q0 49 12.5 84t32 56.5t41.5 31.5t42 10q18 0 43.5 -8.5t49.5 -30.5
t41 -60t17 -96q0 -24 -3.5 -50.5t-8.5 -54.5q0 -10 -3 -19t-3 -18q43 0 90 12t95.5 31.5t96.5 45t93 52.5q3 3 8 3q6 0 17 -9q0 -18 -6 -18q-106 -64 -208 -106t-198 -42q-140 -474 -372 -830.5t-575 -602.5q-130 -109 -234 -128q-45 -20 -93 -32t-99 -12q-86 0 -146 28
t-98 74t-55.5 106t-17.5 125q0 33 4.5 68.5t9.5 70t9.5 65.5t4.5 54q0 69 -24 102t-86 33q-6 0 -18 12q0 18 12 18h13l6 6q139 32 248.5 79.5t185.5 108t116 133t40 155.5v31q0 159 146 295t432 250q60 27 130.5 55t158.5 56l19 6h12q8 8 13 8q8 0 8 -23q0 -10 -15 -10z
M1877 2905q51 66 107 134t102 143q42 75 76.5 152t52.5 156q0 1 1.5 5t5.5 8t9.5 7.5t14.5 3.5h25q12 0 30 -18v-6q5 0 5 -3q0 -2 -5 -10q-33 -93 -77 -175.5t-95.5 -156t-109 -139t-117.5 -125.5q-17 0 -23.5 5t-6.5 10q0 4 5 9zM2486 3416v-6q-48 -88 -95 -174.5
t-102 -164.5q-108 -166 -234 -301v-6q-5 -5 -9 -5q-7 0 -13 8t-6 13q0 4 4 9q58 67 107.5 142t93.5 154.5t84 163t78 167.5l18 18q0 10 19 19h18q11 0 24 -12t13 -25z" />
    <glyph glyph-name="P" unicode="P" horiz-adv-x="991" 
d="M750 756q46 46 90 84t89 77t94 83t106 103q38 40 76 92t71 114t59.5 133t42.5 151q4 4 4 9q0 8 -9 11t-20 11q-23 0 -52.5 -7.5t-62.5 -26.5t-68 -51t-69 -81l-131 -220l-121 -242h-6v-12h-7v-12h-6v-13h-6v-6l-6 -12v-6l-6 -6v-6q-9 -42 -26.5 -83.5t-35.5 -83.5z
M566 43q144 60 289 117t295 117q6 0 19 -13q0 -12 -13 -18q-83 -33 -176 -67.5t-185.5 -72.5t-178.5 -81.5t-154 -94.5q-32 -25 -67 -25q-21 0 -36 8.5t-26 22.5t-18.5 32t-13.5 38q-186 -321 -368.5 -644.5t-368.5 -652.5q-10 -10 -17 -10t-11.5 8t-4.5 12t3 9
q97 173 196 342.5t197 346.5q90 163 179.5 319.5t182.5 312.5q-14 42 -31 83t-49 65h-6v24h6l160 111q10 0 21 -6t34 -31q55 103 110 200t112 200q24 64 24 154q-6 73 -35 129t-75 94.5t-106.5 58.5t-129.5 20q-77 0 -141.5 -22t-116.5 -59t-92 -84t-67 -98t-40.5 -101
t-13.5 -92q6 -21 13.5 -33.5t19.5 -19t29 -8t43 -1.5q4 0 7.5 -3.5t6 -7.5t4 -7.5t1.5 -4.5q0 -5 -17.5 -7.5t-32.5 -2.5q-48 0 -77 31.5t-29 86.5q0 26 7.5 57.5t20.5 65.5t31.5 69t40.5 68l6 6q46 64 107.5 120t132.5 96.5t150 64t161 23.5q60 0 118.5 -18t106 -53.5
t78.5 -87.5t37 -120l128 242l130 225q40 59 93.5 113.5t108 96.5t105.5 67.5t86 25.5q36 0 55.5 -25t19.5 -75q-6 -79 -25.5 -136.5t-49.5 -105t-67.5 -90t-79.5 -92.5q-93 -111 -194 -204t-205 -184q-58 -49 -105 -94t-87 -89t-75 -89.5t-69 -96t-69 -108.5t-75 -126
q10 -21 21 -48.5t22 -61.5q7 -35 15 -56.5t18 -33.5t21.5 -16.5t25.5 -4.5z" />
    <glyph glyph-name="Q" unicode="Q" horiz-adv-x="1335" 
d="M1525 1728h-12l-12 -6q-152 -51 -258.5 -96t-177.5 -87.5t-111.5 -84t-61 -85.5t-26 -91.5t-5.5 -102.5q0 -76 -28 -141t-76.5 -121t-114.5 -103t-142.5 -86t-160 -70.5t-167.5 -56.5h19q30 -5 61.5 -17t57 -36.5t41.5 -64.5t16 -100q0 -36 -4.5 -80t-4.5 -83
q0 -74 11.5 -133.5t36.5 -101.5t63 -64.5t91 -22.5q26 0 57.5 11.5t66 30.5t70 42t70.5 47q313 223 536 545.5t362 751.5q9 27 18.5 55t18.5 56q-38 3 -76.5 16.5t-70 37.5t-51.5 57t-20 75q0 49 12.5 84t32 56.5t41.5 31.5t42 10q19 0 45 -9.5t49.5 -32.5t40 -60.5
t16.5 -92.5q0 -24 -3.5 -50.5t-8.5 -54.5q0 -10 -3 -19t-3 -18q43 0 90 12t95.5 31.5t96.5 45t93 52.5q3 3 8 3q6 0 17 -9q0 -18 -6 -18q-106 -64 -208 -106t-198 -42q-66 -222 -150 -418t-190.5 -367t-237 -319t-289.5 -274q30 12 45 13t29 1q76 0 126 -39t79.5 -103.5
t41 -147t11.5 -169.5q0 -51 -3 -92.5t-6 -78t-6 -70t-3 -68.5q0 -177 45.5 -311.5t126.5 -225.5t193.5 -137.5t246.5 -46.5q94 0 183.5 24t187.5 62q97 49 179.5 105.5t152.5 122.5l6 6q25 25 42.5 43.5t25.5 18.5q5 0 12 -7t7 -12q0 -6 -9 -15.5t-20.5 -20t-23 -19
t-15.5 -12.5v-7q-91 -78 -175 -135t-169 -92q-147 -81 -298.5 -116.5t-296.5 -35.5q-150 0 -271 42.5t-206.5 126t-132 206t-46.5 282.5q0 44 3 87.5t17 102.5q9 69 16.5 152t14.5 180q3 40 3 78q0 54 -6.5 101t-20.5 82.5t-37 55.5t-56 20q-46 0 -110 -36
q-108 -78 -197 -98q-45 -20 -93 -32t-99 -12q-85 0 -145 27.5t-98.5 73t-56.5 105t-18 123.5q0 32 4.5 68t10 71t10 67t4.5 56q0 69 -24 102t-86 33q-6 0 -18 12q0 18 12 18h13l6 6q139 32 248.5 79.5t185.5 108t116 133t40 155.5v31q0 159 146 295t432 250q60 27 130.5 55
t158.5 56l19 6h12q8 8 13 8q2 0 5 -5.5t3 -16.5t-15 -17z" />
    <glyph glyph-name="R" unicode="R" horiz-adv-x="1970" 
d="M941 2011q-52 -33 -52 -62q0 -18 13.5 -36.5t35 -36.5t50 -35t58.5 -33q3 7 7 18t7.5 24.5t6.5 28.5t3 30q0 11 -1.5 29.5t-9 36t-22.5 30.5t-42 13q-25 0 -54 -7zM1839 160l289 117q20 0 20 -18q0 -5 -8 -13l-283 -111q-60 -25 -116.5 -52t-114.5 -50t-120 -38t-132 -15
q-68 0 -121 22t-89.5 70.5t-55.5 126t-19 188.5q0 49 -3 80.5t-12 49t-25.5 24t-43.5 6.5q-13 0 -31 -3t-38 -8q-10 -2 -37.5 -8.5t-74.5 -17.5l-24 -36q-66 -82 -136 -173q-63 -78 -120.5 -133t-111.5 -90t-105 -51t-101 -16q-78 0 -158 44q-5 0 -6.5 3.5t-6.5 3.5
q-53 32 -53 116q0 87 44.5 190t122 224.5t182.5 262t227 301.5q175 231 345 461l-7 7q-24 24 -45.5 53t-37 60.5t-25 65t-9.5 67.5q0 22 6 44t21 43.5t40 41.5t63 37q17 8 33.5 11t31.5 3q29 0 49.5 -12.5t33 -33t18.5 -45.5t6 -50q0 -32 -9.5 -63.5t-21.5 -49.5
q30 -14 59.5 -27t55.5 -23.5t47 -18t35 -11.5q136 -54 234 -129q120 115 256 181.5t300 66.5q153 0 252.5 -50.5t125.5 -154.5q3 -17 3 -34q0 -53 -27.5 -111t-84 -117.5t-142.5 -117.5t-204 -112l-8 -2q-8 0 -16 8q0 17 12 25q85 39 147.5 87.5t102.5 101t59.5 105.5
t19.5 102q0 63 -25.5 108t-66 74t-90 42.5t-98.5 13.5q-57 0 -113 -19.5t-111.5 -55.5t-111.5 -86t-113 -111q57 -58 86 -119t29 -127t-25 -136t-77.5 -149t-135 -168t-197.5 -192q-16 -14 -33 -28t-34 -34q87 -32 123.5 -96.5t36.5 -161.5q2 -80 15.5 -133.5t35.5 -85.5
t51.5 -45t63.5 -13q38 2 81.5 15t87.5 31t86 37.5t77 33.5zM201 584q-45 -67 -68.5 -139t-23.5 -150q0 -83 51 -117q6 -6 12 -6q60 -36 132 -36q45 0 88 11.5t84 31.5q42 20 157 141q62 84 124 167.5t121 168.5t114.5 172t104.5 179q112 210 256 401q-38 21 -85.5 40.5
t-105.5 39.5q-66 22 -119 49t-96 62q-93 -129 -185.5 -250t-185 -243t-186 -250.5t-189.5 -271.5zM855 547q48 13 79.5 21.5t55.5 13t43.5 6.5t42.5 2h74v7h6v6q17 16 35.5 31.5t38.5 29.5q42 42 86 83t86 83q86 100 121 175.5t35 137.5q0 70 -35 124.5t-96 97.5
q-77 -99 -146.5 -203t-138 -208t-139 -207t-148.5 -200z" />
    <glyph glyph-name="S.001" horiz-adv-x="1204" 
d="M1119 1390q-67 -53 -135 -118.5t-133.5 -136.5t-127 -145t-115 -144.5t-97 -134t-74.5 -114.5q-66 -109 -97.5 -204t-31.5 -176q0 -32 5.5 -65t19.5 -59.5t37.5 -43.5t59.5 -17q45 0 105.5 28t143.5 100q84 73 149.5 158.5t115 178.5t84.5 190.5t56.5 194t31.5 190
t10 177.5q0 38 -2 73.5t-5 67.5zM6 1421l12 6l7 6v6l6 6h6l6 6v7h6l25 24q234 190 431.5 281t365.5 91q74 0 140.5 -16t120.5 -46.5t92 -76t55 -104.5q7 -15 12 -25.5t7 -17.5q105 60 209 116t215 93q79 29 140 43.5t116 14.5q52 0 84.5 -16t47.5 -54q31 -81 71.5 -120.5
t75.5 -39.5q28 0 57 15t56.5 39t53.5 55t48 63q0 15 6 15t13 -9t7 -17q0 -6 -1 -7q-32 -55 -76 -102t-92.5 -81.5t-97.5 -54.5t-91 -20q-21 0 -47 6t-53 22.5t-52.5 46.5t-44.5 78q-20 32 -54 56.5t-85 24.5q-31 0 -76 -6t-111 -25q-75 -38 -152 -81t-155 -98
q20 -88 20 -178q0 -80 -15 -173.5t-47 -195.5t-81.5 -209.5t-120 -215t-162 -212.5t-206.5 -201t-202.5 -138.5t-157.5 -42.5q-42 0 -70.5 13t-39.5 34h-7q-16 31 -19.5 52t-3.5 41v24q0 99 49 217t131.5 246.5t191 263.5t227.5 268q62 69 106 115.5t79 81t65.5 61.5
t65.5 57q0 42 -18 80q-14 60 -46 107.5t-78 80.5t-103 50.5t-120 17.5q-125 0 -287.5 -73t-355.5 -232l-7 -6h-6l-6 -7v-6h-6l-6 -6v-6h-6l-19 -18h-6l-6 -7v-6l-6 -6q-7 -7 -13 -7t-12 6.5t-6 12.5q0 5 6 13z" />
    <glyph glyph-name="SP.alt" unicode="&#xc1;" horiz-adv-x="2261" 
d="M1119 1390q-124 -98 -240 -221l-6 -7v-6h-6v-6l-24 -25v-6l-13 -6q-126 -144 -223.5 -269.5t-164 -236.5t-101 -208.5t-34.5 -185.5q0 -18 2.5 -48t16 -59t41.5 -50.5t79 -21.5q75 0 187 89h7q9 9 18 18.5t19 18.5q121 109 206.5 242t139.5 276t78.5 289t24.5 283
q0 38 -2 73t-5 67zM2165 178l252 99q6 0 18 -13q0 -12 -6 -18l-240 -92q-35 -14 -78.5 -39t-95.5 -58q-91 -59 -145 -59q-30 0 -51 24t-35 76q-28 -49 -44.5 -77.5t-28 -46.5t-20 -31.5t-20 -33.5t-30 -51.5t-48.5 -84.5q-99 -176 -194 -346t-194 -342q-6 -13 -14 -13
q-2 0 -9 3t-7 22q132 239 266.5 472t262.5 459q10 17 27 45.5t40 67.5q-14 42 -31 83t-49 65q-5 4 -5.5 4.5t-0.5 1.5v19h6l166 110q16 0 29 -11.5t21 -25.5q111 195 220.5 388.5t221.5 393.5v6l7 6v6h6v12h6v13h6v6l6 6v6h6v12h6v13h7v12h6v6l6 6v6l12 25l6 18l13 19v6
l12 12v13l25 43q-26 33 -60 68.5t-74 66t-84 52.5t-90 28q-69 0 -154 -43h-6q0 -6 -6 -6q-83 -46 -154 -117v-6q-18 0 -24 6q-19 30 -54.5 57t-80 47.5t-93 32t-93.5 11.5q-38 0 -88.5 -16.5t-95.5 -51.5q-6 0 -18 -12l6 -13q18 -75 18 -168q0 -138 -37.5 -293t-115 -314
t-195.5 -316t-279 -299q-11 -8 -22 -17t-21 -20l-6 -6q-39 -30 -81.5 -54.5t-84.5 -42t-80 -27t-68 -9.5q-35 0 -64 11.5t-46 35.5h-7q-16 31 -19.5 52t-3.5 41v24q0 100 46.5 214.5t127.5 240.5t191 263.5t237 283.5l24 25l6 12l13 7v6h6v6l6 6q60 64 126 126.5t132 119.5
q-5 23 -7 44t-11 36q-9 42 -32.5 88t-64.5 83.5t-100.5 62t-139.5 24.5q-146 0 -306.5 -76.5t-346.5 -230.5l-7 -6h-6l-24 -25l-6 -6h-7v-6l-6 -6h-6l-6 -7l-6 -12q-4 -4 -9 -4q-3 0 -12 5.5t-9 13.5q0 2 5 10l31 30h6v7l6 6h6l19 18q238 193 440.5 284.5t380.5 91.5
q72 0 136 -20t115 -53.5t85.5 -77t47.5 -90.5l6 -18q37 32 71 59.5t71 51.5q133 67 258 67q59 -5 106.5 -17t86 -30.5t69.5 -43.5t58 -56q35 29 71 58t74.5 52t80 37t88.5 14t90.5 -15t79.5 -36.5t63.5 -46.5t42.5 -45v6h7v7l6 6v6l6 6v6l6 6v6h6v7l6 6v6l6 6v6h7v12h6v7
l6 6v6l6 6v6h6v6h6v13h6v6l7 6v6h6v12h6v7h6v6l6 6v6h6v6q27 38 62 77.5t73.5 76t78 67t75.5 50.5q23 8 46.5 16t46.5 15q42 0 64 -23.5t22 -75.5q-5 -71 -20 -122.5t-38 -93t-52 -77.5t-62 -76q-37 -36 -50 -61q-88 -108 -190.5 -201t-208.5 -181q-117 -100 -206.5 -201
t-153.5 -207t-134 -224t-146 -253q11 -22 21.5 -49.5t21.5 -61.5q7 -34 15 -55t17.5 -33t21 -16t25.5 -4t30 4.5t32 10.5t30.5 13t25.5 12zM2743 1445q48 52 90 106.5t77 117.5t64 136t52 163q0 27 -45 27q-22 0 -50.5 -9.5t-60 -29.5t-64 -50.5t-63.5 -72.5v-6h-6v-13h-6
v-6h-6v-6l-7 -6v-6h-6v-6l-6 -7v-6h-6v-12h-6v-6l-6 -6v-7h-7v-12h-6v-6l-6 -6v-6h-6v-13h-6v-12h-6v-6l-13 -12v-13h-6v-6l-6 -6v-6l-6 -6v-6q4 -10 11.5 -19t13.5 -18h6v-19h-6l-136 -153v-13h-6v-12h-6v-6l-6 -6v-7l-6 -6v-6l-6 -6v-6l-7 -6v-6l-6 -7v-6l-6 -6v-6l-6 -6
v-6l-6 -6v-7l-6 -6v-6l-7 -6v-6l-6 -6v-7h-6v-12h-6v-12h-6v-12h-6v-13h-6v-6l-7 -6v-6l-6 -6v-6l-6 -7v-6l-6 -6l-43 -74q49 46 97 87t97.5 84t103 90.5t114.5 107.5z" />
    <glyph glyph-name="ST.alt" unicode="&#xc8;" horiz-adv-x="2257" 
d="M1119 1427q-129 -102 -240 -222l-6 -6v-6h-6v-6l-12 -6l-6 -12l-19 -19q-113 -130 -209 -251t-165.5 -232.5t-109 -214t-39.5 -195.5q0 -32 6 -65t21.5 -60t42.5 -44t69 -17q75 0 187 89h7q9 9 18 18.5t19 18.5q126 114 212 252t138.5 282.5t75.5 287.5t23 268
q0 38 -2 73t-5 67zM2392 277q21 0 21 -18q0 -5 -8 -13q-85 -33 -174 -69.5t-177 -59.5l-92 -159q0 -12 -12 -12l-160 -31q-7 0 -19 12q0 12 6 12q23 42 49 83t50 89q-24 6 -51.5 15.5t-51 24.5t-39.5 36.5t-18 52.5v24q0 32 27.5 48t60.5 16q14 0 32 -9t33.5 -24t26.5 -34
t11 -40q0 -51 -13 -80q33 55 78 131.5t97 165.5t108 186t111.5 193.5t109 188t99.5 169.5v12h6v6h12q87 144 87 257q0 94 -45.5 143.5t-120.5 49.5q-25 0 -52.5 -5.5t-54 -14t-48 -19.5t-34.5 -22q-35 -29 -107 -38q-32 0 -60.5 7t-53 24t-45.5 45.5t-38 70.5
q-17 26 -33 42.5t-35 26.5t-42.5 13.5t-55.5 3.5q-47 0 -103 -18t-116.5 -47t-123.5 -66.5t-124 -77.5q18 -78 18 -172q0 -140 -37.5 -294.5t-115 -312.5t-195.5 -315t-279 -302q-11 -8 -22 -17t-21 -20h-6q-87 -72 -170.5 -104.5t-158.5 -32.5q-38 0 -62.5 16.5t-32.5 28.5
h-7q-12 32 -17.5 57.5t-5.5 58.5q0 101 46.5 215.5t127.5 240.5t191 263.5t237 283.5l6 7v6l12 6l6 12l31 31q60 69 126 129t132 117q0 18 -6 50t-21 69.5t-41 76.5t-65.5 70.5t-94 51.5t-127.5 20q-136 0 -299 -71.5t-354 -229.5v-6l-7 -7h-6l-12 -12h-6v-6l-6 -6h-6l-7 -6
v-6l-6 -7h-6l-12 -12q-7 -7 -13 -7q-5 0 -10.5 4.5t-5.5 11.5q0 6 4 10l31 30h6v6l6 7h6l19 18q249 213 467 295q186 81 354 81q72 0 136 -20t115 -53.5t85.5 -77t47.5 -90.5q4 -14 9 -24.5t10 -24.5q52 30 104 60.5t104.5 59t106 53t109.5 42.5q76 27 137.5 42t112.5 15
t82 -13.5t56 -55.5q7 -25 20.5 -53t32.5 -52t42.5 -39.5t51.5 -15.5q33 0 62 9t57.5 20t58.5 20t64 9q75 0 126.5 -39t86.5 -132q22 -60 22 -126q0 -50 -15 -98.5t-44 -98.5l-602 -1058q82 23 161.5 56.5t157.5 66.5z" />
    <glyph glyph-name="T" unicode="T" horiz-adv-x="1288" 
d="M738 1162q0 5 3.5 9t8.5 7t13 5q2 0 6.5 -9.5t8.5 -23t7 -28t3 -24.5q0 -44 -19 -83t-47.5 -74.5t-62 -67.5t-62.5 -61q-51 -42 -97 -73.5t-93.5 -53t-100 -32t-116.5 -10.5q-20 0 -52.5 5.5t-63 24.5t-52.5 56t-22 99q0 172 89 342t268 349q48 43 111.5 90t134 89.5
t143.5 76.5t139 52q69 18 129 27.5t117 9.5q84 0 152 -21.5t115 -61t72.5 -95t25.5 -122.5q0 -51 -16 -105t-47 -112l-658 -1224l18 6q55 0 110 1t109 7t106 17t100 31l227 92q7 0 19 -13q0 -12 -13 -18l-221 -86q-67 -26 -125.5 -45.5t-117.5 -34.5t-122 -26.5t-139 -22.5
l-123 -233q0 -6 -13 -6q-44 0 -71 -3t-44.5 -9.5t-28.5 -17t-22 -25.5q-9 -10 -17 -10q-7 0 -10 7t-3 15v6l141 263q-58 0 -80 7q-7 0 -14.5 9t-14 20.5t-10.5 21t-4 10.5q-6 19 -6 55q6 15 13 15q-1 0 5 -2q42 -5 83.5 -10t89.5 -9l627 1163q41 76 60 141.5t19 121.5
t-15.5 101.5t-47 78t-79.5 50t-112 17.5q-66 0 -148 -21t-170 -61t-178 -98.5t-172 -133.5q-55 -50 -102.5 -115.5t-82 -144t-54.5 -169.5t-20 -191q0 -43 5.5 -74.5t21 -52t45 -30.5t77.5 -10q47 0 103 16.5t110.5 48.5t103.5 79t82 108q30 48 49 96t19 93v14z" />
    <glyph glyph-name="U" unicode="U" horiz-adv-x="2198" 
d="M289 1242l6 -12q0 -3 -6 -9l-6 -3l-12 6q-113 56 -113 146q0 54 43.5 122t136.5 156q30 30 66.5 57.5t81.5 50.5t101 41t126 30h28q169 0 249.5 -64t80.5 -198q0 -103 -33.5 -196.5t-90.5 -176.5t-132 -154t-157 -128q-103 -71 -219.5 -129.5t-241.5 -110.5
q86 -8 129 -92q13 -42 19 -89t6 -83v-43q8 -71 28 -129t51.5 -100.5t73.5 -67.5t93 -29q54 0 109.5 15t111 42.5t110 66t105.5 85.5q35 32 69.5 69t72.5 79q102 125 188.5 257.5t164 274.5t149 293t143.5 312q-31 4 -56 17t-43 37t-28 59.5t-10 85.5q0 46 9.5 84.5
t29.5 73.5q38 38 73.5 49.5t68.5 11.5q45 0 72 -25t27 -79q0 -28 -9 -63.5t-23 -74t-32 -77.5t-36 -74q14 0 39 4t53.5 9.5t58 11.5t52.5 11q51 10 79 18t30 9q6 0 14 -14v-12q-55 -94 -103 -184.5t-93 -178.5q-103 -182 -200 -364t-194 -368q-34 -66 -50 -120t-16 -97
q0 -44 18 -79t49 -60t72.5 -38.5t89.5 -13.5t91 6t83.5 17t79.5 26t81 33l259 105q12 0 24 -13q0 -6 -12 -18l-252 -98q-66 -26 -114 -47.5t-94 -40t-96.5 -33.5t-120.5 -27q-11 -2 -21.5 -2h-21.5q-66 0 -115.5 6.5t-86 20.5t-60.5 37t-39 55q-31 52 -31 121q0 47 12.5 97
t36.5 108q58 139 128.5 277.5t145.5 275t151.5 270.5t146.5 265q-30 -6 -86 -6q-83 -185 -167 -360t-178.5 -339t-204 -316t-243.5 -289q-170 -156 -314.5 -236t-276.5 -80q-79 0 -140.5 29.5t-104 82.5t-65 127.5t-22.5 163.5q0 57 -5.5 103t-19.5 81.5t-37.5 61.5
t-60.5 43h-6v6h-6v12h6v6h6v6q99 42 190.5 87.5t174 99.5t154.5 118.5t132.5 144.5t109 177t82.5 216q5 17 7.5 35.5t2.5 38.5q0 78 -33.5 142.5t-105.5 97.5q-12 4 -25 4q-24 0 -48 -6t-46 -15.5t-41 -21t-33 -23.5q-28 -23 -56.5 -51t-58.5 -60l-12 -6q-53 -56 -87.5 -98
t-54.5 -74t-27.5 -56t-7.5 -44q0 -18 3 -28t10 -18t17 -16.5t24 -22.5zM1421 3161q-2 -5 -2 -9v-9q0 -62 29.5 -96.5t95.5 -51.5q54 -14 104.5 -20.5t98.5 -6.5q145 0 246 89l24 24q43 43 84 107.5t73 136t51.5 142t19.5 126.5q0 66 -31 103h-6q-10 9 -10 16t7.5 12t12.5 5
l8 -2v-6v6l7 -6q27 -22 42.5 -44.5t23.5 -50.5t10.5 -64.5t2.5 -86.5q-5 -66 -26.5 -120.5t-57 -104t-83 -96.5t-103.5 -97q-138 -130 -273.5 -196.5t-260.5 -66.5q-41 0 -88 9t-87.5 31.5t-67 61.5t-26.5 99q0 8 2 16.5t7 14.5l142 160q9 9 17 9q7 0 10.5 -6t3.5 -10
q0 -6 -6 -12z" />
    <glyph glyph-name="Udieresis" unicode="&#xdc;" horiz-adv-x="2465" 
d="M1556 2884q51 66 107 134t102 143q42 75 76.5 152t52.5 156q0 1 1.5 5t5.5 8t9.5 7.5t14.5 3.5h25q12 0 30 -18v-6q5 0 5 -3q0 -2 -5 -10q-33 -93 -77 -175.5t-95.5 -156t-109 -139t-117.5 -125.5q-17 0 -23.5 5t-6.5 10q0 4 5 9zM2257 129l363 148q20 0 20 -18
q0 -5 -8 -13l-356 -141q-56 -21 -119 -51.5t-128 -59t-130 -48.5t-126 -20q-115 0 -179.5 65.5t-64.5 186.5q0 158 125 388q44 85 81.5 157t71.5 137t67.5 126t69.5 125t76.5 133.5t89.5 151.5q-56 -18 -99 -18q-10 -7 -37 -7q-102 -192 -211.5 -373t-232.5 -343t-264 -300
t-307 -244q-118 -66 -214.5 -101t-178.5 -35q-107 0 -185 37q-72 46 -106.5 122t-34.5 179q0 60 11 122t20 119q-33 -10 -60.5 -11.5t-50.5 -1.5q-106 0 -142 62v6q-15 34 -15 71q0 40 14.5 71.5t37.5 55.5t51.5 41t57 29.5t53.5 20t41 12.5q8 1 14.5 1h13.5q35 0 62.5 -9
t50 -29.5t40.5 -53.5t35 -81q0 -14 3 -27t3 -22q133 85 236.5 170t173.5 172.5t106.5 179.5t36.5 192q0 70 -18 147q0 18 -6 24q-12 39 -38 71.5t-63 55t-83.5 35t-100.5 12.5q-49 0 -100.5 -9t-119.5 -35q-54 -17 -101 -57t-82.5 -89.5t-55.5 -102.5t-20 -95q0 -32 7 -56
q0 -6 -12 -19q-11 0 -17 10.5t-8.5 25.5t-3 30.5t-0.5 25.5q0 45 14.5 92t47 94t83.5 93.5t124 90.5q87 57 181.5 87.5t188.5 30.5q89 0 163.5 -25t128.5 -74t84 -121.5t30 -166.5q0 -86 -31 -168t-85.5 -158.5t-128 -147t-159 -134t-179 -120t-187.5 -104.5q2 -27 3 -53
t1 -52q0 -51 -4.5 -99t-4.5 -88q0 -158 53.5 -234.5t140.5 -76.5q42 0 108.5 20.5t157.5 77.5q163 102 301.5 238t260 295.5t230 337.5t210.5 366q-130 19 -147 233q8 41 23 76.5t40 63.5t60.5 47.5t85.5 28.5q53 0 88.5 -22t35.5 -77q0 -20 -5 -44.5t-14 -53.5
q-33 -57 -61.5 -115t-55.5 -113q4 0 5.5 3t6.5 3q51 5 109.5 24.5t118.5 43.5q32 13 64 26.5t65 22.5q18 0 24 -12q0 -6 -6 -12l-584 -1015q-90 -207 -90 -330q0 -53 15 -84.5t37.5 -48t48.5 -21.5t49 -5q65 0 162 38q84 33 143 56.5t96 37.5zM228 597q29 0 43 6q3 31 3 58
q0 156 -114 156q-9 0 -19.5 -1.5t-23.5 -3.5q-39 -62 -39 -99q0 -28 16.5 -49.5t40 -36.5t49 -22.5t44.5 -7.5zM2165 3395v-6q-48 -88 -95 -174.5t-102 -164.5q-108 -166 -234 -301v-6q-5 -5 -9 -5q-7 0 -13 8t-6 13q0 4 4 9q58 67 107.5 142t93.5 154.5t84 163t78 167.5
l18 18q0 10 19 19h18q11 0 24 -12t13 -25z" />
    <glyph glyph-name="V" unicode="V" horiz-adv-x="1740" 
d="M98 -294q0 -15 -6 -15q-2 0 -6 3t-7.5 7t-6 8t-2.5 7q0 4 4 8q32 42 64 87.5t65 91.5v30q-3 7 -12.5 14.5t-23 13t-29.5 9t-31 3.5q-58 0 -121 -24.5t-126 -70.5h-7q-9 -9 -14 -9q-2 0 -5.5 8t-3.5 13q0 6 5 13q134 122 233 224.5t164.5 188.5t97.5 157.5t32 131.5
q0 90 -66.5 156.5t-190.5 124.5q-66 32 -117 73t-85.5 85.5t-52 91t-17.5 90.5q0 39 11.5 78t33.5 75t52.5 68.5t69.5 59.5q6 6 18 6q12 -6 12 -14q0 -6 -5 -11q-50 -103 -50 -171q0 -57 36.5 -96t123.5 -65q203 -67 301.5 -169t98.5 -238q0 -133 -102 -293.5t-304 -344.5
q70 30 117 30q62 0 92 -30v-6q118 179 232.5 366t230 377.5t234 382t244.5 380.5q64 103 140.5 195t161.5 180q57 61 119.5 124.5t127 120t128.5 102.5t123 72q88 45 170.5 69.5t163.5 24.5q98 0 172 -28.5t123.5 -77.5t74 -114t24.5 -138q0 -102 -48 -195t-133 -178
t-200 -162t-249 -148q-24 -15 -47.5 -25.5t-50.5 -24.5q-124 -60 -208.5 -118t-137 -120.5t-75.5 -131t-23 -149.5q0 -45 8 -94.5t8 -97.5q0 -130 -65 -248t-185 -225t-290 -204t-379 -185q-22 0 -22 17q0 4 10 14q151 76 262.5 140.5t190 122t128 110.5t77.5 105t38.5 106
t10.5 114q0 49 -6 103.5t-6 102.5q0 123 37.5 214.5t99 159t140.5 116t161.5 87t162 71.5t143.5 70q109 63 189 131t131 146q109 145 109 325q0 54 -9 100t-31 84t-58 67.5t-91 50.5q-57 21 -130 21t-149.5 -31t-163.5 -88q-93 -78 -182 -158.5t-171.5 -166.5t-158 -179.5
t-140.5 -196.5q-130 -190 -247.5 -386.5t-238.5 -394.5q-117 -191 -229 -374t-232 -364q0 -12 -6 -19h-7l-120 -176t-126 -173z" />
    <glyph glyph-name="W" unicode="W" horiz-adv-x="2531" 
d="M2891 2245l6 6q60 43 125 76t131 56t130.5 36t123.5 16q56 0 103.5 -11.5t85 -30.5t64.5 -43.5t42 -49.5q37 -52 50 -154v-6q0 -99 -46.5 -188.5t-126 -170.5t-186 -155.5t-226.5 -143.5q-98 -64 -227 -123h-6q-230 -120 -338 -252t-108 -262q0 -32 4.5 -65t4.5 -64
q0 -177 -112 -307q-69 -81 -156 -152t-193 -140q-42 -27 -88 -60t-103 -62q-20 -11 -42 -22.5t-44 -26.5h-6q-9 -10 -13 -10q-2 0 -6 7.5t-4 16.5q0 6 10 10l50 30q71 38 136.5 78t121 82t98 84.5t67.5 86.5q40 70 40 187q0 38 -6 80t-6 87q0 71 26.5 139.5t73 133t111 124
t140 113.5t159.5 101.5t170 87.5q60 32 115.5 63.5t112.5 59.5q199 127 290 269t91 306q0 54 -8.5 89.5t-34.5 61.5q-26 31 -59 51t-68 32t-69 16.5t-62 4.5q-96 0 -185 -37q-40 -23 -72 -43t-57 -37q-140 -112 -266 -230.5t-238 -249.5q-107 -115 -198.5 -231.5t-173 -236
t-156.5 -243.5t-149 -254q-99 -173 -197.5 -342t-201.5 -341q18 0 24 -6h6q21 -4 38 -19.5t30 -39.5t20 -55t7 -65q0 -9 -0.5 -17.5t-1.5 -17.5v-6q-8 -32 -25.5 -61t-43.5 -51t-61 -34.5t-79 -12.5q-14 0 -31 5h-6q-17 5 -27.5 11t-17 16t-9 25.5t-2.5 39.5q4 20 16.5 50.5
t32.5 72.5q18 37 40 70t40 71q-10 1 -19.5 1.5t-18.5 0.5q-46 0 -88 -9.5t-82.5 -31.5t-80 -57.5t-80.5 -87.5h-6q-2 -2 -7 -2q-3 0 -5 2h-6q-6 6 -6 19v6q84 147 162 290t153 286.5t147.5 288.5t145.5 296l-332 -166v-92q-9 -271 -215 -468q-75 -75 -167.5 -136
t-195.5 -116q-23 -14 -46 -27t-46 -22h-6q-76 -42 -160.5 -65t-162.5 -23q-84 0 -138.5 23t-72.5 65q-8 13 -11.5 24.5t-3.5 28.5q0 55 33 117t99 125.5t165.5 127.5t232.5 124l492 246v19q-12 81 -34.5 146t-59 111t-88.5 70.5t-123 24.5q-61 0 -136.5 -24.5t-166.5 -69.5
l-424 -289q-18 0 -21 7.5t-3 10.5q0 5 6 13h12v6l411 277h6v6q277 160 463 160q88 0 152.5 -29t107.5 -79t66 -117.5t29 -143.5l363 178q0 6 6 6l246 123h19v-12h6v-6h-6v-6q-68 -135 -138 -268.5t-142.5 -271t-148.5 -281t-156 -299.5q15 3 31 3t32.5 -1.5t35.5 -1.5
q163 281 325 558t333 568h6q94 145 198.5 277.5t219.5 263.5q115 126 239.5 247t265.5 233zM480 560q-48 -24 -109 -64t-117.5 -92.5t-98 -117.5t-50.5 -138q-4 -4 -4 -13q0 -26 19 -43.5t43.5 -28t48.5 -15.5t34 -5q33 -6 66 -6q85 0 162 37q124 51 215.5 132.5
t151.5 176.5t89.5 195.5t29.5 189.5q0 8 -0.5 16t-0.5 16l-473 -240h-6z" />
    <glyph glyph-name="X" unicode="X" horiz-adv-x="1401" 
d="M277 1353q0 6 18 6q9 -11 9 -17q0 -4 -3 -7q-62 -101 -62 -189q0 -36 10.5 -70.5t29 -68.5t43.5 -68.5t53 -71.5q83 -110 83 -231q0 -65 -22 -130.5t-60 -129.5t-89 -125t-109 -116l-6 -6q83 0 142 -43h6l904 1476q0 6 6 6q47 52 93.5 112t96 121t103 121t113.5 114
q66 66 138.5 113t144.5 76.5t140.5 43.5t127.5 14q84 0 149.5 -24.5t110.5 -67t68.5 -99t23.5 -119.5q0 -78 -40.5 -164t-120 -175t-198 -180.5t-273.5 -180.5q-42 -24 -92 -47.5t-105 -50.5l-13 -6q-183 -94 -274.5 -187t-91.5 -182q0 -9 1 -18.5t3 -18.5q14 -68 14 -124
q0 -87 -29.5 -158t-81 -130t-121 -108t-149.5 -90.5t-167.5 -77.5t-173.5 -69l-67 -30q-13 0 -19 13q0 8 13 17.5t32 19t40.5 18.5t37.5 18q123 60 207.5 110.5t133.5 93.5q86 75 86 259q0 23 -2 47.5t-2 47.5q0 214 185 342q78 53 153 98t150.5 85.5t152.5 79t160 79.5
q103 67 184 124.5t137 118t85 129t29 157.5q0 51 -8.5 105.5t-31.5 101.5t-65 79.5t-108 39.5q-21 5 -42.5 6.5t-42.5 1.5q-50 0 -100 -11t-97.5 -31t-91.5 -47.5t-82 -60.5q-75 -75 -141 -152t-129 -155q-34 -42 -65.5 -83.5t-63.5 -76.5l-1089 -1777q0 -4 -3 -8l-3 -4
q-11 -9 -17 -9q-8 0 -12 7t-4 9q0 3 2 5l6 13q3 18 3 35q0 25 -6.5 49.5t-22 43.5t-41 30.5t-62.5 11.5q-43 0 -87 -13t-87.5 -34.5t-84.5 -49.5t-77.5 -58t-66.5 -59.5t-51 -54.5q-27 -36 -54 -69t-50 -66q-192 -281 -192 -554q0 -96 20 -185.5t63 -171t109 -154
t159 -134.5q93 -63 195.5 -114.5t211 -88t221 -56.5t225.5 -20q121 0 241 20t238.5 63t235.5 111.5t233 164.5q51 46 78.5 103.5t27.5 125.5q0 110 -75 244q-46 72 -133.5 108.5t-203.5 36.5q-95 0 -198 -28h-6v-6q-5 0 -9 3l-3 3h-6v17q1 3 6 8h6q85 25 169.5 40.5
t165.5 15.5q176 0 269 -90t93 -251q0 -105 -40 -194.5t-116 -160.5h-6q-46 -43 -86 -68q-274 -210 -541.5 -311.5t-534.5 -101.5q-437 0 -817 266q-97 65 -164 133t-108.5 141t-60 153t-18.5 169q0 69 10 145.5t34.5 158t64.5 166t100 170.5q61 91 132.5 178.5t147.5 165.5
t153.5 143.5t151.5 112.5t141 73.5t122 26.5q-6 6 -6 25q83 106 122.5 182t39.5 129q0 107 -107 261l-12 12q-14 19 -32 46t-34 60.5t-27 72.5t-11 83q0 38 8.5 79t29.5 85t56.5 91t89.5 98h6z" />
    <glyph glyph-name="Y" unicode="Y" horiz-adv-x="1398" 
d="M-147 1046v18q37 93 93 171t123.5 141.5t142.5 111.5t151 80t148.5 48.5t134.5 16.5q69 0 118 -18.5t80.5 -55t48.5 -90t23 -122.5q42 32 83.5 63.5t89.5 59.5q19 8 39 17t41 20q164 70 310 70q54 0 112 -10.5t106.5 -39t80 -79.5t31.5 -132v-15.5t-1 -15.5
q-14 -140 -55.5 -280.5t-103 -278.5t-140.5 -272.5t-168 -262.5l215 86q6 0 18 -13q0 -12 -12 -18l-252 -98q-80 -112 -166 -218t-173.5 -205t-174.5 -190.5t-169 -173.5q-26 -22 -55 -49t-62 -61l-36 -37q-42 -42 -82.5 -80t-83.5 -70.5t-88.5 -58.5t-96.5 -43h-12l-6 -7
h-19q-40 -8 -66 -8q-25 0 -57 7t-60.5 27.5t-48 56.5t-19.5 95q0 42 14 89.5t40.5 95t64.5 93.5t87 86q81 66 170.5 131t178 122.5t171.5 105t151 79.5q97 45 215.5 92.5t265.5 101.5q73 119 136.5 244.5t113 254t83.5 258.5t48 258q2 16 3 31t1 30q0 55 -17 108t-48.5 95
t-75 67.5t-96.5 25.5q-9 1 -18.5 1.5t-18.5 0.5q-54 0 -100 -19t-97 -45q-51 -33 -101 -66t-96 -69q0 -62 -18 -136.5t-50 -156.5t-76.5 -167.5t-97 -169t-111.5 -161.5t-120 -144h-6q-19 -28 -37.5 -48.5t-36.5 -37.5q-58 -54 -101 -90t-75.5 -57.5t-56.5 -30t-45 -8.5
q-20 0 -37.5 10t-30.5 26.5t-20 37.5t-7 42q0 43 22 101t58 120t83 125t97 117t87 93.5t64 69t47.5 51t38.5 40.5t35 37.5t38 41.5q36 36 70 72t71 69q1 14 1 27v27q0 70 -10.5 124.5t-36 92t-67.5 57.5t-105 20q-50 0 -106 -11.5t-131 -41.5q-59 -30 -113 -71.5t-100 -91.5
t-82.5 -108t-60.5 -122v-6l-6 -13q0 -10 -7 -10q-6 0 -15.5 3.5t-9.5 6.5q0 6 7 13zM363 -319q-76 -63 -155.5 -156.5t-164.5 -224.5q-39 -57 -54 -109t-15 -107q0 -19 4 -37.5t13 -33t24 -23.5t37 -9q10 0 28 5h18l7 6h6q53 17 98 46t88.5 66.5t89 81t99.5 89.5
q27 28 58 56t59 55q149 155 290.5 330.5t268.5 369.5q-107 -42 -211.5 -82.5t-205 -87t-196.5 -103.5t-186 -132zM1153 2104q49 64 101.5 133t98.5 142t81.5 149t50.5 155q4 8 12.5 19t24.5 11h18q33 -17 37 -24v-13q-39 -98 -79 -177.5t-88 -149t-106 -134.5t-133 -135
q-2 -2 -5 -2t-10.5 5t-7.5 12q0 4 5 9zM1762 2615q-48 -88 -94 -175.5t-103 -168.5q-52 -79 -110 -156t-124 -152q-6 -6 -12 -6q-5 0 -11 4t-6 12t4 15q51 63 101 137.5t102 163.5q93 175 160 326l3 3l4 4t6 5v6q7 9 19.5 14t23.5 5q14 0 18.5 -8.5t18.5 -28.5zM332 308
l37 37t43 42q65 78 114.5 166.5t84 181t55.5 185.5t29 181l-117 -117q-31 -31 -56 -56.5t-55.5 -57t-71 -75.5t-102.5 -112q-42 -46 -75.5 -97t-57 -100.5t-36.5 -94.5t-13 -78q0 -42 24 -61h6q23 -20 57 -20q19 0 52 15.5t82 60.5z" />
    <glyph glyph-name="Z" unicode="Z" horiz-adv-x="1491" 
d="M221 1661q151 123 285 211.5t252.5 146t221 84.5t189.5 27q201 0 338 -137q10 -13 12 -13v-6q90 -104 90 -249q0 -179 -122.5 -396t-373.5 -462q-94 -92 -187 -171.5t-176 -141.5q167 -56 225 -215q26 -73 37 -140.5t11 -139.5v-17t-2 -17l264 104l363 148q7 0 19 -13
q0 -12 -13 -18l-350 -141l-289 -110q-40 -251 -191 -449q-121 -173 -310.5 -327.5t-451.5 -281.5q-49 -27 -104 -37q-86 -33 -165 -33q-36 0 -74 6.5t-69.5 23t-52 44.5t-20.5 70q5 88 49.5 165.5t114.5 145t157 126.5t176 110h6q126 75 249 141t255 136q54 29 111 59
t117 58q2 18 3.5 36.5t1.5 38.5q0 60 -12 124.5t-35 124.5t-55.5 111.5t-74.5 86.5q-33 -26 -62.5 -46.5t-58 -37.5t-58 -32.5t-61.5 -31.5q-68 -35 -121 -58t-92.5 -37t-66.5 -19.5t-45 -5.5q-36 0 -56.5 19t-20.5 61q1 22 7.5 46t27 49.5t58.5 53t101 55.5
q64 28 117.5 46.5t100.5 28.5t89 14t84 4q34 0 66.5 -4t63.5 -13l19 18q59 52 130.5 127.5t145 165t142.5 189.5t123 201t86.5 198t32.5 181q0 96 -51 162l-6 6q-27 32 -64 62t-82.5 53.5t-100.5 37.5t-118 14q-69 0 -149.5 -19t-173 -61.5t-197.5 -110.5t-222 -166
q-17 0 -24 9q-4 4 -4 10q0 4 21 18zM92 -466l-6 -7q-84 -45 -153 -103.5t-118.5 -119.5t-76.5 -119.5t-27 -103.5q0 -40 19 -69.5t47.5 -49t61.5 -29.5t61 -10q48 0 104 24.5t116.5 66t123.5 95.5t125 113q76 73 147 157t128.5 174t98.5 182t57 180q-51 -27 -101.5 -55
t-101.5 -56q-127 -64 -250.5 -129.5t-254.5 -140.5zM609 492q-62 37 -143 37q-51 0 -105 -13t-101 -31t-82.5 -35.5t-48.5 -26.5q-46 -32 -73.5 -68t-27.5 -70q0 -23 11.5 -35t38.5 -12q14 0 62.5 13.5t120.5 43.5t162 78.5t186 118.5z" />
    <glyph glyph-name="Z.alt" unicode="&#xb3;" horiz-adv-x="1092" 
d="M504 -42q-97 -38 -189 -85.5t-180 -105.5l-6 -6l-12 -6q-137 -96 -224.5 -177t-137 -149.5t-68 -126.5t-18.5 -107q0 -48 11 -75.5t28.5 -40.5t38 -16t39.5 -3q22 0 38.5 3t35 9.5t42.5 17t62 25.5q57 34 117.5 86.5t117.5 118.5t109 142.5t93 159t68 167.5t35 169z
M732 74l147 55l363 148q21 0 21 -18q0 -5 -8 -13l-357 -141l-166 -62q-15 -121 -65.5 -233t-119.5 -209q-50 -75 -114 -148t-137 -139t-152.5 -123t-160.5 -100h-7q-38 -25 -79.5 -42.5t-80 -28.5t-71 -16t-52.5 -5q-19 0 -39 2.5t-39.5 10.5t-37 23.5t-31.5 42.5
q-25 31 -25 105q0 46 33.5 105.5t104.5 134t181.5 165t264.5 198.5h6l6 6q97 66 193.5 113t199.5 84q0 68 -5.5 122t-17.5 99.5t-30.5 85t-44.5 79.5q-9 28 -25 43q-119 -77 -282 -86q-47 0 -77.5 8.5t-49 22.5t-26 32.5t-7.5 39.5q0 46 16.5 76.5t41 49.5t52 30t50.5 18
q40 13 66.5 19t45.5 8.5t34.5 2.5h34.5q118 0 218 -61q2 -2 10 -6.5t21 -11.5q46 41 99 95t101 114t84 121t47 116q5 21 6.5 42.5t1.5 42.5q0 67 -20.5 133t-54.5 127.5t-77.5 118t-88.5 104.5q-28 38 -46 68.5t-29 58t-15.5 54t-4.5 55.5q0 44 10.5 86.5t29.5 81.5t44 72.5
t55 59.5q23 16 41.5 28.5t22.5 12.5q5 0 10 -6t5 -11q0 -6 -6 -12q-40 -52 -40 -117q0 -66 35 -135t104 -136q179 -173 179 -406q0 -135 -62 -276t-191 -296h-6q-51 -60 -106 -117.5t-109 -103.5q59 -53 94.5 -114t54.5 -120t25 -111t6 -86q0 -8 -0.5 -15.5t-1.5 -14.5z
M111 578l-28.5 -9.5t-27.5 -8.5q-38 -30 -58.5 -60t-20.5 -76q0 -29 33 -45t96 -16q148 9 264 80q-19 27 -43.5 52t-52 44t-57 30.5t-58.5 11.5q-19 0 -35 -3h-12z" />
    <glyph glyph-name="a" unicode="a" horiz-adv-x="1254" 
d="M765 -11q-11 -3 -19 -3q-14 0 -14 11q0 5 2 9l62 222q-17 -7 -49 -7q-29 -44 -63 -77t-70.5 -57t-74.5 -41t-75 -28q-42 -9 -92 -14.5t-111 -5.5q-69 0 -111 37.5t-42 110.5q0 41 18 88l-190 -74q-9 0 -11 2.5t-2 8.5q0 13 7 14l460 184h12q5 0 6.5 -3t6.5 -3
q0 -12 -6 -12q-11 -23 -25 -49.5t-26.5 -53.5t-21 -55t-8.5 -54q0 -48 15.5 -75t43.5 -27q45 3 89.5 16.5t86.5 37t79.5 56t67.5 74.5q-22 6 -40 21t-31.5 34.5t-21 42.5t-7.5 47q0 70 41 103t112 33q35 0 56 -21t21 -64q0 -14 -6 -35.5t-16 -45t-22 -46t-25 -38.5
q34 7 66.5 20.5t63.5 30t60 35.5t56 37q6 3 11 3q9 0 14 -9v-12l-62 -246l394 147q1 0 1.5 0.5t2.5 0.5t6.5 -3t4.5 -9q0 -9 -9 -13z" />
    <glyph glyph-name="c_k" unicode="&#xe1;" horiz-adv-x="2015" 
d="M1510 -13q-3 -3 -6 -3q-7 0 -12.5 4.5t-5.5 15.5q80 296 80 302h-25q-42 -10 -80 -21t-80 -29q-48 -23 -89 -50.5t-77 -59.5q26 -8 40 -30t14 -51q0 -22 -10 -48t-26 -49q-45 -83 -103 -83q-27 0 -43.5 10.5t-31.5 41.5q0 41 14 73.5t48 73.5q12 25 24 31
q-85 -5 -159.5 -26t-147.5 -48l-37 -18l-37 -13q-5 -5 -9 -5q-7 0 -16 4.5t-9 6.5q0 4 9 13v6q25 43 50 89t49 90t46.5 84t42.5 72q-100 -100 -178.5 -164.5t-138.5 -93.5q-62 -31 -99 -49t-63 -28.5t-48 -15.5t-54 -9q-42 -16 -80 -16q-37 0 -64 19.5t-27 68.5q0 62 42 182
l-260 -104q-20 0 -22 6.5t-2 11.5q0 10 14 13q143 54 281.5 109t283.5 112q8 8 12 8q6 0 6 -14v-19q-66 -79 -95.5 -145t-29.5 -121q0 -26 7.5 -34.5t21.5 -8.5q10 0 18.5 0.5t26 7.5t49.5 24t89 49q120 67 357 303q49 92 109.5 200.5t128.5 218.5t140 214t144 188
q70 91 146 161.5t161 127.5q4 5 12 9.5t13 9.5q126 78 223 78q44 0 71.5 -13t42.5 -31.5t20.5 -40t5.5 -39.5q0 -47 -24.5 -103t-66.5 -116.5t-98 -123t-118.5 -123.5t-127.5 -118.5t-126 -106.5t-114 -89t-91 -65q-41 -28 -71 -47t-55 -34t-47.5 -29t-49.5 -32
q-30 -61 -58 -117t-56 -110t-56.5 -107.5t-58.5 -108.5q92 37 203 37q51 51 118 89.5t142 64.5t155 41t157 20h6l6 -6v-12l-61 -240v-13q0 -7 4 -7q1 0 2 1l467 185q7 0 19 -13q0 -12 -13 -18q-89 -35 -170.5 -68t-161.5 -65t-161.5 -63t-170.5 -61zM2070 1480q10 29 10 57
q0 43 -20 59.5t-51 16.5q-59 0 -167 -53l-24 -12q-85 -66 -159.5 -158.5t-140.5 -218.5q-67 -126 -142 -271.5t-153 -292.5q31 27 69 51.5t81 51.5t90 59t97 73q43 35 93 79.5t101.5 95.5t101.5 107t92.5 115.5t74 120t47.5 120.5z" />
    <glyph glyph-name="adieresis" unicode="&#xe4;" horiz-adv-x="1254" 
d="M765 -11q-11 -3 -19 -3q-14 0 -14 11q0 5 2 9l62 222q-17 -7 -49 -7q-29 -44 -63 -77t-70.5 -57t-74.5 -41t-75 -28q-42 -9 -92 -14.5t-111 -5.5q-69 0 -111 37.5t-42 110.5q0 41 18 88l-190 -74q-9 0 -11 2.5t-2 8.5q0 13 7 14l460 184h12q5 0 6.5 -3t6.5 -3
q0 -12 -6 -12q-11 -23 -25 -49.5t-26.5 -53.5t-21 -55t-8.5 -54q0 -48 15.5 -75t43.5 -27q45 3 89.5 16.5t86.5 37t79.5 56t67.5 74.5q-22 6 -40 21t-31.5 34.5t-21 42.5t-7.5 47q0 70 41 103t112 33q35 0 56 -21t21 -64q0 -14 -6 -35.5t-16 -45t-22 -46t-25 -38.5
q34 7 66.5 20.5t63.5 30t60 35.5t56 37q6 3 11 3q9 0 14 -9v-12l-62 -246l394 147q1 0 1.5 0.5t2.5 0.5t6.5 -3t4.5 -9q0 -9 -9 -13zM1411 1494q10 -16 10 -32q0 -11 -3.5 -20.5t-19 -30t-48.5 -57.5t-92 -103q-21 -24 -43.5 -48t-41 -43t-32 -30.5t-17.5 -11.5q-3 0 -3 3
q0 8 10 28.5t26 47.5t36.5 59.5t41.5 64.5q50 76 114 167q22 22 38 22q14 0 24 -16zM1583 1494q9 -15 9 -30q0 -9 -4.5 -19.5t-22.5 -33t-54.5 -63t-100.5 -109.5q-24 -26 -49.5 -51.5t-47.5 -46.5t-38 -34t-21 -13q-4 0 -4 3q0 6 11 26t29 47.5t41.5 61t47.5 66.5t47 64
t41 54q26 35 39.5 53.5t21.5 27t13.5 9.5t14.5 1q13 0 27 -13z" />
    <glyph glyph-name="c_h" unicode="&#xe0;" horiz-adv-x="1509" 
d="M976 0l652 264q2 1 7 1q4 0 8.5 -3t4.5 -10q0 -9 -8 -12l-688 -276q-91 -169 -191 -330t-211 -317q-222 -312 -563 -478q-107 -62 -197 -62q-63 0 -99 19.5t-53.5 47.5t-21.5 58t-4 50q0 24 5 49.5t18.5 53.5t36 60.5t58.5 71.5q72 79 180 171.5t240 188t281.5 187
t304.5 169.5q24 55 42.5 94.5t34.5 71.5t31 59t31.5 56.5t37 64.5t47.5 83q-62 -65 -302 -186q-121 -61 -199.5 -95t-116.5 -41q-42 -16 -80 -16q-37 0 -64 19.5t-27 68.5q0 62 42 182l-260 -104q-20 0 -22 6.5t-2 11.5q0 10 14 13q143 54 281.5 109t283.5 112q5 1 9 1.5
t6 0.5l3 -8v-19q-66 -79 -95.5 -145t-29.5 -121q0 -23 6 -33t19 -10q18 0 41 10t41 17q378 193 517 332l105 172q66 115 136 220t144.5 195.5t154.5 166t168 131.5q4 4 11.5 9t12.5 10q128 77 222 77q60 0 94 -25.5t47 -88.5q0 -97 -86 -191q-97 -104 -182.5 -182
t-174.5 -144t-188.5 -128.5t-223.5 -135.5q-75 -121 -144.5 -252.5t-144.5 -270.5zM706 -165q-353 -193 -643 -462q-161 -150 -243 -268t-82 -204q0 -19 3 -34.5t11 -26t23.5 -16t41.5 -5.5q77 0 158 44q273 148 439 427q84 140 156.5 275.5t135.5 269.5zM2003 1230
q4 25 5.5 43t1.5 29q0 32 -20.5 46.5t-46.5 14.5q-36 0 -82.5 -18t-115.5 -47q-30 -25 -64.5 -71.5t-72.5 -107t-78 -131.5t-80 -145q-35 -57 -71.5 -119.5t-76.5 -133.5l-6 -12q70 40 130.5 76.5t116.5 74.5t109.5 79t110.5 90q42 34 79.5 70.5t68.5 77t54.5 86t37.5 98.5z
" />
    <glyph glyph-name="asciitilde" unicode="~" horiz-adv-x="826" 
d="M6 1531q11 62 86 62q23 0 39.5 -10t27.5 -26.5t17 -37.5t9 -43q0 -36 -19 -74q53 -20 111 -20q51 0 112 16t124 39t124 48.5t113 45.5q7 4 12 4q4 0 9.5 -10t5.5 -12q0 -1 -13.5 -7t-34.5 -14.5t-47.5 -19.5t-52.5 -22t-49 -20.5t-37 -16.5q-63 -29 -128 -45.5
t-125 -16.5q-35 0 -79.5 8t-98.5 23q-111 31 -111 113q0 9 1.5 17.5t3.5 18.5z" />
    <glyph glyph-name="b" unicode="b" horiz-adv-x="759" 
d="M618 160h-2q-15 -19 -29.5 -40.5t-32.5 -39.5q-92 -92 -227 -104h-13q-48 0 -85.5 16.5t-63.5 44.5t-39.5 65t-13.5 78q0 12 1.5 24t3.5 24q-31 -12 -58 -22.5t-55.5 -21.5t-60 -23t-71.5 -26q-12 0 -18 13q0 6 12 18q43 14 77 26t64 23t58 23t59 26q40 160 190 367
q163 225 297 398.5t242 291.5t191 178.5t144 60.5q27 0 49 -16h6q20 -20 31.5 -51t11.5 -71q0 -63 -30.5 -135t-78.5 -144.5t-108.5 -142.5t-120.5 -128q-92 -89 -171 -167.5t-155 -147.5t-152.5 -128t-161.5 -109q-10 -20 -22 -62.5t-28 -108.5q-9 -36 -9 -63q0 -74 65 -80
q43 3 84 16.5t75.5 35t61.5 49t44 59.5q-23 4 -44 22t-37.5 42.5t-26.5 50.5t-10 45q0 27 11.5 50t30 40t41 27t44.5 10q26 0 41 -14.5t22.5 -36.5t9.5 -46.5t2 -44.5q0 -23 -5 -42t-10 -34q-6 -18 -14 -32q1 -1 2 -1v-2q0 -3 9 -8.5t27 -5.5q13 0 23 2t24 7t36 14t58 24
q20 8 39 15.5t34.5 14t25 10.5t10.5 4q13 0 19 -12q0 -13 -6 -19h-6l-179 -71q-19 -10 -43 -17t-44 -7q-15 0 -26 3t-19 5v1zM1065 1089q28 40 52 82.5t42 83.5t28 79t10 70q0 38 -16 60l-12 12q-17 11 -32 11q-43 0 -97.5 -53.5t-128.5 -154.5t-170.5 -247t-223.5 -331
q-51 -75 -95 -161t-89 -171q54 33 100 67.5t89 72t86.5 77.5t93.5 84q100 102 190.5 206t172.5 213z" />
    <glyph glyph-name="c" unicode="c" horiz-adv-x="809" 
d="M508 412q8 8 12 8q6 0 6 -14v-19q-66 -79 -95.5 -145t-29.5 -121q0 -23 6 -33t19 -10q18 0 41 10t41 17l374 134q1 1 4 1t7.5 -4t4.5 -12q0 -11 -10 -15l-368 -135q-35 -13 -79 -28.5t-99 -35.5q-42 -16 -80 -16q-37 0 -64 19.5t-27 68.5q0 62 42 182l-260 -104
q-20 0 -22 6.5t-2 11.5q0 10 14 13q143 54 281.5 109t283.5 112z" />
    <glyph glyph-name="comma" unicode="," horiz-adv-x="337" 
d="M224 43q12 0 19 -0.5t12.5 -5t11 -14.5t13.5 -28q0 -2 0.5 -3.5t0.5 -3.5q0 -11 -6 -33t-17.5 -50t-27.5 -59.5t-36 -59.5q-32 -38 -70 -74.5t-73.5 -65t-64 -46t-41.5 -17.5q-7 0 -7 6q0 8 19 33t47 58.5t58 71t53 71.5q20 27 32 56t18 54t8 42t2 20q0 48 49 48z" />
    <glyph glyph-name="d" unicode="d" horiz-adv-x="956" 
d="M332 332q40 18 66 18q31 0 40 -22.5t9 -54.5q0 -24 -2.5 -48.5t-2.5 -46.5q0 -42 6 -56.5t22 -14.5q11 0 21 10q323 175 554 461l18 19q-7 0 -15 3.5t-21 8.5q-54 23 -88 72t-34 121q0 54 19 119t55 137.5t88 151.5t119 161q58 79 169 132q18 6 26.5 8.5t12.5 3t6 0.5h5
q52 0 83 -35t31 -115q-3 -23 -8 -49t-12 -53t-16 -53t-20 -48q-4 -8 -19 -35.5t-38 -68t-53 -91t-64.5 -105.5t-73 -112t-78.5 -110q4 -7 14 -10.5t20 -6.5t17.5 -7.5t7.5 -12.5q0 -13 -11.5 -17.5t-25.5 -4.5q-26 0 -59 9q-9 -9 -15 -18t-15 -18q-131 -159 -285.5 -280.5
t-329.5 -218.5q-21 -10 -40 -20t-38 -18t-39.5 -13t-44.5 -5q-35 0 -57 18.5t-22 56.5v9t1 9v49q0 23 1 41t1 33q0 13 -3 21t-20 8q-16 0 -41.5 -8t-63.5 -23q-75 -30 -108 -39.5t-37 -9.5q-3 0 -7.5 3.5t-4.5 9.5q0 7 7 14q100 36 195 72t198 69zM1119 664
q44 61 90.5 133.5t87 143t70 131.5t39.5 98q11 43 19.5 86t8.5 84q0 23 -3.5 48t-10 46t-17 34.5t-23.5 13.5q-19 0 -37.5 -13.5t-36 -34.5t-34 -46t-30.5 -47q-42 -78 -73 -152.5t-51.5 -141.5t-30.5 -124.5t-10 -102.5q0 -102 42 -156z" />
    <glyph glyph-name="d.end" unicode="&#xec;" horiz-adv-x="921" 
d="M381 357q19 0 19 -13v-18q-33 -39 -58.5 -75t-43.5 -66.5t-27.5 -55.5t-9.5 -41q0 -20 14.5 -25.5t33.5 -5.5q12 0 25 3t29 8h6q87 23 159 77t131 133.5t107.5 182t88.5 222.5q22 79 111 147q36 23 84.5 46t99.5 47q187 80 319.5 168t216.5 181t122.5 188.5t38.5 191.5
q0 94 -29.5 178.5t-86.5 148t-140 100.5t-189 37q-72 0 -136 -18.5t-118 -48.5t-98.5 -69t-77.5 -80v-6h-6l-7 -6q0 -14 -6 -14q-3 0 -10.5 5.5t-7.5 27.5l12 12q49 58 109.5 104.5t128.5 79t141.5 50t150.5 17.5q98 0 179.5 -22t146 -63.5t110.5 -100.5t73 -133
q30 -86 30 -163q0 -101 -47.5 -194t-133.5 -180t-205.5 -167.5t-264.5 -156.5q-46 -24 -97 -47.5t-106 -50.5q-35 -14 -52.5 -35.5t-29 -50t-22 -63t-31.5 -73.5q-111 -240 -283 -412q-182 -170 -350 -215l-7 -6h-18l-6 -6q-54 -14 -102 -24.5t-86 -10.5q-49 0 -75 23
t-26 68q0 26 8 57.5t23 70.5l-135 -49q-8 -8 -12 -8q-1 0 -3.5 4t-5 9l-4.5 9t-2 5q0 6 15 6l417 166h6z" />
    <glyph glyph-name="rounds" unicode="$" horiz-adv-x="947" 
d="M416 363q75 180 183.5 345t241.5 304t286 245t316 168q52 20 106 30t113 10q55 0 102.5 -11t85 -30t64 -43.5t40.5 -52.5q18 -28 22 -58.5t4 -57.5q0 -60 -28.5 -126t-83 -129.5t-135 -121.5t-185.5 -103l-13 -6q-14 -8 -18 -8q-1 0 -3 4t-4.5 8.5t-4.5 8.5t-2 5
q0 2 15.5 8.5t38.5 17t51 25t53 33.5q80 59 110 132t30 162q0 109 -36.5 169t-112.5 80q-39 15 -90 15q-56 0 -118 -15t-119 -39q-18 -8 -52.5 -26t-80 -46.5t-99.5 -68.5t-112 -92q-92 -83 -169 -168.5t-142 -175.5t-118.5 -186.5t-98.5 -199.5q76 19 130.5 26.5t94.5 7.5
q126 0 126 -64t-25 -119t-61 -91q-46 -57 -109.5 -93t-136.5 -36h-13q-2 -1 -10 -1q-14 0 -37 10.5t-39 33.5q-24 49 -24 92q1 38 10.5 81.5t32.5 91.5l6 12q-56 -9 -101 -23.5t-96 -32.5l-258 -104q-8 -2 -9 -2q-8 0 -16 8q1 14 12 19l259 104q54 20 110 38.5t117 35.5z
M472 31q10 0 22.5 6t24.5 14.5t22.5 18t16.5 16.5q34 30 57 77.5t23 104.5q0 16 -2 30t-10 24.5t-26 16t-49 5.5q-23 0 -51.5 -4t-64.5 -8q-16 -25 -26 -54.5t-15 -57t-7 -50.5t-2 -35q0 -15 1.5 -31t8.5 -30.5t20.5 -26t37.5 -16.5h19z" />
    <glyph glyph-name="e" unicode="e" horiz-adv-x="974" 
d="M700 363q10 2 9 2q8 0 16 -8v-13l-123 -276l388 151q1 1 7 1t9.5 -5t3.5 -10q0 -7 -8 -10l-431 -170q-23 -9 -55 -18.5t-63 -9.5q-29 0 -52.5 13.5t-23.5 40.5q0 26 22 66l74 154l-160 -43l-141 -239q0 -13 -13 -13l-147 13q-13 0 -13 11v12l117 216l-157 -62
q-6 -3 -10 -3q-10 0 -10 12q0 7 6 16l417 166q5 0 12.5 -4t7.5 -14q0 -4 -4 -12t-10 -17.5t-12.5 -19t-10.5 -16.5l-1 -2q0 -3 5 -3q7 0 42.5 9t86 23t109.5 30.5t113 31.5z" />
    <glyph glyph-name="f_lons" unicode="&#xe8;" horiz-adv-x="1937" 
d="M1130 1125h-6q-66 -94 -129 -184.5t-123 -184.5q15 -15 55 -36t95 -40.5t118 -33t125 -13.5q32 0 64 3.5t65 3.5l25 30v7l18 18v12h7v6l12 13v6l12 12q75 103 156.5 204.5t175.5 189.5q-11 130 -80.5 187.5t-193.5 57.5q-57 0 -116 -15.5t-114 -57.5q-51 -34 -90 -75.5
t-70 -90.5l-6 -12v-7zM-44 166q-8 -3 -11 -3t-7 3.5t-4 9.5q0 8 10 15l220 86q120 41 200 57.5t126 16.5q14 -6 27 -7.5t23 -5.5l12 -12q55 85 108 166t113 166l-6 6q-36 32 -68.5 53.5t-63 34t-60.5 18t-61 5.5q-45 0 -91 -15.5t-86.5 -36t-72.5 -39.5t-50 -26h-7v-6
l-18 31h6q14 9 27.5 15t27.5 15q45 22 88.5 42.5t88.5 36.5t93 25.5t103 9.5q103 0 218 -58q64 94 128 187.5t130 187.5l12 12v6q75 117 167 173q85 63 189.5 102.5t236.5 48.5q5 0 10 0.5t10 0.5q39 0 75.5 -12t67 -38.5t53 -68t34.5 -101.5l6 6q33 25 67.5 51t70.5 48.5
t74 41.5t77 31q54 21 91 27t66 6q22 0 46.5 -4t47.5 -20t41.5 -48.5t27.5 -89.5q6 -81 71 -81q17 0 37.5 3t51.5 17q94 42 194 99.5t200 115.5v6h6l12 12q17 0 25 -6q0 -18 -7 -24h-6l-12 -7v-6h-6q-115 -72 -211 -127t-176.5 -92.5t-145.5 -56.5t-118 -19q-51 0 -79.5 23
t-38.5 75l-6 31q-4 18 -11 41t-13 51q-6 26 -21 36t-41 10q-8 0 -12 -2q-85 -33 -160 -81.5t-148 -103.5q0 -121 -50.5 -254.5t-152.5 -292.5q64 9 133 18t144 19q18 0 18 -13q0 -18 -12 -18q-85 -15 -158.5 -24.5t-142.5 -18.5q-24 -37 -51 -74.5t-54 -73.5
q-61 -81 -110 -145t-88 -112t-69 -81.5t-53 -54.5q-101 -116 -148 -116q-21 0 -30.5 22t-9.5 52q0 34 9.5 78t31.5 99.5t58 124.5t89 152l25 30l6 13l6 6l6 12l6 6v6l7 7l6 12q-76 -8 -145.5 -11t-132.5 -3q-209 0 -294 45q-111 -161 -228 -357q-14 -14 -23.5 -29.5t-21 -35
t-26.5 -44.5t-39 -57q-180 -294 -352 -590t-342 -596q0 -15 -6 -15q-1 0 -5 2l-9 4.5t-9 5t-4 3.5q0 4 8 12q154 278 309.5 553t322.5 547l7 12v7q2 11 3.5 21t1.5 20q0 33 -17.5 54.5t-45.5 34.5t-62.5 18t-68.5 5q-27 0 -54.5 -3t-53 -7.5t-46 -9.5t-33.5 -10zM1677 640
q-75 -10 -139.5 -18.5t-124.5 -12.5l-25 -37l-12 -12v-6l-19 -19l-6 -12l-12 -13q-44 -69 -74 -125t-48 -101t-25.5 -79.5t-7.5 -61.5q0 -25 10 -45t24 -20q7 0 19 8t24.5 18.5t22 19.5t12.5 11q7 16 31 37q48 54 116 139.5t160 205.5q13 17 22 29.5t17 26t16 29t19 38.5z
M1437 646q60 4 124.5 11.5t134.5 12.5q52 120 78 222.5t26 202.5q-103 -103 -191 -218.5t-172 -230.5z" />
    <glyph glyph-name="f" unicode="f" horiz-adv-x="773" 
d="M-434 -1155q-6 -13 -13 -13q-2 0 -6 1.5t-8.5 4t-8 4.5t-3.5 3q0 4 8 12l80 142q157 286 321 574t349 568q3 51 3 85q0 63 -10 63q-18 0 -30 -6q-75 -28 -149 -59t-152 -58q-10 0 -14 1t-5.5 3t-1 5.5t-0.5 8.5l9 7q95 26 254 114q148 82 234 82q9 0 12.5 -3t8.5 -3
q93 139 193 270t207 265q78 99 161 192.5t171 183.5q54 57 112 100t112.5 71t101.5 42t80 14q8 0 18.5 -2.5t19.5 -7.5t15.5 -13.5t6.5 -20.5q0 -13 -4 -24q-19 -90 -90 -185t-193.5 -199t-296.5 -219t-398 -245l-13 -6l-6 -7q-42 -60 -80 -119.5t-80 -119.5q15 -30 15 -74
q0 -17 -3 -37t-3 -34q0 -67 52 -67q24 0 55 7.5t64.5 20t68 27.5t66 29.5t56.5 27.5t41 20q23 0 23 -12q0 -9 -27 -25.5t-70 -36.5t-95 -42t-102.5 -41.5t-92.5 -35.5t-64 -24q-34 -12 -60.5 -17.5t-44.5 -5.5q-10 0 -19.5 3t-17.5 6t-13.5 6t-6.5 3q-146 -260 -264 -516
t-215 -504q-15 -31 -36 -49.5t-45.5 -30.5t-50 -20t-49 -18t-44 -25t-33.5 -41zM1201 1267q-148 -148 -273 -300.5t-244 -308.5q145 84 255 157.5t192.5 139t140.5 124.5t99 113.5t69 106.5t50 103q6 13 6 31q-5 4 -6.5 5.5t-5.5 6.5q-20 0 -49.5 -9t-65.5 -30t-78.5 -55
t-89.5 -84z" />
    <glyph glyph-name="f.init" unicode="&#xe2;" horiz-adv-x="667" 
d="M1242 1544q45 19 85 19q61 0 96.5 -27t35.5 -84q0 -39 -18.5 -74t-56.5 -74q-112 -116 -218.5 -211t-208.5 -176t-199.5 -152t-191.5 -138l-49 -37l-154 -264q6 -6 9.5 -10t6 -8t5.5 -9.5t10 -15.5q8 -43 10 -65.5t2.5 -33.5t0.5 -16.5t5 -13.5q3 -9 21 -9q21 0 55.5 8.5
t75.5 22t86.5 31.5t89.5 36q33 13 46.5 18.5t20.5 8t14 6t27 12.5l34 16q6 0 18 -12q0 -4 -10 -11t-23 -14t-25 -13t-16 -7q-11 -4 -74 -30q-84 -35 -160.5 -64t-139.5 -50t-109 -32.5t-69 -11.5q-11 0 -21 2t-32 13l-632 -1137q-8 -8 -16 -8q-9 0 -12 6t-3 20l645 1143
q-5 20 -5 39q0 14 3.5 33t3.5 35q0 22 -13 31t-43 9q-17 0 -41 -2.5t-53 -8.5h-12v6h-6v18h6q94 88 192.5 168t201.5 158l61 43l49 93h7l30 55q57 90 109 170.5t109 158t126 156.5t161 167q15 13 33.5 30.5t38.5 34.5t40.5 31t40.5 21zM178 338h13q49 15 85 15q16 0 32 -5
t30 -10l117 209q-75 -51 -141.5 -102.5t-135.5 -106.5zM566 677q73 58 149.5 121.5t159.5 137.5t174 161.5t193 194.5q80 95 80 178q0 3 -1.5 11t-6 16.5t-11.5 15t-18 6.5q-24 0 -47.5 -11.5t-45 -29t-41.5 -38t-38 -38.5q-92 -85 -161 -163t-126 -155t-108.5 -157.5
t-108.5 -170.5l-31 -49v-6z" />
    <glyph glyph-name="f_f_t" unicode="&#xe9;" horiz-adv-x="2189" 
d="M1128 1125q-85 -121 -169.5 -243t-162.5 -249q140 -18 278 -28t288 -15q51 81 110.5 161.5t119.5 153.5t115 133t97 100q-10 122 -80 184q0 4 -6 5.5t-6 7.5q-40 29 -84 38.5t-98 9.5q-57 0 -115 -15.5t-115 -57.5q-51 -36 -91 -76.5t-69 -89.5l-6 -12h-6v-7zM777 603
q-55 -79 -106.5 -158.5t-102.5 -161.5q0 -5 -5 -15t-13 -22.5t-18 -27t-19 -27.5q-12 -25 -49 -74q-181 -296 -355 -590t-340 -596q-11 -8 -14 -8q-9 0 -14 3t-5 5q0 4 8 12q153 278 306.5 553t320.5 547l13 12v7q2 11 3.5 21t1.5 20q0 33 -17.5 54.5t-45.5 34.5t-62.5 18
t-68.5 5q-27 0 -54.5 -3t-52.5 -7.5t-45.5 -9.5t-33.5 -10l-50 -19q-7 -4 -11 -4q-2 0 -4.5 3.5t-5 7.5t-4.5 8l-2 4q0 6 15 6l215 86q121 42 203.5 58t128.5 16q14 -6 27 -7.5t23 -5.5l12 -12q45 73 91.5 143.5t92.5 139.5q-16 2 -46 6t-65.5 9t-72.5 10.5t-67 11
t-49.5 10.5t-19.5 8q0 1 1.5 5t3.5 8.5t5.5 8t8.5 3.5q78 -15 156.5 -27.5t163.5 -21.5q85 126 170.5 251.5t173.5 252.5l6 12v6h7q70 114 166 173q85 63 189.5 102.5t236.5 48.5q5 0 10 0.5t10 0.5q78 0 135.5 -46t82.5 -131q13 9 24 21.5t25 21.5q34 30 82 59.5t101 53
t107.5 38.5t100.5 15q111 0 163 -51.5t52 -142.5q0 -110 -77 -243l-277 -473q42 0 86 3.5t86 8.5q13 0 13 -18q0 -13 -13 -13q-46 -5 -92.5 -6.5t-97.5 -5.5l-252 -437q42 11 88 27.5t91.5 35.5t89 38t81.5 35q21 0 21 -18q0 -5 -8 -13q-46 -19 -94 -40t-96.5 -40.5
t-98.5 -35.5t-99 -25l-141 -252q0 -6 -13 -6l-153 -31q-19 0 -19 13v12q47 78 75.5 124t43.5 70t19.5 31.5t4.5 10.5q-1 0 -3 -3.5t-5 -6.5q2 5 6.5 11t12.5 20q-32 5 -67.5 15.5t-65 28t-49 41.5t-19.5 55q0 51 21 75.5t69 24.5q23 0 39.5 -11t27.5 -28.5t17 -39.5t8 -44
q0 -37 -18 -74q36 -12 55 -12q17 27 47.5 81.5t81.5 140.5l130 221q-94 -5 -186.5 -8.5t-189.5 -3.5q-78 -121 -166 -225.5t-166 -186.5q-7 -12 -16.5 -21.5t-20.5 -21.5q-52 -58 -88 -87t-60 -29q-22 0 -34 22.5t-12 55.5q0 44 16.5 100t46 120t71 134.5t91.5 144.5
q-148 4 -288 13.5t-278 23.5zM2075 603q45 76 90 150t86.5 141t78 126t65.5 105q48 78 48 145q0 63 -39 104.5t-108 41.5q-40 0 -85.5 -11.5t-89.5 -31t-83 -44t-67 -50.5l-13 -12v-37q0 -75 -20.5 -155t-55 -162t-80 -163.5t-96.5 -159.5q94 0 184.5 4t184.5 9zM1399 590
h252q31 54 59 113.5t49 123t33 131t12 137.5q-25 -22 -71.5 -75t-103 -123t-117 -150t-113.5 -157zM1632 560h-252q-42 -58 -77.5 -115t-61.5 -110t-40.5 -99.5t-14.5 -82.5q0 -31 10.5 -53t25.5 -22q7 0 19 8t24.5 18.5t22 19.5t12.5 11q2 5 10 14t21 23q169 184 301 388z
" />
    <glyph glyph-name="g" unicode="g" horiz-adv-x="1291" 
d="M462 -700q-57 -66 -125 -132.5t-144.5 -126.5t-159 -109.5t-167.5 -80.5q-35 -13 -64 -18.5t-54 -5.5q-14 0 -34 2t-41 10t-40 25.5t-31 47.5q-9 23 -14.5 44t-5.5 43t5.5 47.5t19.5 55.5t37 65.5t59 79.5q48 59 114 125.5t145 135.5t170 138.5t190 134t204 122
t212 103.5q31 89 50.5 145.5t29.5 82.5q-6 -2 -18 -5t-24.5 -6t-23.5 -5.5t-14 -2.5q-28 -42 -59.5 -72t-63.5 -57q-20 -17 -57 -34.5t-82 -32t-94 -24t-92 -9.5q-38 0 -72 6.5t-60 23t-41.5 45t-15.5 72.5q0 23 5 47t11 48l-177 -68q-13 0 -19 6q0 19 13 19
q54 22 108.5 46.5t109.5 48t110.5 45t112.5 38.5q7 3 13 3q12 0 12 -15v-13q-20 -23 -35 -53.5t-25 -62t-14.5 -61t-4.5 -50.5q0 -30 14.5 -55t39.5 -25q42 3 88.5 18t90.5 39.5t82.5 56.5t64.5 70q-102 24 -102 123q0 75 35 115t98 45q79 0 99 -74q0 -24 -7.5 -48.5
t-18 -47.5t-22 -43.5t-20.5 -38.5q33 7 65 20t62.5 29.5t59 34t53.5 33.5q3 3 7 3q8 0 17 -9v-13q-56 -135 -123 -282l415 162q7 0 19 -13q0 -6 -12 -18l-434 -175q-44 -95 -92.5 -191t-102 -188t-112.5 -178t-123 -161zM369 -694q17 25 45 74t61.5 110t69 129t68.5 131.5
t59.5 116.5t41.5 85q-28 -11 -92.5 -50.5t-148 -99t-176.5 -132.5t-178 -151q-77 -70 -150 -147t-130 -153t-92 -146t-35 -125q0 -16 2 -30.5t9.5 -26t20.5 -18t36 -6.5q42 0 90.5 17.5t97 45t94 62t82.5 68.5q127 117 225 246z" />
    <glyph glyph-name="germandbls" unicode="&#xdf;" horiz-adv-x="1220" 
d="M1058 1082q-126 -195 -245.5 -387.5t-240.5 -386.5v-13q0 -12 -12 -37q-19 -18 -43 -67q-38 -56 -93 -129q-185 -303 -366.5 -607.5t-370.5 -609.5q0 -15 -6 -15q-4 0 -12 8.5t-8 16.5q0 2 2 8q185 296 361.5 594t356.5 592l6 6v7q4 19 4 38q0 34 -18 56.5t-46 35.5
t-62.5 18t-68.5 5q-27 0 -54.5 -3t-53 -7t-47 -9.5t-35.5 -10.5l-48 -19q-2 -2 -4 -2q-5 0 -15 8q0 19 13 19l214 86q121 42 203.5 58t128.5 16q18 -6 29.5 -8t26.5 -11q115 194 234 384t245 385l6 6q23 32 47.5 63.5t57.5 59.5q43 37 96 70t109.5 58t114 40t109.5 15
q24 0 48.5 -4t46.5 -12.5t39.5 -21t26.5 -28.5q48 -54 48 -106q0 -27 -16 -57.5t-41.5 -63.5t-57.5 -67t-64.5 -67t-62.5 -63t-52 -56l-6 -6q-55 -64 -81.5 -126t-35.5 -130q-6 -51 -21 -100t-42 -100t-67 -107t-97 -120q-14 -17 -42.5 -44t-71.5 -65q-42 -37 -75.5 -59
t-64 -33.5t-60 -15t-61.5 -3.5q-68 0 -93 42q-2 1 -3 3q-3 3 -3 9v6q-2 4 -2 13q0 29 26 61.5t66 63t88 55.5t92 39q52 17 104 36t106 40q14 38 23 75.5t14 72.5q9 53 20.5 99t33 87.5t55.5 79t88 72.5q22 18 41.5 33.5t38.5 33.5l6 7q21 21 46.5 52t48 64t38 65.5
t15.5 56.5q0 51 -50 106q-7 14 -20.5 24.5t-31 17.5t-37 10.5t-38.5 3.5q-40 0 -83.5 -12t-85.5 -31.5t-80 -44t-67 -48.5q-18 -15 -33.5 -31.5t-27.5 -29.5v-7zM824 148q-9 -11 -17.5 -36t-8.5 -56q0 -43 45 -50q30 0 66 20.5t70.5 50t64 62.5t45.5 58q7 0 43 92
q-36 -14 -78.5 -26.5t-84 -28t-79.5 -36t-66 -50.5z" />
    <glyph glyph-name="h" unicode="h" horiz-adv-x="1026" 
d="M1525 1230q4 25 5.5 43t1.5 29q0 32 -20.5 46.5t-46.5 14.5q-36 0 -82.5 -18t-115.5 -47q-30 -25 -64.5 -71.5t-72.5 -107t-78 -131.5t-80 -145q-35 -57 -71.5 -119.5t-76.5 -133.5l-6 -12q70 40 130.5 76.5t116.5 74.5t109.5 79t110.5 90q42 34 79.5 70.5t68.5 77
t54.5 86t37.5 98.5zM498 0l652 264q2 1 7 1q4 0 8.5 -3t4.5 -10q0 -9 -8 -12l-688 -276q-91 -169 -191 -330t-211 -317q-222 -312 -563 -478q-107 -62 -197 -62q-63 0 -99 19.5t-53.5 47.5t-21.5 58t-4 50q0 24 5 49.5t18.5 53.5t36 60.5t58.5 71.5q72 79 179.5 171.5
t239.5 187.5t282 187t305 170q27 60 46 102t35 74.5t32 61t35.5 62.5t46 77.5t64.5 106.5q-60 -29 -110 -50.5t-95 -38.5t-87.5 -32t-87 -31t-94.5 -35.5t-110 -45.5q-5 -4 -11 -4q-5 0 -7 3.5t-2 8.5q0 8 8 16q60 27 112 48t100 39t94.5 35t96 37t104.5 44t119 56l105 172
q66 115 136 220t144.5 195.5t154.5 166t168 131.5q4 4 11.5 9t12.5 10q128 77 222 77q60 0 94 -25.5t47 -88.5q0 -97 -86 -191q-97 -104 -182.5 -182t-174.5 -144t-188.5 -128.5t-223.5 -135.5q-75 -121 -144.5 -252.5t-144.5 -270.5zM228 -165q-353 -193 -643 -462
q-161 -150 -243 -268t-82 -204q0 -19 3 -34.5t11 -26t23.5 -16t41.5 -5.5q77 0 158 44q274 149 440 427q165 276 291 545z" />
    <glyph glyph-name="i" unicode="i" horiz-adv-x="759" 
d="M144 -61q-8 -8 -13 -8q-6 0 -6 15v12q24 42 42 81.5t34 78.5t31.5 79.5t34.5 85.5l-344 -135q-5 -3 -8 -3q-7 0 -16 9q0 12 12 24l577 228q19 0 22 -14l-3 -11q-29 -40 -50 -79.5t-39 -80t-36 -83.5t-41 -89l596 234q11 0 19 -12q0 -13 -13 -19zM857 1205q19 -10 19 -31
q0 -15 -16 -46t-38 -62t-46 -54.5t-40 -23.5q-11 0 -15.5 10t-4.5 24q0 34 12 67.5t30 60.5t38 44t37 17q12 0 24 -6z" />
    <glyph glyph-name="j" unicode="j" horiz-adv-x="779" 
d="M-224 -749q-129 -155 -273.5 -263t-302.5 -184q-69 -32 -130 -32t-96.5 20t-53.5 48.5t-22.5 58t-4.5 49.5q0 27 9.5 55.5t25 57t34.5 55t39 49.5q73 86 182.5 183.5t259.5 208.5q149 110 302 205.5t313 176.5l172 332l-307 -123q-3 -1 -7 -1q-6 0 -9.5 4.5t-3.5 10.5
q0 8 8 16l504 197q13 0 19 -3.5t6 -8.5t-7 -12q-60 -88 -112 -179.5t-97 -182.5l713 288q21 0 21 -18q0 -5 -8 -13l-745 -294q-49 -92 -97 -183.5t-99.5 -180t-108.5 -173.5t-124 -164zM784 1175q16 -10 16 -29q0 -12 -6.5 -30.5t-18.5 -39.5t-29 -43.5t-37 -43.5
q-27 -27 -44 -27q-8 0 -15 6.5t-7 22.5q0 28 12 62t29.5 63t37.5 48.5t36 19.5q12 0 26 -9zM-316 -743q16 23 44 70.5t62.5 107t72.5 126t72 128.5t61.5 113.5t42.5 81.5q-118 -65 -241 -150t-237.5 -178t-213.5 -187.5t-168 -179.5q-13 -15 -40 -48.5t-54.5 -75.5
t-48 -86.5t-20.5 -80.5q0 -29 10 -53q5 -4 9.5 -9t8.5 -10q22 -18 55 -18q26 0 62.5 14t73.5 33.5t68.5 39t48.5 30.5q94 60 175.5 145t156.5 187z" />
    <glyph glyph-name="k" unicode="k" horiz-adv-x="1545" 
d="M1608 1482q10 29 10 57q0 43 -20 59.5t-51 16.5q-59 0 -167 -53l-24 -12q-85 -66 -159.5 -158.5t-140.5 -218.5q-67 -126 -141.5 -271.5t-161.5 -317.5q67 50 156.5 113.5t189 145.5t202.5 185t197 232q42 57 69 112t41 110zM1048 -11q-3 -3 -6 -3q-7 0 -12.5 4.5
t-5.5 15.5q80 296 80 302h-25q-42 -10 -80 -21t-80 -29q-48 -23 -89 -50.5t-77 -59.5q26 -8 40 -30t14 -51q0 -22 -10 -48t-26 -49q-45 -83 -103 -83q-27 0 -43.5 10.5t-31.5 41.5q0 41 14 73.5t48 73.5q12 25 24 31q-85 -5 -159.5 -26t-147.5 -48l-37 -18l-37 -13
q-5 -5 -9 -5q-7 0 -16 4.5t-9 6.5q0 4 9 13v6q51 88 98.5 178.5t98.5 178.5q-112 -60 -239 -116.5t-271 -111.5q-6 -2 -7 -2q-4 0 -9 3t-5 11q0 10 8 13q160 66 295 127t253 119q91 174 188.5 343t202.5 318.5t217.5 272t233.5 203.5q4 5 12 9.5t13 9.5q126 78 223 78
q44 0 71.5 -13t42.5 -31.5t20.5 -40t5.5 -39.5q0 -53 -29.5 -115t-79 -128.5t-114 -134.5t-134 -133t-139 -124.5t-130 -107.5t-106.5 -83t-68 -51q-46 -34 -96 -68.5t-101 -66.5q-51 -97 -106 -201.5t-115 -216.5q92 37 203 37q51 51 118 89.5t142 64.5t155 41t157 20h6
l6 -6v-12l-61 -240v-13q0 -7 4 -7q1 0 2 1l467 185q7 0 19 -13q0 -12 -13 -18q-89 -35 -170.5 -68t-161.5 -65t-161.5 -63t-170.5 -61z" />
    <glyph glyph-name="l" unicode="l" horiz-adv-x="927" 
d="M1496 1488q11 27 11 51q0 40 -21.5 62t-69.5 22q-65 0 -135 -45t-140.5 -119.5t-138.5 -170t-129.5 -197t-114 -201t-91.5 -181.5q-49 -103 -79.5 -171t-44.5 -101q41 18 101.5 63t131.5 108t149 140t154 159t146 166t126.5 161t94.5 142.5t50 111.5zM518 394
q-28 -75 -49.5 -138.5t-30.5 -114.5q0 -34 13.5 -56.5t48.5 -22.5q30 0 59 7t56.5 17.5t54 22t51.5 20.5l363 148q14 0 18.5 -8t4.5 -13q0 -8 -14 -12l-347 -139q-29 -12 -70 -30t-85.5 -35t-88 -29t-77.5 -12q-20 0 -44.5 4t-48 17t-44.5 37.5t-34 65.5q-2 8 -2 15.5v15.5
q0 61 33 135l6 6l-331 -129q-3 -1 -8 -1q-12 0 -12 13q0 7 7 13l362 147q75 135 154.5 264.5t159.5 264.5q46 78 92 148.5t94 136t100.5 128t112.5 125.5q45 47 101 95t116.5 87t121.5 64t115 25q31 0 56.5 -10.5t43.5 -28.5t28 -41t10 -48q0 -47 -35 -117t-94 -153
t-137.5 -174.5t-166 -182t-178.5 -175t-175 -153.5q-190 -155 -310 -199z" />
    <glyph glyph-name="m" unicode="m" horiz-adv-x="1811" 
d="M721 -42q-10 0 -17 3.5t-7 11.5q0 2 0.5 3.5t5.5 6.5h-6q22 36 39.5 70.5t32.5 70t29 72t28 75.5l-621 -313h-6q-19 0 -19 12v13v-7q24 45 42 84.5t34 78t31.5 78t34.5 84.5l-351 -135q-6 -2 -7 -2q-6 0 -17 8q0 19 13 25l583 227q18 0 18 -12v-12q-26 -39 -45.5 -75.5
t-36 -72.5t-32 -74t-33.5 -80l646 326q18 0 24 -12q-24 -38 -43 -75t-36 -75t-35 -77t-40 -80l671 326h6q2 2 4 2q5 0 14 -9v-18q-29 -41 -49.5 -80.5t-38.5 -79.5t-36 -82.5t-42 -89.5l591 234q6 2 8 2q7 0 16 -9q0 -18 -12 -18l-799 -319q-13 0 -17.5 6t-4.5 13q0 3 3 6
q21 36 37.5 72t31 72t29 73.5t31.5 76.5z" />
    <glyph glyph-name="n" unicode="n" horiz-adv-x="1339" 
d="M775 -42q-14 0 -19 8t-5 7q0 3 5 3q21 42 38 79.5t31.5 73.5t29 73.5t31.5 80.5l-720 -331q-2 -1 -7 -1q-11 0 -18 7v12q23 41 42 80.5t35.5 79t32 80.5t32.5 85l-320 -129q-2 0 -8 4t-6 13t9 14l546 215q8 2 9 2q8 0 16 -8q0 -12 -6 -12q-26 -41 -44.5 -79.5
t-35.5 -76.5t-34 -77t-40 -81l744 338v6h6q7 0 19 -12v-12q-29 -41 -49.5 -80t-38.5 -79.5t-36.5 -83t-41.5 -89.5l590 233q17 0 25 -12q0 -12 -13 -18z" />
    <glyph glyph-name="o" unicode="o" horiz-adv-x="1162" 
d="M279 289l-325 -123q-2 -2 -5 -2q-5 0 -13 8q0 19 6 19l257 98q34 14 63.5 24.5t59 19.5t61 17.5t69.5 18.5h24q17 -9 22.5 -14t6.5 -8.5t1 -6.5t7 -8q0 -49 -6 -80q-25 -87 -25 -139q0 -57 36 -57q17 0 38 12h6q36 18 74 35t75.5 35t73 38t66.5 45q-12 25 -19.5 56.5
t-7.5 67.5q0 38 9.5 68.5t24.5 52t34.5 33t40.5 11.5q22 0 37 -10t24 -25t13 -33.5t4 -35.5q-11 -66 -41.5 -110.5t-75.5 -80.5q26 -26 51.5 -38t52.5 -12t53 7.5t52 18.5l228 86q3 2 8 2q4 0 6.5 -2.5l4.5 -4.5q2 -4 4 -7q-1 -10 -11 -13l-227 -92q-31 -12 -63.5 -19
t-65.5 -7q-63 0 -117 63q-51 -42 -103 -68t-112 -49q-94 -45 -154.5 -63.5t-89.5 -18.5q-23 0 -43.5 7t-35.5 24t-24 45.5t-9 72.5q0 29 5.5 59t5.5 77q-6 10 -16 10q-8 0 -15 -4z" />
    <glyph glyph-name="longs_longs" unicode="&#xf2;" horiz-adv-x="2035" 
d="M1126 1125q-146 -209 -285 -416.5t-275 -425.5q0 -5 -5 -15t-13 -22.5t-18 -27t-19 -27.5q-12 -25 -49 -74q-181 -296 -355 -590t-340 -596q-11 -8 -14 -8q-9 0 -14 3t-5 5q0 4 8 12q153 278 306.5 553t320.5 547l13 12v7q2 11 3.5 21t1.5 20q0 33 -17.5 54.5t-45.5 34.5
t-62.5 18t-68.5 5q-27 0 -54.5 -3t-52.5 -7.5t-45.5 -9.5t-33.5 -10l-50 -19q-7 -4 -11 -4t-7.5 7.5t-3.5 10.5q0 7 10 11l215 86q121 42 203.5 58t128.5 16q14 -6 27 -7.5t23 -5.5l12 -12q134 208 268.5 410.5t278.5 407.5l6 12v6h7q70 114 166 173q85 63 189.5 102.5
t236.5 48.5q5 0 10 0.5t10 0.5q44 0 82.5 -16t68 -44.5t48.5 -69.5t25 -90l6 6q53 42 111 79.5t116.5 65t115.5 44t110 16.5q40 0 73.5 -15.5t57.5 -47.5q14 -29 20.5 -60.5t14 -58t21 -44t42.5 -17.5q27 0 61 10.5t71.5 27.5t76.5 38.5t77 43.5q51 29 99 58t96 57l6 6l12 6
l6 6q19 0 22 -7.5t3 -10.5q0 -6 -6 -12h-13l-12 -13q-112 -70 -207 -124.5t-175 -92.5t-147 -58t-123 -20q-49 0 -78 23t-39 75l-6 31q-4 18 -11 41t-13 51q-6 26 -21 36t-41 10q-8 0 -12 -2q-88 -33 -161 -81.5t-147 -103.5q0 -145 -63 -301t-178 -321
q-100 -142 -191.5 -256t-176.5 -204q-7 -12 -16.5 -21.5t-20.5 -21.5q-52 -58 -88 -87t-60 -29q-22 0 -34 22.5t-12 55.5q0 58 31.5 141.5t85 180.5t123.5 201.5t146 204.5t153.5 188.5t146.5 154.5q-10 122 -80 184q0 4 -6 5.5t-6 7.5q-40 29 -84 38.5t-98 9.5
q-57 0 -115 -15.5t-115 -57.5q-51 -36 -91 -76.5t-69 -89.5l-6 -12h-6v-7zM1796 1009q6 30 6 86q-23 -23 -62 -67t-87 -102t-101.5 -126.5t-105.5 -141t-99.5 -145t-83.5 -139t-57.5 -123.5t-21.5 -98q0 -31 10.5 -53t25.5 -22q7 0 19 8t24.5 18.5t22 19.5t12.5 11
q4 10 31 37q81 94 154.5 188.5t142.5 194.5t111 213t59 241z" />
    <glyph glyph-name="odieresis" unicode="&#xf6;" horiz-adv-x="1162" 
d="M279 289l-325 -123q-2 -2 -5 -2q-5 0 -13 8q0 19 6 19l257 98q34 14 63.5 24.5t59 19.5t61 17.5t69.5 18.5h24q17 -9 22.5 -14t6.5 -8.5t1 -6.5t7 -8q0 -49 -6 -80q-25 -87 -25 -139q0 -57 36 -57q17 0 38 12h6q36 18 74 35t75.5 35t73 38t66.5 45q-12 25 -19.5 56.5
t-7.5 67.5q0 38 9.5 68.5t24.5 52t34.5 33t40.5 11.5q22 0 37 -10t24 -25t13 -33.5t4 -35.5q-11 -66 -41.5 -110.5t-75.5 -80.5q26 -26 51.5 -38t52.5 -12t53 7.5t52 18.5l228 86q3 2 8 2q4 0 6.5 -2.5l4.5 -4.5q2 -4 4 -7q-1 -10 -11 -13l-227 -92q-31 -12 -63.5 -19
t-65.5 -7q-63 0 -117 63q-51 -42 -103 -68t-112 -49q-94 -45 -154.5 -63.5t-89.5 -18.5q-23 0 -43.5 7t-35.5 24t-24 45.5t-9 72.5q0 29 5.5 59t5.5 77q-6 10 -16 10q-8 0 -15 -4zM1411 1494q10 -16 10 -32q0 -11 -3.5 -20.5t-19 -30t-48.5 -57.5t-92 -103
q-21 -24 -43.5 -48t-41 -43t-32 -30.5t-17.5 -11.5q-3 0 -3 3q0 8 10 28.5t26 47.5t36.5 59.5t41.5 64.5q50 76 114 167q22 22 38 22q14 0 24 -16zM1583 1494q9 -15 9 -30q0 -9 -4.5 -19.5t-22.5 -33t-54.5 -63t-100.5 -109.5q-24 -26 -49.5 -51.5t-47.5 -46.5t-38 -34
t-21 -13q-4 0 -4 3q0 6 11 26t29 47.5t41.5 61t47.5 66.5t47 64t41 54q26 35 39.5 53.5t21.5 27t13.5 9.5t14.5 1q13 0 27 -13z" />
    <glyph glyph-name="longs_p" unicode="&#xf3;" horiz-adv-x="1732" 
d="M2109 1458q45 19 82 19q26 0 50.5 -6.5t43 -20t29.5 -34.5t11 -49q0 -68 -75 -149q-114 -117 -221 -212t-208.5 -176t-198.5 -151.5t-190 -137.5l-49 -37l-154 -264q7 -10 11 -15.5t7 -9.5l6 -8t7 -10q6 -41 8 -68.5t5.5 -44.5t11 -24.5t23.5 -7.5t45 9t56.5 20.5
t47 20.5t18.5 9l412 166q21 0 21 -18q0 -5 -8 -13l-419 -166q-27 -11 -69 -29t-88 -35.5t-91.5 -30t-79.5 -12.5q-5 0 -9 -0.5t-8 -0.5q-8 0 -18 3t-30 14l-634 -1138q-6 -6 -24 -6q-6 6 -6 24l645 1149q-5 15 -5 34q0 14 3.5 33t3.5 38t-13 27.5t-42 8.5q-17 0 -41 -2.5
t-53 -8.5h-13v6h-6v18q97 88 197 168t203 158l61 49q3 4 14.5 22.5t24 40t23 41t12.5 26.5q0 168 -61 245t-166 77q-52 0 -101 -18.5t-92.5 -49t-80.5 -71t-65 -85.5l-301 -480q0 -9 -3 -15.5t-9.5 -16t-17 -26t-25.5 -46.5h-6q-197 -303 -382 -594.5t-362 -579.5
q-10 -10 -17 -10q-13 0 -13 28l644 1014v13q2 13 3.5 23t1.5 18q0 34 -18 55.5t-45.5 34t-62 17.5t-67.5 5q-26 0 -53.5 -3t-53 -7t-46.5 -9.5t-34 -10.5l-48 -19q-2 -2 -5 -2q-5 0 -13 8q0 19 6 19l220 86q120 41 200.5 57.5t131.5 16.5q31 -10 56 -25l289 461h6v6l6 7
q42 68 93 125.5t109.5 99t125 65t139.5 23.5q85 0 153.5 -49t117.5 -154q40 61 85 119.5t97.5 118.5t115 123.5t137.5 133.5q43 40 82 53zM1045 252q6 0 12 6q26 2 47.5 5.5t41.5 3.5q11 0 22 -2.5t37 -12.5l116 209q-81 -57 -150 -108.5t-126 -100.5zM1432 597
q72 56 148.5 118t160 135.5t175 162.5t193.5 199q42 45 60.5 87.5t19.5 84.5q0 1 -1.5 8.5t-6 16.5t-11.5 16.5t-18 7.5q-25 0 -48.5 -11.5t-45 -29t-41.5 -38t-38 -38.5q-92 -85 -160.5 -162.5t-126 -155t-109 -158t-108.5 -170.5q-9 -18 -21.5 -36.5t-21.5 -36.5z" />
    <glyph glyph-name="p" unicode="p" horiz-adv-x="1792" 
d="M1615 141l332 136q20 0 20 -18q0 -5 -8 -13l-326 -129q-175 -72 -344.5 -160t-341.5 -197t-336.5 -209t-330.5 -196q-5 -17 -9.5 -32.5t-8.5 -28.5v-6q-52 -132 -121 -257t-154.5 -236.5t-187 -206.5t-219.5 -168q-66 -48 -133 -70.5t-119 -22.5q-10 0 -26 1.5t-34.5 8
t-37 19.5t-34 37t-25 60.5t-9.5 89.5q5 68 52 139t122.5 141.5t172.5 139t202 132.5t210.5 122t198.5 107q55 222 190 334q138 114 481 318l12 7q89 52 132 102t43 112q0 23 -2.5 41t-8.5 31.5t-17.5 24.5t-29.5 20q-24 0 -48 -5.5t-53.5 -24.5t-67 -54t-89.5 -95h6
q45 -9 55 -49q0 -51 -13.5 -90.5t-34 -66t-45 -40.5t-45.5 -14q-10 0 -22.5 2t-23.5 13h-6q-15 15 -19.5 30t-4.5 26q0 28 18.5 60t41.5 68q9 8 15 16t10 15q-60 -3 -113 -16t-102.5 -33.5t-97.5 -45.5t-99 -52q-2 -1 -7 -1q-11 0 -18 7v12q23 41 42 80.5t35.5 79.5t32 80.5
t32.5 84.5l-314 -123q-3 -3 -7 -3q-7 5 -9 8.5t-2 8.5t7 11l546 215q8 2 9 2q8 0 16 -8q0 -12 -6 -12q-24 -38 -42 -75t-34.5 -74.5t-33.5 -75.5t-38 -77q55 14 111.5 25.5t116.5 11.5q53 56 87.5 91.5t56.5 57t35 32.5t22.5 17.5t19.5 12t25 17.5q24 10 44 17.5l36 13.5h6
q29 10 62 10q25 0 44 -9t32.5 -22.5t20.5 -28t7 -24.5q8 -30 8 -52q0 -34 -15.5 -67t-43 -65.5t-66.5 -63t-86 -60.5q-242 -154 -398.5 -305t-216.5 -290q49 25 87.5 46t66.5 40q144 81 285.5 165.5t287.5 175.5q146 90 292.5 163.5t296.5 133.5zM102 -755
q-168 -105 -306.5 -204t-256.5 -198q-128 -108 -186.5 -204.5t-58.5 -187.5q0 -36 19.5 -58.5t54.5 -22.5q42 0 114 32h6q105 50 192.5 128.5t161.5 184t138 238.5t122 292z" />
    <glyph glyph-name="period" unicode="." horiz-adv-x="363" 
d="M292 203q16 -10 16 -29q0 -12 -6.5 -30.5t-18.5 -39.5t-29 -43.5t-37 -43.5q-27 -27 -44 -27q-8 0 -15 6.5t-7 22.5q0 28 12 62t29.5 63t37.5 48.5t36 19.5q12 0 26 -9z" />
    <glyph glyph-name="q" unicode="q" horiz-adv-x="1314" 
d="M392 -1094q-24 -51 -44 -78t-42 -39.5t-49.5 -16t-67.5 -7.5q-35 0 -35 6q0 1 8.5 12t20.5 31l726 1444q-4 -1 -25 -7t-45.5 -12.5t-46 -12t-25.5 -5.5q-37 -52 -90.5 -94.5t-114 -72.5t-123 -46.5t-116.5 -16.5q-36 0 -70.5 8.5t-60.5 27t-42 46.5t-16 67q0 43 18 100
l-196 -74q-2 -2 -5 -2q-5 0 -13 8q0 19 6 19l411 166q25 10 40.5 15.5t23.5 5.5q5 0 6 -1.5t1 -5.5q0 -7 -6 -21t-15 -33.5t-20.5 -44t-22.5 -53.5q-14 -39 -14 -76q0 -51 16 -81t58 -30q37 0 81.5 18t87 46t79.5 61.5t60 63.5q-54 11 -78 35t-24 59t14.5 70.5t38.5 64
t54.5 46.5t62.5 18q23 0 42.5 -24.5t19.5 -72.5q0 -20 -7 -42.5t-17.5 -44.5t-22 -42.5t-21.5 -35.5q27 5 58.5 19.5t63.5 33t62 39t55 37.5t42.5 28t24.5 11q8 0 8 -10q0 -7 -1 -10q-33 -85 -69 -166.5t-72 -159.5l510 203q7 0 19 -13q0 -12 -13 -18q-131 -51 -265 -104.5
t-270 -104.5q-130 -280 -272.5 -560.5t-280.5 -570.5z" />
    <glyph glyph-name="question" unicode="?" horiz-adv-x="781" 
d="M129 185q14 48 28 96.5t28 99.5q28 99 116 179l-6 -6q109 97 193 172.5t147 134.5t106 104.5t69.5 83t38 69.5t11.5 64q0 40 -22.5 77.5t-60.5 75.5q-40 21 -74.5 33.5t-67 19t-63.5 8.5t-63 2q-35 0 -77 -4t-87.5 -19t-94 -43.5t-96.5 -76.5v-7q-3 -6 -3 -12t1.5 -11
t1.5 -7q71 -56 71 -95q0 -19 -15.5 -34.5t-38 -26t-48 -16t-45.5 -5.5q-43 0 -74.5 20.5t-31.5 59.5q0 65 188 195v6q109 52 205 81.5t172 29.5q68 0 169 -26q94 -24 137 -95.5t43 -187.5q0 -46 -9.5 -83t-27.5 -69q-54 -95 -109.5 -167.5t-115.5 -123.5
q-118 -101 -316 -244q-44 -31 -65 -59.5t-33.5 -59t-23 -64.5t-32.5 -76q-22 0 -25 7zM135 130q86 0 86 -62q0 -68 -86 -68q-85 0 -85 68q0 62 85 62z" />
    <glyph glyph-name="r" unicode="r" horiz-adv-x="1508" 
d="M367 80q55 18 111.5 30.5t122.5 12.5q43 38 93 72t110 63q88 37 181.5 56t187.5 24l19 -14l-62 -232q-3 -9 -3 -15q0 -12 12 -12q7 0 16 3l510 209q13 0 25 -13q0 -8 -13 -18q-187 -75 -369.5 -147t-368.5 -141h-6q-12 0 -12 18q5 19 18 53t26 73t23 77.5t10 67.5
q0 10 -2 22t-10 12q-12 0 -52.5 -11t-91.5 -32t-105 -51.5t-93 -69.5q44 -9 56 -49q0 -56 -11.5 -86.5t-19.5 -42.5q-20 -30 -55.5 -51t-83.5 -21q-47 0 -47 45q0 34 17.5 67.5t45.5 75.5q9 9 14 17.5t10 13.5q-61 -2 -113.5 -14t-102 -31.5t-97.5 -45.5t-99 -56
q-18 0 -24 13v12q22 41 40.5 79.5t35 77t32.5 78.5t33 84l-319 -123q-2 -1 -7 -1q-6 0 -9.5 4.5t-3.5 10.5t8 17l553 215q18 0 24 -12q-24 -41 -42.5 -78.5t-36 -75t-35.5 -77t-40 -83.5z" />
    <glyph glyph-name="s" unicode="s" horiz-adv-x="782" 
d="M2374 1672q1 -3 1.5 -5.5t0.5 -5.5t-0.5 -5.5t-1.5 -5.5q-2 -7 -8 -15t-26.5 -27t-61 -54t-111.5 -95q-23 -20 -41 -36t-38 -31.5t-45.5 -32t-62.5 -37.5q-28 -16 -60 -29.5t-67 -25.5h-18v6h-6v12h6v13h6q167 70 178 209q0 37 -13.5 77t-44.5 73t-82.5 54.5t-127.5 21.5
q-63 0 -136.5 -26.5t-154 -77.5t-163.5 -125.5t-164.5 -170t-158 -211.5t-142.5 -249l-273 -550q12 -12 12 -28q0 -11 -10.5 -29t-26 -41t-33.5 -48.5t-32 -49.5q-6 -11 -13.5 -21.5t-15.5 -21.5l-511 -1030q0 -6 -18 -6q-8 11 -8 17q0 1 2 7l478 969q1 8 1.5 18t0.5 19
v15.5v9.5q0 33 -17.5 54.5t-45.5 34.5t-62.5 18t-68.5 5q-27 0 -54.5 -3t-52.5 -7.5t-45.5 -10t-33.5 -9.5l-46 -17q-7 -4 -13 -4q-8 0 -8 8q0 19 6 19l221 86q120 41 199.5 57.5t126.5 16.5q20 -7 29 -8l12 -2l269 545q50 101 107 195t118.5 176.5t125 153t125.5 125.5
q63 56 137 105.5t152.5 86.5t158.5 58.5t156 21.5q69 0 126.5 -26.5t97.5 -65.5q31 -48 42 -85.5t11 -73.5q0 -34 -10 -63l5 6q48 45 79.5 76t51.5 51t31 30.5t17.5 15.5t11.5 5.5t12 0.5q10 0 18 -7z" />
    <glyph glyph-name="s.init" unicode="&#xc9;" horiz-adv-x="314" 
d="M1046 1630h-7q-83 -60 -166 -136t-162.5 -170t-153.5 -206.5t-139 -244.5l-903 -1819q0 -6 -18 -6q-8 11 -8 17q0 1 2 7l896 1814q67 135 145.5 256t162.5 220.5t168.5 174t163.5 117.5l12 13h7q106 67 212 104t209 37q69 0 126.5 -26.5t97.5 -65.5q31 -48 42 -85.5
t11 -73.5q0 -47 -21 -89t-60.5 -78.5t-96 -67.5t-127.5 -55h-18v6h-6v12h6v13h6q167 70 178 209q0 37 -13.5 77t-44.5 73t-82.5 54.5t-127.5 21.5q-69 0 -139 -23.5t-152 -79.5z" />
    <glyph glyph-name="longs.2" unicode="&#xa7;" horiz-adv-x="762" 
d="M-41 168q-7 -4 -13 -4q-8 0 -8 8q0 19 6 19l221 86q120 41 199.5 57.5t126.5 16.5q18 -6 29 -7.5t20 -5.5l227 406l19 31q54 84 110 163t119 158q62 78 140.5 139t177.5 106h6q53 31 117 43q11 0 25 6q95 22 158 22q43 0 74 -14t50.5 -37.5t28.5 -53t9 -59.5q0 -5 3 -13
t3 -17q10 -78 92 -78q39 0 91.5 18.5t112 48t122.5 65t123 69.5h6v6h6l6 6h7q4 4 8 4q2 0 7.5 -6t5.5 -12q0 -5 -9 -11l-6 -6h-6l-7 -6q-101 -61 -191.5 -110.5t-171 -84t-149.5 -53t-127 -18.5q-25 0 -42.5 5.5t-30 17t-21.5 28t-17 37.5q-9 61 -21.5 102t-29.5 66.5
t-38.5 36.5t-48.5 11q-13 0 -16 -1q-245 -64 -388 -237q-72 -87 -136 -176.5t-121 -183.5l-25 -30l-228 -406q7 -6 7 -25q0 -6 -5 -17t-14 -25.5t-20 -30.5t-23 -31q-19 -28 -39.5 -63.5t-52.5 -72.5l-670 -1198q-6 -6 -9.5 -8t-8.5 -2q-3 0 -7.5 3t-4.5 19l663 1186v7
q2 11 3.5 21t1.5 20q0 33 -17.5 54.5t-45.5 34.5t-62.5 18t-68.5 5q-27 0 -54.5 -3t-52.5 -7.5t-45.5 -10t-33.5 -9.5z" />
    <glyph glyph-name="semicolon" unicode=";" horiz-adv-x="278" 
d="M184 351q86 0 86 -62q0 -68 -86 -68q-85 0 -85 68q0 62 85 62zM165 43q12 0 19 -0.5t12.5 -5t11 -14.5t13.5 -28q0 -2 0.5 -3.5t0.5 -3.5q0 -11 -6 -33t-17.5 -50t-27.5 -59.5t-36 -59.5q-32 -38 -70 -74.5t-73 -65t-64 -46t-42 -17.5q-7 0 -7 6q0 8 19 33t47 58.5t58 71
t53 71.5q20 27 32 56t18 54t8 42t2 20q0 48 49 48z" />
    <glyph glyph-name="space" unicode=" " horiz-adv-x="1795" 
 />
    <glyph glyph-name="sterling" unicode="&#xa3;" horiz-adv-x="2292" 
d="M1009 867q-33 -57 -90 -123t-126 -135l271 6q12 0 12 -18q0 -13 -12 -13l-301 -6q-33 -41 -80 -80q-38 -42 -74 -79.5t-68 -74.5q19 -6 56 -43q52 -52 103 -98.5t104 -81t109 -54.5t118 -20q45 0 91 13t89.5 34t82.5 48t71 55q85 75 129 156.5t50 169.5v6q0 57 -14.5 103
t-40.5 77.5t-64 48.5t-84 17q-37 -5 -73.5 -16t-74.5 -27v-6h-12v6h-6v12v12h6q51 33 103 45t93 12q57 0 103.5 -16.5t78.5 -47.5t49.5 -74.5t17.5 -98.5q0 -45 -13.5 -95.5t-42.5 -102.5t-75 -104.5t-111 -101.5q-68 -57 -140 -99t-143.5 -69t-139.5 -40t-127 -13
q-102 0 -190 47t-152 125q-18 21 -39 42.5t-47 43.5v-6h-6v-6h-6v-6h-7v-6h-6v-7h-6v-6h-6v-6h-6v-6h-6v-6h-6v-6h-7l-12 -13l-12 -12h-6v-6h-6v-6h-7v-6h-6l-6 -7h-6v-6h-6v-6h-6v-6h-7l-6 -6h-6v-6h-6l-6 -6h-6q-36 -26 -74 -42.5t-70 -16.5q-46 0 -78 46v13h-6v12v6h-6
v12v13v6l6 6v12v12h6v13h6v12h7v12h6v7h6v12h6v6h6v6h6v6h7v6h6q81 71 171 109.5t179 38.5q41 0 86 -12q104 113 179 215h-240q-19 0 -19 12q0 19 13 19l270 6q63 89 96 164t40 131q21 178 64.5 305t102 218.5t129 156.5t146.5 120l7 6h6l12 12h6l6 6h6l13 12h6l6 7l12 6
l6 6h7l12 12h6l6 6h6l7 7h6l6 6h6l6 6h6v6h13l6 6h6l6 6h6l6 6h6l7 7h12v6h12v6h13h6v6h12h6v6h12v6h13h6l6 6h12h6v7h13h6l6 6h12h7l6 6h12h12l6 6h13h12h12l6 6h13h12h12h13h12h12h13h12h12q40 0 80.5 -8t77 -23.5t67 -37t52.5 -48.5q55 -82 55 -178q0 -29 -10 -66
t-31 -70t-52 -56t-73 -23h-24q-45 10 -62.5 45t-17.5 84q0 42 8.5 68t22 43.5t30 28t31.5 20.5q19 13 28 20t13 11t4.5 5t3.5 1q6 12 6 55q-7 23 -20.5 38t-31 24t-38 14t-39.5 10q-24 5 -44 8.5t-36 3.5h-12h-12h-13h-12h-12h-13h-12h-12h-6l-7 -6h-12h-12h-12v-6h-13h-12
h-6l-6 -6h-13h-6l-6 -6h-12l-6 -6h-13h-6v-6h-12h-6l-6 -7h-13v-6h-12h-6v-6h-12v-6h-13h-6v-6h-12v-6h-13v-6h-12l-6 -7h-6l-6 -6l-13 -6h-6l-6 -6h-6v-6h-12l-13 -13h-6l-6 -6h-6v-6h-12v-6h-7l-12 -12h-12v-6h-6l-13 -13h-6v-6h-6l-6 -6q-149 -102 -186 -229
q-38 -126 -78 -435l-7 -62q0 -6 -12 -43zM381 228q-29 19 -60.5 29t-64.5 10q-40 0 -82.5 -16t-87.5 -54h-6v-6h-6v-6h-6v-7l-6 -6v-6h-7v-6l-6 -6v-6l-6 -7v-12h-6v-12v-12h-6v-13h6v-12v-12h6q19 -30 54 -30q24 0 54.5 13t63.5 35h6v6h13v6h6v7h6l6 6h6v6h6v6h7l12 12l6 6
h6v7h6v6h7v6h6l12 12l12 13h6v6h7v6h6v6h6v6h6v6h6v6h6v7z" />
    <glyph glyph-name="germadbls.end" unicode="&#xed;" horiz-adv-x="1404" 
d="M1134 1212q-148 -227 -288 -453.5t-278 -457.5v-6q0 -16 -20 -43.5t-41 -60.5l-36 -56t-38 -55l-154 -257q-249 -416 -516 -849q-5 -9 -14 -9q-5 0 -12.5 2.5t-7.5 4.5q0 5 9 14q134 217 261 430t256 425q10 20 40.5 75t82.5 146q2 11 3.5 21t1.5 20q0 33 -17.5 54.5
t-45.5 34.5t-62.5 18t-68.5 5q-27 0 -54.5 -3t-52.5 -7.5t-45.5 -9.5t-33.5 -10l-50 -19q-8 -8 -12 -8q-6 0 -6 14q0 19 6 19l222 86q121 42 200 58t125 16q52 -15 56 -19q96 161 235 383.5t324 508.5l7 6v6h6q22 41 66.5 84t99.5 81.5t114.5 69.5t112.5 48q76 18 136 18
q45 0 83.5 -13.5t66.5 -36t44 -52.5t16 -63q0 -27 -15.5 -58t-41 -64.5t-58 -68.5t-65.5 -68l-61 -61q-9 -16 -25.5 -32.5l-23.5 -23.5v-6h-6q-24 -29 -37.5 -60.5t-21 -67t-10.5 -75.5t-5 -86q0 -94 -25.5 -178.5t-85.5 -165.5q-51 -70 -112.5 -132.5t-139.5 -113.5
q-14 -14 -27.5 -21.5t-21.5 -15.5h-6v-6h-7l-6 -6q-98 -57 -195 -57q-35 0 -67.5 6.5t-58 22.5t-41 42.5t-15.5 65.5q0 12 3.5 35.5t10 47t16 41t21.5 17.5l166 6q3 -3 5.5 -5t4.5 -4l3 -3q0 -9 -13 -19q-10 -41 -10 -85q0 -36 6.5 -57.5t17 -33.5t25 -16t29.5 -4
q32 0 74 24v6h6l6 6h6q4 5 10 9t12.5 8t13.5 10t13 16q122 95 173 216q22 60 30 119t13 114q2 73 17 131.5t44 100.5q29 43 57.5 80.5t59.5 69.5q9 9 19 18t21.5 21t24.5 27.5t27 37.5q16 16 33.5 37.5t31.5 45.5t23 48t9 47q0 25 -12 53t-35.5 52t-57.5 39.5t-78 15.5
q-33 0 -70 -9.5t-74.5 -25t-73 -36t-65.5 -43t-52.5 -45.5t-33.5 -43z" />
    <glyph glyph-name="t" unicode="t" horiz-adv-x="952" 
d="M1499 1009h6q18 18 37 33.5t37 33.5q25 31 50.5 71t45 81t32 79.5t12.5 65.5q0 15 -2 29t-9.5 25t-23 17.5t-41.5 6.5q-65 0 -162 -49q-5 -5 -13 -9.5t-12 -8.5q-32 -25 -67 -70.5t-72.5 -104.5t-78 -129t-83.5 -145q-34 -67 -70.5 -131t-77.5 -127l-6 -13
q46 27 89.5 51.5t88.5 53.5q79 50 152 104.5t144 110.5zM355 271q2 14 12 26t22.5 21t26.5 14.5t25 5.5q23 0 39.5 -11t27.5 -28.5t17.5 -39.5t8.5 -44v-24l172 289q-108 -57 -213 -100t-211 -85l-325 -129q-3 -1 -8 -1q-6 0 -10 5t-4 10q0 6 9 11l325 129q121 45 236 98.5
t232 110.5l98 166q58 101 126.5 203.5t145.5 196.5t160.5 175t170.5 138q13 8 24 19h6q70 45 131 63t108 18q26 0 47.5 -10.5t37.5 -27.5t24.5 -38t8.5 -42q0 -88 -86 -191q-26 -29 -57.5 -62t-62 -63.5t-56 -55t-39.5 -34.5q-8 -4 -15.5 -10.5t-15.5 -14.5
q-59 -47 -123 -94t-130.5 -91.5t-134.5 -85t-135 -73.5l-289 -486q46 6 100.5 22.5t111 37.5t111.5 44.5t102 43.5q6 0 18 -13q0 -12 -12 -18q-50 -21 -104.5 -46t-111.5 -47.5t-114.5 -39.5t-112.5 -21h-12l-179 -294q0 -12 -12 -12l-135 12q-6 -6 -19 -6q-10 10 -10 16
q0 4 4 8l178 301q-25 7 -49 18.5t-42.5 27.5t-30 35.5t-11.5 43.5q0 7 1 14t3 15z" />
    <glyph glyph-name="twosuperior" unicode="&#xb2;" horiz-adv-x="643" 
d="M471 1138q28 32 60 67q69 65 124.5 105t103.5 62.5t90.5 30.5t83.5 8q31 0 58.5 -11.5t48.5 -32.5t33.5 -51t12.5 -67q0 -54 -27 -115t-72.5 -124t-105.5 -124.5t-127 -116.5q-24 -24 -50.5 -48t-53.5 -51q-60 -51 -98 -104t-62 -108.5t-37.5 -114.5t-24.5 -122
q-6 -32 -11.5 -56.5t-12.5 -41.5l399 154q2 2 5 2t14 -8q0 -19 -13 -19l-412 -166q-34 -130 -90 -257.5t-129.5 -247t-162.5 -227t-189 -196.5q-39 -35 -80 -65.5t-84 -54.5t-87 -39t-87 -19q-67 0 -107 10.5t-61.5 31t-28 50.5t-6.5 68h6q10 64 45 132.5t88 138
t119.5 137.5t139 132t148 121t145.5 104t131 82.5t106 55.5q13 92 39 173.5t78 164.5q54 85 127.5 162t167.5 152q57 45 111 92q39 39 73.5 85t60.5 95.5t41 100.5t15 101q-7 51 -16.5 81.5t-22 47t-28.5 21.5t-37 5q-57 0 -115 -28.5t-107 -71.5l-6 -6q-20 -18 -57 -57
q-20 -22 -47 -51zM-586 -811q-3 -23 -3 -40q0 -57 36.5 -85.5t102.5 -28.5q66 6 127.5 46.5t118.5 95.5q90 88 158.5 183t118.5 198.5t83 216.5t51 237q-66 -31 -147 -83.5t-165.5 -118.5t-166 -143t-147.5 -158t-111 -163t-56 -157z" />
    <glyph glyph-name="u" unicode="u" horiz-adv-x="1345" 
d="M753 -54q-8 -2 -9 -2q-8 0 -16 8v12q24 40 41.5 77t32.5 73.5t29.5 75t31.5 81.5l-719 -332q-9 -3 -11 -3q-7 0 -14 10v12q23 41 42 80.5t35.5 79t32 80.5t32.5 85l-289 -117q-19 0 -25 12q0 7 12 19l523 203q5 1 8.5 1.5t5.5 0.5t5.5 -5t3.5 -13q0 -5 -4 -9
q-26 -37 -45.5 -74t-36.5 -74.5t-34 -77t-38 -81.5l738 338h6q1 1 7 1q11 0 18 -7q-5 -10 -7 -13q-26 -40 -45.5 -80t-37.5 -81t-37.5 -83.5t-45.5 -87.5l597 234q10 0 16.5 -7.5t6.5 -12.5q0 -6 -11 -11zM993 984h30q23 4 43 5.5t43 6.5q123 27 206.5 100.5t135 183
t73.5 249t22 298.5q0 11 7.5 13t9.5 2q10 0 24 -25.5t27.5 -59.5t25 -67t17.5 -48q6 0 6 -12q-42 -140 -91 -254t-113 -199.5t-148 -139t-195 -71.5q-45 -10 -69.5 -12.5t-43.5 -2.5q-138 0 -205 33t-76 117q-6 0 -6 12q0 39 18 68v6q9 4 14 9.5t12.5 10.5t20.5 9t39 4
q18 0 34.5 -8.5t30 -22.5t24 -31t16.5 -33q4 -10 3 -33.5t3 -47.5t17 -42t45 -18z" />
    <glyph glyph-name="t_z" unicode="&#xfa;" horiz-adv-x="1716" 
d="M1500 1009q18 18 36.5 33.5t37.5 33.5q31 35 57.5 74t45.5 79t30 80t11 78q0 37 -23.5 50.5t-53.5 13.5q-60 0 -159 -49q-30 -18 -64 -56.5t-72 -93t-79 -122t-84 -142.5t-87 -154t-88 -157l-6 -13q46 27 89 51.5t89 53.5q75 48 146.5 101.5t143.5 113.5zM959 -171
q34 22 49 37h6q14 33 31.5 62t36.5 61q24 22 49.5 49.5t53.5 56.5t60.5 58.5t70.5 55.5q15 18 29.5 29.5t26.5 21.5t21.5 19.5t14.5 21.5q8 12 14.5 20t11.5 18.5t8 27t3 45.5q0 8 -8 28t-18.5 44.5t-21 48.5t-14.5 39q-2 9 -3 18.5t-2 18.5q0 9 1.5 18t3.5 19
q-130 -126 -233 -218.5t-191 -156.5q-169 -142 -295 -166l-185 -307q0 -12 -12 -12l-135 12q-6 -6 -19 -6q-10 10 -10 16q0 4 4 8l179 301q-25 7 -49 19t-42.5 27.5t-30 35.5t-11.5 43q0 96 89 96q22 0 39 -11t28 -28.5t17.5 -39.5t8.5 -44v-24l166 289
q-107 -56 -210.5 -99.5t-214.5 -85.5l-319 -129q-8 -2 -9 -2q-8 0 -16 8q0 19 12 19l326 129q121 45 233 98.5t229 110.5l104 166q65 114 133.5 218.5t143 196t155.5 167t171 131.5q4 5 11.5 9.5t12.5 9.5q135 81 236 81q18 0 37.5 -5t37 -18.5t31.5 -36t21 -58.5
q0 -39 -17.5 -80t-48.5 -83t-74 -86t-93 -89q-22 -22 -39 -36t-29.5 -24t-20 -17.5t-10.5 -15.5q-57 -45 -121 -92t-131 -92t-135.5 -86t-135.5 -74l-283 -474q60 20 129.5 64t159.5 116.5t205.5 177t268.5 245.5l31 31l7.5 7t17 15t18.5 14.5t12 6.5l6 6h13q3 0 4.5 -2.5
t1.5 -3.5v-6q0 -6 -6 -12h-7v-7h-6q-49 -40 -49 -73q0 -12 7.5 -31t17 -38.5t18.5 -37.5t12 -29q9 -33 9 -63q0 -64 -46.5 -138t-121.5 -149q-9 -9 -20 -17t-21 -15t-17 -12.5t-10 -11.5q-78 -62 -117 -147q-9 -15 -15.5 -30.5t-15.5 -30.5q85 45 168 86t177 79l326 129
q12 0 18 -6q0 -18 -12 -18l-320 -129q-108 -45 -199.5 -90.5t-169.5 -93.5q-11 -25 -21.5 -57t-21.5 -72q-83 -222 -228 -412q-81 -94 -169 -178.5t-187 -159.5q-40 -31 -90.5 -56.5t-110.5 -25.5q-128 0 -128 87q0 25 10.5 55t28.5 62t41 64t48 61q69 80 154.5 159t172 149
t165 128.5t133.5 97.5zM313 -885q-6 -12 -6 -30v-31q12 -12 12 -19q27 -29 61 -29q16 0 40.5 8.5t47 20.5t38.5 24t16 19q211 162 291 330q79 168 177 402l-12 -6q-94 -67 -190.5 -139.5t-202.5 -153.5q-208 -161 -272 -396z" />
    <glyph glyph-name="udieresis" unicode="&#xfc;" horiz-adv-x="1339" 
d="M775 -42q-14 0 -19 8t-5 7q0 3 5 3q21 42 38 79.5t31.5 73.5t29 73.5t31.5 80.5l-720 -331q-2 -1 -7 -1q-11 0 -18 7v12q23 41 42 80.5t35.5 79t32 80.5t32.5 85l-320 -129q-2 0 -8 4t-6 13t9 14l546 215q8 2 9 2q8 0 16 -8q0 -12 -6 -12q-26 -41 -44.5 -79.5
t-35.5 -76.5t-34 -77t-40 -81l744 338v6h6q7 0 19 -12v-12q-29 -41 -49.5 -80t-38.5 -79.5t-36.5 -83t-41.5 -89.5l590 233q17 0 25 -12q0 -12 -13 -18zM1411 1494q10 -16 10 -32q0 -11 -3.5 -20.5t-19 -30t-48.5 -57.5t-92 -103q-21 -24 -43.5 -48t-41 -43t-32 -30.5
t-17.5 -11.5q-3 0 -3 3q0 8 10 28.5t26 47.5t36.5 59.5t41.5 64.5q50 76 114 167q22 22 38 22q14 0 24 -16zM1583 1494q9 -15 9 -30q0 -9 -4.5 -19.5t-22.5 -33t-54.5 -63t-100.5 -109.5q-24 -26 -49.5 -51.5t-47.5 -46.5t-38 -34t-21 -13q-4 0 -4 3q0 6 11 26t29 47.5
t41.5 61t47.5 66.5t47 64t41 54q26 35 39.5 53.5t21.5 27t13.5 9.5t14.5 1q13 0 27 -13z" />
    <glyph glyph-name="longs_t" unicode="&#xf9;" horiz-adv-x="1407" 
d="M1204 141q42 11 88 27.5t91.5 35.5t89 38t81.5 35q7 0 19 -13q0 -12 -6 -18q-45 -18 -93.5 -39t-98 -40.5t-99.5 -36t-97 -25.5l-141 -252q-6 -6 -12 -6l-160 -31q-19 0 -19 13v12q47 77 74.5 122.5t42.5 69.5t20.5 32.5t8.5 11.5l-5 -10q1 0 19 31q-32 5 -68 16
t-67 28.5t-51.5 42t-20.5 56.5q0 15 6 32.5t17.5 31.5t28 23.5t38.5 9.5q24 0 42 -13.5t30 -34.5t17.5 -46t5.5 -49q0 -23 -15 -54q37 -12 49 -12q26 38 46 68.5t41 65t46.5 78t63 107.5t90 154t127.5 216q81 137 126.5 213.5t56.5 93.5q26 42 39 78t13 72q0 63 -38 102
t-107 39q-38 0 -81.5 -10.5t-87 -29t-84 -43.5t-72.5 -54q-50 -48 -95 -100t-87.5 -109.5t-83 -121t-81.5 -135.5q-72 -145 -142 -271t-139 -241v-6q0 -16 -20 -43.5t-41 -60.5l-36 -56t-38 -55l-154 -257q-249 -416 -516 -849q-5 -9 -14 -9q-5 0 -12.5 2.5t-7.5 4.5
q0 5 9 14q134 217 261 430t256 425q10 20 40.5 75t82.5 146q2 11 3.5 21t1.5 20q0 33 -17.5 54.5t-45.5 34.5t-62.5 18t-68.5 5q-27 0 -54.5 -3t-52.5 -7.5t-45.5 -9.5t-33.5 -10l-50 -19q-8 -8 -12 -8q-6 0 -6 14q0 19 6 19l222 86q121 42 200 58t125 16q52 -15 56 -19
q72 121 146 253t152 280q214 387 358 487q145 101 198 119q54 18 109 33t103 15q111 0 164.5 -44t53.5 -125q0 -62 -18 -135q-9 -37 -73.5 -158.5t-185.5 -330.5q-81 -140 -135.5 -232.5t-90 -151.5t-55.5 -91.5t-32 -51t-19 -30t-17 -28.5z" />
    <glyph glyph-name="v" unicode="v" horiz-adv-x="1107" 
d="M-25 -11q0 -6 -19 -6q-6 0 -18 12q0 17 12 17l6 6l849 1476q0 7 6 7l142 80q4 4 7 4q1 0 4 -2.5t6 -4.5l7 -7q0 -3 -6 -9l-781 -1414q85 43 160 43q73 73 197 135q88 36 184.5 55.5t190.5 24.5h12v-19l-61 -233q-1 -4 -1 -12q0 -15 7 -19q8 0 31 12l356 142q19 0 19 -13
q0 -12 -6 -18q-150 -57 -298 -116.5t-293 -104.5h-12q-12 0 -12 18l74 265q0 9 3 18t3 18q-5 7 -13 7q-46 -10 -92.5 -25t-90.5 -35.5t-83.5 -47t-71.5 -58.5q53 -17 53 -79q0 -29 -13 -60.5t-33 -58.5t-45 -44.5t-50 -17.5q-20 0 -32.5 7.5t-14.5 7.5h-1l1 -1
q-7 8 -13.5 17t-11.5 20q0 33 10.5 63.5t25 54.5t28.5 40t22 20q-96 -5 -175 -67q-77 -62 -169 -98z" />
    <glyph glyph-name="w" unicode="w" horiz-adv-x="1303" 
d="M662 1390h18v-19q-115 -242 -229 -484.5t-238 -486.5q-34 -67 -34 -108q0 -23 12.5 -33.5t45.5 -10.5q28 0 66.5 6t77.5 14t74 16t56 13q25 5 50 9t43 4q42 0 60.5 -21t18.5 -72q0 -18 -4 -40.5t-9 -45.5t-9 -45t-4 -38q0 -22 3 -36t9.5 -23.5t17 -16.5t24.5 -14h49
q69 19 125.5 60.5t95.5 104.5q-22 8 -37.5 24.5t-25.5 37.5t-15 45t-5 47q0 33 16.5 54t37.5 33t40 16.5t24 4.5q19 0 34 -7.5t25.5 -19.5t15.5 -26t5 -26q0 -16 -6 -37.5t-15.5 -44.5t-21 -45t-22.5 -38h49q39 4 87.5 20t98.5 36.5t97.5 42t85.5 37.5q20 0 20 -18
q0 -5 -8 -13l-227 -86q-35 -19 -71.5 -31.5t-76.5 -17.5h-74q-6 -12 -21 -32t-42 -43.5t-67 -49.5t-97 -51q-102 -46 -179 -46q-60 0 -92.5 37.5t-32.5 129.5v15t2 15l6 19q9 61 9 93q0 26 -11.5 37.5t-31.5 11.5h-7t-8 -1q-44 -6 -78 -13.5t-63 -13.5t-55.5 -10t-54.5 -4
q-45 0 -77 11t-52 28t-29 37t-9 39q0 46 25 86q73 162 146.5 311.5t148.5 303.5l154 326q0 6 12 6z" />
    <glyph glyph-name="x" unicode="x" horiz-adv-x="947" 
d="M696 226h19q23 0 43.5 -8.5t36 -23t24.5 -34.5t9 -43q0 -45 -32 -81t-89 -60q-18 -8 -36 -18q-63 -25 -142 -25q-116 0 -147 79q-19 25 -19 74l6 31q-124 -45 -217.5 -105.5t-161 -131.5t-112.5 -148t-71.5 -155t-37 -154t-10.5 -143q0 -20 1 -43t3 -44t4.5 -37t6.5 -22
q27 -144 78 -269t132.5 -218t197 -146t272.5 -53q53 0 122.5 9.5t141.5 26.5t139 40t115 50v6q100 54 151 129t51 175q0 22 -4.5 56.5t-15.5 73.5t-31 77.5t-51.5 69.5t-75.5 50.5t-104 19.5q-55 0 -104 -22t-99 -51q-6 -2 -5 -2q-5 0 -13.5 9t-8.5 12q0 6 15 6q24 18 60 36
t77 32.5t83.5 23t81.5 8.5q46 0 85.5 -11t71.5 -30t56 -44t38 -52q12 -10 21.5 -31t16.5 -47.5t10.5 -54t3.5 -49.5q0 -85 -34 -161t-97.5 -139.5t-155.5 -113t-208 -80.5q-8 -5 -25.5 -10t-39.5 -9.5t-45.5 -9t-42.5 -8.5h-6q-57 -10 -110 -15t-104 -5q-168 0 -301.5 49.5
t-234 139t-168 213t-102.5 270.5q0 14 -3.5 24t-3.5 19q-3 18 -4 36.5t-1 38.5q0 76 19 162.5t59 175.5t101.5 177t147.5 168.5t197 149t249 118.5q0 55 -2 86.5t-6.5 47.5t-13 20t-21.5 4q-12 0 -25 -3t-25 -6.5t-21.5 -7.5t-14.5 -6l-313 -123q-2 -2 -5 -2q-5 0 -13 8
q0 19 12 19l307 123q17 7 38.5 14.5t44.5 14t45 11t40 4.5q25 0 49 -8.5t43.5 -27.5t33.5 -48t19 -71zM677 191l-136 -25v-37q0 -17 3 -37t9 -38.5t15.5 -34.5t22.5 -24q12 -6 37 -6h36q14 11 25 11h6q45 24 74 55.5t29 61.5q0 10 -4 23t-15 25t-29.5 20t-46.5 8
q-6 0 -12.5 -0.5t-13.5 -1.5z" />
    <glyph glyph-name="y" unicode="y" horiz-adv-x="1528" 
d="M605 129q49 64 97.5 102t111.5 58q35 16 79 16q43 0 77.5 -12.5t58.5 -39.5t37 -70t13 -103q0 -33 -8 -61.5t-17 -60.5l172 91q94 51 188 102.5t194 106.5q8 0 14.5 -3.5t6.5 -10.5t-9 -16q-141 -77 -283.5 -153.5t-294.5 -159.5q-39 -101 -112.5 -214t-168 -231.5
t-203 -239.5t-217.5 -238l-25 -24q-56 -61 -113 -103.5t-109 -68.5t-96 -38t-75 -12q-60 13 -79 44t-19 79q0 159 196 376q78 97 178.5 185.5t232.5 170.5q66 41 121 73.5t104.5 61.5t96.5 55.5t97 55.5q14 51 27 111t13 112q0 31 -5 60t-17 51.5t-33 36.5t-53 14
q-4 0 -7 -0.5t-8.5 -3t-14.5 -7l-25 -12.5q-45 -35 -86 -86v-6q20 0 36.5 -19.5t16.5 -58.5q0 -29 -12.5 -60.5t-32.5 -58.5t-45 -44.5t-49 -17.5q-21 0 -34 7.5t-15 7.5h-1l1 -1q-7 7 -13.5 16t-11.5 21q0 38 13 70.5t49 75.5q4 9 11.5 18.5t12.5 18.5q-60 -5 -114 -18
t-104 -33t-99.5 -46t-100.5 -56q-18 0 -18 13v12q23 43 40.5 81t33.5 76t32 77.5t35 84.5l-350 -135q-4 -1 -6.5 -1h-3.5q-4 0 -7 2t-3 13q0 8 8 16l583 228q19 0 19 -12v-13q-26 -38 -45.5 -74t-36.5 -72.5t-34 -74.5t-38 -80q60 18 117 30.5t123 12.5zM1411 1494
q10 -16 10 -32q0 -11 -3.5 -20.5t-19 -30t-48.5 -57.5t-92 -103q-21 -24 -43.5 -48t-41 -43t-32 -30.5t-17.5 -11.5q-3 0 -3 3q0 8 10 28.5t26 47.5t36.5 59.5t41.5 64.5q50 76 114 167q22 22 38 22q14 0 24 -16zM1583 1494q9 -15 9 -30q0 -9 -4.5 -19.5t-22.5 -33
t-54.5 -63t-100.5 -109.5q-24 -26 -49.5 -51.5t-47.5 -46.5t-38 -34t-21 -13q-4 0 -4 3q0 6 11 26t29 47.5t41.5 61t47.5 66.5t47 64t41 54q26 35 39.5 53.5t21.5 27t13.5 9.5t14.5 1q13 0 27 -13zM215 -579l-120 -158q-159 -197 -159 -344q0 -48 16 -77.5t61 -29.5
q12 0 21 0.5t21 5t30 13.5t47 26q87 59 166 135l18 19q100 107 181 206.5t145.5 196t113 192.5t83.5 198q-38 -21 -65 -35.5t-56 -30t-65 -37.5t-93 -57.5t-140 -89t-205 -133.5z" />
    <glyph glyph-name="z" unicode="z" horiz-adv-x="1181" 
d="M1069 1205q69 65 124.5 105t103.5 62.5t90.5 30.5t83.5 8q31 0 58.5 -11.5t48.5 -32.5t33.5 -51t12.5 -67q0 -54 -27 -115t-72.5 -124t-105.5 -124.5t-127 -116.5q-24 -24 -50.5 -48t-53.5 -51q-60 -51 -98 -104t-62 -108.5t-37.5 -114.5t-24.5 -122q-6 -32 -11.5 -56.5
t-12.5 -41.5l399 154q2 2 5 2t14 -8q0 -19 -13 -19l-412 -166q-34 -130 -90 -257.5t-129.5 -247t-162.5 -227t-189 -196.5q-39 -35 -80 -65.5t-84 -54.5t-87 -39t-87 -19q-67 0 -107 10.5t-61.5 31t-28 50.5t-6.5 68h6q10 64 45 132.5t88 138t119.5 137.5t139 132t148 121
t145.5 104t131 82.5t106 55.5q13 92 39 173.5t78 164.5q54 85 127.5 162t167.5 152q57 45 111 92q39 39 73.5 85t60.5 95.5t41 100.5t15 101q-7 51 -16.5 81.5t-22 47t-28.5 21.5t-37 5q-57 0 -115 -28.5t-107 -71.5l-6 -6q-20 -18 -56.5 -57t-90.5 -100
q-137 -170 -276 -334.5t-289 -304.5q-125 -116 -182 -141q-28 -12 -85 -35t-145 -58q-8 -2 -9 -2q-8 0 -16 8q0 19 12 19l209 80q31 16 55 32t45.5 33.5t43 37.5t47.5 44q106 97 204 206.5t197 237.5q99 129 273 321zM-48 -811q-3 -23 -3 -40q0 -57 36.5 -85.5t102.5 -28.5
q66 6 127.5 46.5t118.5 95.5q90 88 158.5 183t118.5 198.5t83 216.5t51 237q-66 -31 -147 -83.5t-165.5 -118.5t-166 -143t-147.5 -158t-111 -163t-56 -157z" />
    <glyph glyph-name="exclam" unicode="!" horiz-adv-x="1085" 
d="M555 203q9 -6 9 -18q0 -11 -10.5 -29.5t-29 -41.5t-44 -48t-55.5 -49q-35 -27 -51 -27q-6 0 -11 4t-5 12q0 11 8.5 29t21.5 38.5t28.5 41.5t30.5 38q51 59 84 59q13 0 24 -9zM1351 1646q28 42 55.5 70t58.5 28q30 0 46 -22t16 -50q0 -19 -6.5 -40.5t-20.5 -42.5
q-6 -10 -32 -47.5t-66 -95.5t-91.5 -131.5t-108.5 -154.5t-117 -165.5t-117.5 -163.5t-110 -148.5t-94 -122t-69 -82.5t-36.5 -30q-4 0 -4 6q0 16 28.5 73.5t75 140.5t106.5 185t123.5 206.5t125.5 205t112.5 181.5t84 134.5t41.5 65.5z" />
    <glyph glyph-name="colon" unicode=":" horiz-adv-x="330" 
d="M182 124q86 0 86 -62q0 -68 -86 -68q-85 0 -85 68q0 62 85 62zM236 351q86 0 86 -62q0 -68 -86 -68q-85 0 -85 68q0 62 85 62z" />
    <glyph glyph-name="hyphen" unicode="-" horiz-adv-x="1528" 
d="M923 707q-3 -19 -12 -31q-6 -8 -15 -13.5t-34 -11.5t-74 -14.5t-136 -22.5q-25 -5 -50.5 -9t-49 -7t-42.5 -4.5t-31 -1.5q-11 0 -14 1t-3 4l1 1q5 6 25 16t49.5 21.5t66 23.5t73.5 24q87 27 194 58q5 1 9 1h8q35 0 35 -30v-5zM1057 599q-2 -17 -12 -29q-5 -7 -14.5 -12.5
t-38 -12t-82.5 -15t-147 -21.5q-26 -4 -53.5 -7t-52.5 -5.5t-46.5 -4t-36.5 -1.5q-26 0 -26 5q0 3 19 11.5t49.5 19t70 22.5t81 23.5t80.5 21.5t70 17q50 13 72 19t33 6q10 0 20.5 -8.5t13.5 -28.5z" />
    <glyph glyph-name="Euro" unicode="&#x20ac;" horiz-adv-x="1547" 
d="M940 45l-14 -8q-66 -37 -129.5 -67.5t-132.5 -66.5q-187 -68 -322 -68q-84 0 -147.5 28t-107 81.5t-65.5 131t-22 176.5q2 75 17 158t41 168v1q-18 1 -36 1.5t-37 1.5l-9 -1l-5 3l-8 -1q-23 3 -45.5 6t-42.5 5l-1 29q50 -8 103 -12l9 1q40 -3 82 -3q11 35 25 69.5
t30 69.5q1 1 1 4q-8 1 -16 1t-16 1l-9 -1l-5 3l-8 -1q-23 3 -45.5 6t-42.5 5l-1 29q50 -8 103 -12l9 1q11 -1 22.5 -1.5t22.5 -0.5q55 115 134 226.5t173.5 211.5t200 184t214 145t215.5 95.5t204 34.5q84 0 150.5 -19t112.5 -54t70 -85t24 -113q0 -77 -32 -161.5
t-95 -168.5t-156 -162t-215 -141q-6 -6 -12 -6q-7 0 -13 12q0 11 6 19h6q103 60 181 134t131 153.5t80 160.5t27 154q0 117 -69.5 181.5t-189.5 64.5q-63 -4 -138 -33t-156.5 -81.5t-167 -127t-168 -169t-160 -207t-143.5 -241.5q93 11 187.5 26.5t191.5 41.5l14 -37
q-104 -26 -205.5 -43t-203.5 -22q-17 -35 -31.5 -69t-26.5 -66q85 10 171.5 26t174.5 39l14 -37q-94 -23 -185.5 -39.5t-187.5 -23.5q-34 -94 -49.5 -178t-15.5 -154q0 -75 19 -136.5t57.5 -105t95.5 -67.5t132 -24q89 0 192.5 37t224.5 110z" />
    <glyph glyph-name="zero" unicode="0" horiz-adv-x="988" 
d="M814 615q0 22 -18 31q-38 51 -84.5 73.5t-94.5 22.5t-96.5 -19t-92.5 -49t-82.5 -68t-66.5 -77q-38 -53 -62.5 -114t-24.5 -119q0 -47 17.5 -86t43 -67t53.5 -43.5t50 -15.5q42 0 102 23t129 53l6 6q30 6 59.5 27.5t56 52.5t49.5 68t40 75t26.5 73.5t9.5 62.5
q0 45 -20 90zM894 713q32 -41 32 -95q0 -64 -26.5 -132.5t-69 -134t-95.5 -124.5t-105 -104q-77 -62 -153.5 -87t-161.5 -25q-46 0 -91.5 14.5t-81.5 43t-58.5 69t-22.5 93.5q0 51 18.5 106.5t50.5 109.5t75 104t93 89v6q189 144 396 144q61 0 113 -17.5t87 -59.5z" />
    <glyph glyph-name="one" unicode="1" horiz-adv-x="1024" 
d="M1076 1015l-664 -1051q0 -6 -12 -6h-179q-5 5 -5 9t5 9l677 953l-861 -375q-2 -2 -5 -2q-4 0 -14 8l-12 24h-6q0 19 12 19l1046 430q4 4 9 4t9 -4t4 -9t-4 -9z" />
    <glyph glyph-name="two" unicode="2" horiz-adv-x="881" 
d="M809 92q-38 -21 -81 -47t-94 -58q-38 -24 -74 -24q-57 0 -108 62q-32 39 -65.5 56.5t-69.5 17.5q-32 0 -63 -7.5t-59 -19t-53 -26t-45 -28.5q-30 -21 -44 -21q-10 0 -10 11q0 6 10 18t25.5 26t34.5 29t36.5 28.5t31 23.5t19.5 15q28 22 73.5 60t99 85.5t110 103
t106.5 112.5q39 45 75.5 94t64.5 98.5t44.5 97t16.5 90.5q0 40 -11 72.5t-30.5 55t-45.5 34.5t-57 12q-108 0 -200.5 -83t-159.5 -242q-3 -10 -12 -10q-7 0 -12 3.5t-5 8.5q0 2 4 10q95 227 241 318q126 78 229 78q42 0 79.5 -13.5t66 -38.5t45 -61t16.5 -82q0 -55 -31 -125
t-81 -143t-112.5 -142.5t-125.5 -122.5q-80 -67 -159.5 -131t-160.5 -127q138 67 210 67q42 0 75.5 -17.5t52.5 -39.5q12 -14 23.5 -28.5t23.5 -26.5t24.5 -20t25.5 -8q33 0 87 30z" />
    <glyph glyph-name="three" unicode="3" horiz-adv-x="1089" 
d="M517 603q39 33 70.5 52t56.5 30.5t42 17t27 10.5l277 277q-42 -16 -88 -27t-89 -11q-65 0 -100 44q-2 -1 -25 -17t-51.5 -35t-53.5 -34.5t-31 -15.5q-4 0 -7.5 6t-3.5 8q0 3 22 19t49 35t52 36t31 23q-27 54 -27 93q0 22 10.5 39.5t27 30.5t36.5 20t39 7q21 0 38 -17.5
t17 -47.5q0 -12 -5 -25t-13.5 -26.5t-19.5 -26t-23 -22.5q26 -53 89 -53q38 0 84.5 13t97.5 33q1 1 5 1q12 0 12 -14q0 -6 -5 -11l-283 -283q40 9 77 9q46 0 83 -16t63 -43.5t40 -63.5t14 -76q0 -43 -16.5 -94.5t-51.5 -104.5t-88.5 -105t-127 -95t-168 -74.5t-210.5 -44.5
q-21 -2 -40.5 -3.5t-38.5 -1.5q-88 0 -154 25t-114 73l-12 12q-35 59 -35 107q0 28 14 51.5t32 41t34 27t20 9.5q5 0 5 -6t-3 -15q-15 -50 -15 -89q0 -52 27 -88.5t70.5 -59.5t98.5 -33.5t111 -10.5q54 0 112.5 11t114.5 31.5t106.5 50.5t88 67t60 80.5t22.5 92.5
q0 27 -7 63t-24.5 70.5t-48 64t-77.5 44.5q-29 8 -51 8q-35 0 -72.5 -15t-75.5 -47q-13 -10 -20 -10q-5 0 -8 4t-3 8q0 7 10 17z" />
    <glyph glyph-name="four" unicode="4" horiz-adv-x="1243" 
d="M530 -270l160 325h-62q-66 2 -130 3.5t-127 1.5t-125 -1.5t-122 -3.5h-56q-5 0 -18 13q0 6 12 18q91 38 177 97.5t167 132.5t159 154t152.5 161.5t147 156t144 136t142 102.5t141.5 56q8 -8 14.5 -7.5t6.5 -4.5q0 -4 -8 -12l-431 -947q78 4 152 5.5t149 6.5l7 -31
q-19 0 -19 -12q-25 -25 -43 -25q-33 -3 -66 -4t-67 -1t-68 1t-69 4l-148 -318q0 -5 -2.5 -6t-3.5 -1l-148 -18h-12q-6 0 -6 18zM714 105l437 885q-75 -44 -152.5 -114t-158.5 -154t-165 -175t-171.5 -177t-179.5 -160t-188 -124l228 6q88 4 175 8.5t175 4.5z" />
    <glyph glyph-name="five" unicode="5" horiz-adv-x="913" 
d="M1158 947q-54 -66 -115.5 -97.5t-124.5 -31.5q-45 0 -77.5 14.5t-51.5 40.5q-50 -61 -86.5 -100t-68 -70t-63 -61.5t-71.5 -75.5q75 32 136 32q36 0 72 -8.5t64.5 -29t46.5 -54.5t18 -86q0 -48 -17 -98t-49 -97.5t-77 -89.5t-102 -73q-15 -9 -33.5 -17t-37 -15t-35.5 -13
t-29 -11h-6q-34 -8 -69 -12.5t-73 -4.5q-54 0 -106.5 10.5t-94.5 35t-68 65.5t-26 103q0 76 23.5 109.5t74.5 33.5q6 0 12 -0.5t13 -1.5l12 -24l-6 -6q-13 -22 -25.5 -46t-12.5 -64v-12.5t1 -13.5v-30q15 -64 73 -93.5t161 -29.5q37 0 111 12q9 4 21 5.5t22 6.5
q92 48 145 123.5t53 162.5q0 24 -11.5 49t-29.5 46.5t-38.5 38t-38.5 23.5q-39 15 -84 15q-21 0 -45 -3l-13 25v6h6v6q111 121 221 255.5t222 273.5l25 -6q48 -66 84.5 -92t68.5 -26q33 0 80 26l13 -13z" />
    <glyph glyph-name="six" unicode="6" horiz-adv-x="1096" 
d="M1367 910q66 35 126 73t105 81.5t71.5 93.5t26.5 110q0 63 -20 105t-55.5 68t-84.5 37t-107 11q-54 0 -113.5 -10.5t-121.5 -29t-123.5 -43.5t-118 -53t-106 -58t-87.5 -59q-72 -55 -146.5 -128t-142 -159t-122 -184t-85.5 -202q-22 -75 -22 -153q0 -77 16 -135t45 -97
t69.5 -59t89.5 -20q121 0 210 73t143 209q18 45 26.5 87.5t8.5 77.5t-11 61.5t-28 44t-36.5 26.5t-35.5 9q-44 0 -96 -45q-116 -98 -129 -181q0 -9 -17 -9q-11 0 -11 12q0 5 3 16q24 67 60.5 116t79.5 81.5t87.5 48.5t85.5 16q31 0 61 -10.5t53 -31.5t37 -52t14 -71
q0 -78 -44.5 -169t-134.5 -176q-46 -44 -96.5 -80t-102 -62t-103.5 -40t-102 -14q-57 0 -105 18.5t-82.5 60.5t-54 110t-19.5 166q0 46 5.5 94t16.5 99q17 59 48 121t71.5 123.5t89 121t101 114t106.5 101.5t106 83q44 31 101 63t122.5 62t137 57t144 46.5t144.5 31
t138 11.5q85 0 148 -19t111 -67q68 -68 68 -141q0 -51 -25 -101t-64.5 -95t-87 -83.5t-92.5 -67t-82 -44.5t-55 -16q-11 0 -14 7.5t-3 10.5q0 7 10 7z" />
    <glyph glyph-name="seven" unicode="7" horiz-adv-x="863" 
d="M907 904q14 11 21 11q5 0 8 -5.5t3 -9.5q0 -2 -2 -8l-1297 -1807q-38 -15 -69 -15q-18 0 -33.5 4.5t-26 10.5t-16.5 12.5t-6 10.5q0 2 3 7l1335 1685q-63 -45 -124 -74.5t-109 -29.5q-75 0 -142 85q-20 22 -49 41.5t-56 19.5q-51 0 -154 -73q-2 -1 -8 -1q-5 0 -12.5 4
t-7.5 12q0 6 10 9q61 42 109 69t87 42t70.5 21t60.5 6q51 0 90.5 -20t70.5 -46q34 -30 92 -30q45 0 83 19t69 50z" />
    <glyph glyph-name="eight" unicode="8" horiz-adv-x="709" 
d="M335 474q-8 8 -19 15.5t-24 14.5q-47 -33 -80 -69t-54 -73.5t-31 -75.5t-10 -74q0 -33 9.5 -62.5t27.5 -51t43 -34.5t57 -13q34 0 71.5 16.5t68.5 44t51.5 62.5t20.5 71q0 67 -35.5 125.5t-95.5 103.5zM243 849q21 30 59 65.5t84 66.5t96.5 51.5t95.5 20.5q41 0 72.5 -13
t53 -34.5t32.5 -49t11 -55.5q0 -38 -15.5 -79t-49.5 -81.5t-88 -79t-130 -71.5q118 -82 118 -191q0 -68 -27.5 -130.5t-73 -114t-104 -89t-119.5 -54.5q-34 -10 -62 -10q-30 0 -57.5 12t-49.5 33.5t-35 52t-13 67.5q0 46 20 97.5t52 101t72.5 92.5t82.5 72q-34 43 -53 80
t-19 87q0 74 47 153zM434 609q60 23 102.5 55.5t69.5 69.5t40 75t13 71q0 26 -8 50t-24 42.5t-38.5 29.5t-50.5 11q-47 0 -111 -35q-132 -74 -132 -163q0 -54 36.5 -106t102.5 -100z" />
    <glyph glyph-name="nine" unicode="9" horiz-adv-x="874" 
d="M-888 -657q1 0 31 -43q92 -101 244 -101q108 0 225.5 42t255.5 133q94 60 179 126.5t160 142t139.5 161.5t117.5 185q28 52 66 130.5t72.5 170t58.5 188t24 184.5q0 43 -10.5 85t-30.5 75t-49.5 53.5t-66.5 20.5q-16 0 -27 -4q-77 -25 -139.5 -77t-106.5 -121t-68 -150
t-24 -163q0 -44 3.5 -80t15 -62.5t32 -41t54.5 -14.5q27 0 59.5 6t67.5 17t70 27.5t67 37.5q6 6 12 6t12 -6q0 -19 -6 -25q-123 -85 -209.5 -118t-144.5 -33q-43 0 -75 16t-53 45t-31.5 70t-10.5 92q0 66 17.5 135.5t56 138t99 135.5t147.5 129q110 79 222 79
q55 0 103.5 -17.5t84.5 -50.5t57 -80.5t21 -106.5q0 -81 -23 -169t-58.5 -172t-76.5 -159t-77 -131q-59 -91 -141 -187.5t-174.5 -187.5t-190 -172t-188.5 -141q-157 -103 -291.5 -154.5t-255.5 -51.5q-56 0 -103 10.5t-87 32t-73.5 53t-62.5 73.5q-17 24 -24.5 46.5
t-7.5 43.5q0 39 24 67.5t69 45.5q7 0 19 -12q-3 -8 -8.5 -19.5t-11 -25t-9.5 -27t-4 -24.5q0 -34 33 -76z" />
    <glyph glyph-name="parenleft" unicode="(" horiz-adv-x="917" 
d="M668 765q-231 -450 -231 -921q0 -18 -9 -18q-27 0 -27 18q-23 85 -33.5 169t-10.5 169q0 409 254 798t749 754h37q9 -9 9 -18t-9 -18q-486 -447 -729 -933z" />
    <glyph glyph-name="parenright" unicode=")" horiz-adv-x="1066" 
d="M501 795q231 450 231 921q0 18 9 18q27 0 27 -18q44 -171 44 -339q0 -410 -254.5 -798t-748.5 -753h-37q-9 9 -9 18t9 18q486 447 729 933z" />
    <glyph glyph-name="slash" unicode="/" horiz-adv-x="863" 
d="M1155 1468q14 11 21 11q5 0 8 -5.5t3 -9.5t-37 -59l-1262 -1756q-38 -15 -69 -15q-18 0 -33.5 4.5t-26 10.5t-16.5 12.5t-6 10.5q0 2 3 7q692 879 1045.5 1326t369.5 463z" />
    <glyph glyph-name="braceleft" unicode="{" horiz-adv-x="692" 
d="M1126 1669q-38 -13 -76 -45t-77 -75.5t-79 -95.5t-82 -106q-121 -176 -267 -338q-145 -163 -353 -198q185 -86 185 -282q0 -14 -1 -29t-3 -30q-14 -123 -32 -221.5t-38 -175.5q-29 -90 -29 -105q0 -2 0.5 -2.5t0.5 -1.5l-2 -9q-3 -22 -18 -22q-40 0 -58.5 31t-18.5 77
q1 43 6.5 97t11.5 113.5t11 121.5t5 122q0 55 -3 112q-11 177 -192 204q-13 16 -13 27q0 10 8 15t22 5q4 0 8 -0.5t8 -0.5q142 0 263 124q64 66 125 138.5t121 153.5q66 79 131.5 152t131.5 140q135 135 302 142q23 0 23 -15q0 -23 -21 -23z" />
    <glyph glyph-name="braceright" unicode="}" horiz-adv-x="852" 
d="M545 1716q57 -14 93.5 -38t57 -60t28.5 -84t8 -109q0 -57 -3 -114.5t-6.5 -113t-6.5 -106.5t-3 -95q0 -31 3.5 -54t13 -39t26.5 -25t43 -11q14 -17 14 -26t-5.5 -11t-6.5 -10q-194 -90 -295 -239q-55 -80 -98.5 -157.5t-82.5 -149t-76.5 -135t-79.5 -114.5
q-41 -50 -96.5 -71t-132.5 -21q-12 0 -24 0.5t-21.5 2.5t-15.5 6.5t-6 12.5q3 19 30 19q89 7 135 86q27 46 55 104t60 124t70.5 138.5t85.5 146.5q111 174 373 258q-40 15 -64 39t-36.5 58.5t-16.5 79.5t-4 102q0 46 2 93t4 97q7 48 12 96t5 93q0 63 -14 113.5t-50 75.5
q-5 5 -5 17q0 14 9 19t13 5q5 0 8 -3z" />
    <glyph glyph-name="bar" unicode="|" horiz-adv-x="938" 
d="M-25 -11q0 -6 -19 -6q-6 0 -18 12q0 17 12 17l6 6l849 1476q0 7 6 7l142 80q4 4 7 4q1 0 4 -2.5t6 -4.5l7 -7q0 -3 -6 -9l-781 -1414q-9 -26 -32 -49.5t-54 -44t-65 -37t-64 -28.5z" />
    <glyph glyph-name="equal" unicode="=" horiz-adv-x="920" 
d="M706 715q-2 -15 -6 -24.5t-17.5 -17t-39.5 -14.5t-72 -15q-25 -5 -91.5 -11.5t-176.5 -18.5q-25 -5 -50.5 -9t-49 -7t-42.5 -4.5t-31 -1.5q-11 0 -14 1t-3 4q0 6 21.5 17t59.5 24t90.5 26t115.5 24q68 12 116.5 23t79 20t44.5 14t14 4q5 1 9 1h8q35 0 35 -30v-5zM840 607
q-1 -10 -1.5 -18.5t-10 -16t-32.5 -14.5t-70 -14.5t-122.5 -16t-189.5 -18.5q-26 -4 -53.5 -7t-52.5 -5.5t-46.5 -4t-36.5 -1.5q-26 0 -26 5q0 4 10.5 10.5t35.5 14t66 16.5t102 18q72 11 114.5 20t71 17t50.5 14.5t52 12.5q50 13 72 19t33 6q10 0 20.5 -8.5t13.5 -28.5z
" />
    <glyph glyph-name="uni0025" unicode="%" horiz-adv-x="1426" 
d="M1126 1291q10 9 17 9q4 0 6.5 -4.5t2.5 -8.5q-1 -2 -8 -14.5t-22 -35.5l-1000 -1492q-29 -13 -55 -13q-29 0 -47 13t-18 19l2 6q1098 1494 1122 1521zM691 1041q0 18 -14 26q-30 45 -67 63.5t-75 18.5t-76 -16t-73.5 -41.5t-66 -58t-52.5 -65.5q-30 -45 -49.5 -97
t-19.5 -101q0 -40 14 -73t34 -57t42.5 -37t39.5 -13q32 0 80.5 19.5t102.5 44.5l5 5q36 8 70 44t61 83t43.5 95.5t16.5 82.5q0 41 -16 77zM754 1124q26 -35 26 -81q0 -54 -21.5 -112t-55 -113.5t-75.5 -106t-83 -88.5q-61 -54 -121 -74.5t-129 -20.5q-36 0 -72 12.5
t-64.5 36t-46.5 58.5t-18 80q0 42 14.5 89.5t40 94t59.5 88.5t74 75v5q150 123 314 123q48 0 89.5 -15t68.5 -51zM1147 516q0 18 -14 26q-31 43 -67.5 62.5t-74.5 19.5t-76.5 -16t-73.5 -42t-65.5 -58t-52.5 -65q-30 -45 -49.5 -97t-19.5 -101q0 -40 13.5 -73.5t33.5 -57.5
t42.5 -37t40.5 -13q32 0 80.5 19.5t102.5 45.5l5 5q36 8 70 44t61 83t43.5 95.5t16.5 82.5q0 41 -16 77zM1210 599q26 -35 26 -81q0 -55 -21.5 -113t-55 -113.5t-75.5 -105.5t-83 -89q-61 -52 -121 -73.5t-129 -21.5q-36 0 -72 12.5t-64.5 36.5t-46.5 58.5t-18 79.5
q0 43 14.5 90.5t40 93.5t59.5 88.5t74 75.5v5q151 122 314 122q48 0 89.5 -14.5t68.5 -50.5z" />
    <glyph glyph-name="ampersand" unicode="&#x26;" horiz-adv-x="1537" 
d="M176 -21q-54 33 -90 72.5t-57 84.5t-29.5 95.5t-8.5 106.5q0 42 7 80t24 77.5t45.5 82.5t72.5 93q57 66 102.5 106.5t82 65t64.5 37t48 23.5q39 20 109 36.5t168 27.5q27 3 50 3q54 0 74 -18.5t20 -43.5q0 -20 -9 -43.5t-22.5 -46.5t-29 -45.5t-27.5 -41.5
q36 7 76.5 23.5t79.5 39t73 51t56 60.5q45 66 67 113t27 63l7.5 22.5t8 28.5t6.5 29t3 25q0 15 -6.5 24t-21.5 9q-6 0 -20.5 -3.5t-21.5 -3.5q-37 0 -60 38l3 8q19 61 111 61q50 0 75.5 -36t25.5 -93q0 -45 -15 -93q-3 -9 -10.5 -29.5t-22.5 -51.5t-38 -70t-55 -84
q-45 -63 -234 -155q-186 -91 -630 -100q-64 -149 -90 -228t-26 -102q0 -58 15.5 -101.5t40 -75t55.5 -51.5t62.5 -32t60.5 -17t49 -5q93 0 183 21.5t163 72.5q10 7 34.5 30t65.5 61q48 45 70.5 89.5t22.5 89.5q0 66 -54 96t-158 30q-21 0 -49.5 -12t-54 -31t-43.5 -41
t-18 -43q0 -9 5.5 -18.5t11.5 -19t11.5 -19t5.5 -18.5q0 -18 -8 -31.5t-19.5 -22t-25.5 -13t-26 -4.5t-26 5t-26 13.5t-20 20.5t-8 26q0 17 12.5 41t33 50t47 52.5t54.5 50t54.5 41t48.5 26.5q66 26 179 26q15 0 45.5 -4.5t64.5 -10.5t65 -10.5t47 -4.5q35 0 60 -1t47.5 5
t44.5 23.5t51 54.5q7 9 7 16q0 9 -6 19t-13.5 20.5t-13.5 20.5t-6 19q0 11 6.5 23t17 21.5t23 16t24.5 6.5q42 0 61.5 -9t19.5 -40q0 -14 -5 -35t-15 -43.5t-23.5 -44.5t-29.5 -39q-20 -21 -37 -35.5t-31.5 -24t-27 -16t-22.5 -11.5q-15 -8 -47 -13t-89 -7q-48 -2 -48 -30
q0 -5 1 -11t1 -11q0 -44 -23.5 -102.5t-70.5 -118t-119 -114.5t-169 -93q-12 -5 -37.5 -12t-60 -13.5t-77 -11t-89.5 -4.5q-57 0 -115.5 10t-121.5 30zM293 676q10 -13 57 -13q84 0 140 6.5t98.5 23t79 45.5t81.5 74q4 12 4 24q0 45 -71 45q-39 0 -79.5 -10.5t-79 -26
t-73 -34t-60.5 -34.5t-41.5 -27t-17.5 -11q-28 -27 -38 -62z" />
    <glyph glyph-name="quotedbl" unicode="&#x22;" 
d="M141 1360q49 64 101.5 133t98.5 142t81.5 149t50.5 155q4 8 12.5 19t24.5 11h18q33 -17 37 -24v-13q-39 -98 -79 -177.5t-88 -149t-106 -134.5t-133 -135q-2 -2 -5 -2t-10.5 5t-7.5 12q0 4 5 9zM750 1871q-48 -88 -94 -175.5t-103 -168.5q-52 -79 -110 -156t-124 -152
q-6 -6 -12 -6q-5 0 -11 4t-6 12t4 15q51 63 101 137.5t102 163.5q93 175 160 326l3 3l4 4t6 5v6q7 9 19.5 14t23.5 5q14 0 18.5 -8.5t18.5 -28.5z" />
    <glyph glyph-name="quotesingle" unicode="'" horiz-adv-x="651" 
d="M141 1360q49 64 101.5 133t98.5 142t81.5 149t50.5 155q4 8 12.5 19t24.5 11h18q33 -17 37 -24v-13q-39 -98 -79 -177.5t-88 -149t-106 -134.5t-133 -135q-2 -2 -5 -2t-10.5 5t-7.5 12q0 4 5 9z" />
    <glyph glyph-name="ellipsis" unicode="&#x2026;" horiz-adv-x="1089" 
d="M292 203q16 -10 16 -29q0 -12 -6.5 -30.5t-18.5 -39.5t-29 -43.5t-37 -43.5q-27 -27 -44 -27q-8 0 -15 6.5t-7 22.5q0 28 12 62t29.5 63t37.5 48.5t36 19.5q12 0 26 -9zM655 203q16 -10 16 -29q0 -12 -6.5 -30.5t-18.5 -39.5t-29 -43.5t-37 -43.5q-27 -27 -44 -27
q-8 0 -15 6.5t-7 22.5q0 28 12 62t29.5 63t37.5 48.5t36 19.5q12 0 26 -9zM1018 203q16 -10 16 -29q0 -12 -6.5 -30.5t-18.5 -39.5t-29 -43.5t-37 -43.5q-27 -27 -44 -27q-8 0 -15 6.5t-7 22.5q0 28 12 62t29.5 63t37.5 48.5t36 19.5q12 0 26 -9z" />
    <glyph glyph-name="quotedblright.001" 
d="M141 1360q49 64 101.5 133t98.5 142t81.5 149t50.5 155q4 8 12.5 19t24.5 11h18q33 -17 37 -24v-13q-39 -98 -79 -177.5t-88 -149t-106 -134.5t-133 -135q-2 -2 -5 -2t-10.5 5t-7.5 12q0 4 5 9zM750 1871q-48 -88 -94 -175.5t-103 -168.5q-52 -79 -110 -156t-124 -152
q-6 -6 -12 -6q-5 0 -11 4t-6 12t4 15q51 63 101 137.5t102 163.5q93 175 160 326l3 3l4 4t6 5v6q7 9 19.5 14t23.5 5q14 0 18.5 -8.5t18.5 -28.5z" />
    <glyph glyph-name="quotedblleft.001" 
d="M745 1822q-49 -64 -101.5 -133t-98.5 -142t-81.5 -149t-50.5 -155q-4 -8 -12.5 -19t-24.5 -11h-18q-33 17 -37 24v13q39 98 79 177.5t88 149t106 134.5t133 135q2 2 5 2t10.5 -5t7.5 -12q0 -4 -5 -9zM136 1311q48 88 94 175.5t103 168.5q52 79 110 156t124 152q6 6 12 6
q5 0 11 -4t6 -12t-4 -15q-51 -63 -101 -137.5t-102 -163.5q-93 -175 -160 -326l-3 -3l-4 -4t-6 -5v-6q-7 -9 -19.5 -14t-23.5 -5q-14 0 -18.5 8.5t-18.5 28.5z" />
    <glyph glyph-name="quoteleft.001" horiz-adv-x="651" 
d="M136 1311q48 88 94 175.5t103 168.5q52 79 110 156t124 152q6 6 12 6q5 0 11 -4t6 -12t-4 -15q-51 -63 -101 -137.5t-102 -163.5q-93 -175 -160 -326l-3 -3l-4 -4t-6 -5v-6q-7 -9 -19.5 -14t-23.5 -5q-14 0 -18.5 8.5t-18.5 28.5z" />
    <glyph glyph-name="quoteright.001" horiz-adv-x="720" 
d="M570 1871q-48 -88 -94 -175.5t-103 -168.5q-52 -79 -110 -156t-124 -152q-6 -6 -12 -6q-5 0 -11 4t-6 12t4 15q51 63 101 137.5t102 163.5q93 175 160 326l3 3l4 4t6 5v6q7 9 19.5 14t23.5 5q14 0 18.5 -8.5t18.5 -28.5z" />
    <glyph glyph-name="quotedblbase" unicode="&#x201e;" 
d="M28 -434q49 64 101.5 133t98.5 142t81.5 149t50.5 155q4 8 12.5 19t24.5 11h18q33 -17 37 -24v-13q-39 -98 -79 -177.5t-88 -149t-106 -134.5t-133 -135q-2 -2 -5 -2t-10.5 5t-7.5 12q0 4 5 9zM637 77q-48 -88 -94 -175.5t-103 -168.5q-52 -79 -110 -156t-124 -152
q-6 -6 -12 -6q-5 0 -11 4t-6 12t4 15q51 63 101 137.5t102 163.5q93 175 160 326l3 3l4 4t6 5v6q7 9 19.5 14t23.5 5q14 0 18.5 -8.5t18.5 -28.5z" />
    <glyph glyph-name="quotesinglbase" unicode="&#x201a;" horiz-adv-x="623" 
d="M28 -434q49 64 101.5 133t98.5 142t81.5 149t50.5 155q4 8 12.5 19t24.5 11h18q33 -17 37 -24v-13q-39 -98 -79 -177.5t-88 -149t-106 -134.5t-133 -135q-2 -2 -5 -2t-10.5 5t-7.5 12q0 4 5 9z" />
    <glyph glyph-name="plus" unicode="+" horiz-adv-x="920" 
d="M338 259q47 61 96.5 126.5t95.5 134.5q-32 -3 -74.5 -8t-85.5 -9.5t-81.5 -8t-63.5 -3.5q-26 0 -26 5q0 4 10 10t34.5 14t66 17t103.5 18q60 9 99.5 17t56.5 13q36 61 62 124t39 129q4 8 12.5 19t24.5 11h18q33 -17 37 -24v-13q-50 -124 -103 -222q72 19 104 27t43 8
q10 0 20.5 -8.5t13.5 -28.5q-2 -17 -12 -29q-4 -5 -12 -11t-30.5 -12t-64 -13t-111.5 -14q-48 -77 -110.5 -147.5t-143.5 -145.5q-2 -2 -5 -2t-10.5 5t-7.5 12q0 4 5 9z" />
    <glyph glyph-name="numbersign" unicode="#" horiz-adv-x="1059" 
d="M477 259q47 61 96.5 126.5t95.5 134.5q-36 -3 -79.5 -8t-90.5 -10q-26 -29 -55 -58t-61 -59q-2 -2 -5 -2t-10.5 5t-7.5 12q0 4 8 15.5t19.5 26l23 29t18.5 23.5l-14 -1q-14 -2 -26 -2h-22q-29 0 -29 5t33.5 19.5t93.5 25.5l1 1q24 31 46.5 63t44.5 65q-32 -3 -74.5 -8
t-85.5 -9.5t-81.5 -8t-63.5 -3.5q-26 0 -26 5q0 4 10 10t34.5 14t66 17t103.5 18q60 9 99.5 17t56.5 13q36 61 62 124t39 129q4 8 12.5 19t24.5 11h18q33 -17 37 -24v-13q-50 -124 -103 -222q37 10 67.5 19t43.5 9q3 10 5.5 24t7 26.5t13 21.5t23.5 9h18q33 -17 37 -24v-13
q-50 -124 -103 -222q72 19 104 27t43 8q10 0 20.5 -8.5t13.5 -28.5q-2 -17 -12 -29q-4 -5 -12 -11t-30.5 -12t-64 -13t-111.5 -14l-16 -24q-47 -70 -105 -134.5t-133 -134.5q-2 -2 -5 -2t-10.5 5t-7.5 12q0 4 5 9zM720 688q-12 -2 -33 -4.5t-50 -5.5l-16 -24
q-17 -26 -36 -50.5t-39 -49.5q2 1 6 1q60 10 99.5 17t56.5 13q14 25 32 54.5t24 55.5q-10 -2 -20.5 -3.5t-23.5 -3.5z" />
    <glyph glyph-name="backslash" unicode="\" horiz-adv-x="863" 
d="M0 1468q0 11 7 11q5 0 15 -5.5t15 -9.5q2 -2 11.5 -16.5t26.5 -42.5l960 -1756q-20 -15 -50 -15q-25 0 -49 6t-42.5 14t-30.5 15.5t-14 9.5q-842 1758 -849 1789z" />
    <glyph glyph-name="endash" unicode="&#x2013;" horiz-adv-x="920" 
d="M840 607q-1 -10 -1.5 -18.5t-10 -16t-32.5 -14.5t-70 -14.5t-122.5 -16t-189.5 -18.5q-26 -4 -53.5 -7t-52.5 -5.5t-46.5 -4t-36.5 -1.5q-26 0 -26 5q0 4 10.5 10.5t35.5 14t66 16.5t102 18q72 11 114.5 20t71 17t50.5 14.5t52 12.5q50 13 72 19t33 6q10 0 20.5 -8.5
t13.5 -28.5z" />
    <glyph glyph-name="bracketleft" unicode="[" horiz-adv-x="714" 
d="M-25 -11q0 -6 -19 -6q-6 0 -18 12q0 17 12 17l6 6l849 1476q0 4 6 6.5t14.5 3.5t16.5 1h13q18 0 35 -1.5t35 -1.5q26 0 53.5 5t58.5 22q28 14 57 33.5t54 37.5t44.5 30.5t28.5 12.5q12 0 12 -14q0 -12 -11 -32.5t-30 -44t-44 -47.5t-53 -44q-6 -3 -15.5 -6.5t-19.5 -7.5
t-17.5 -8t-9.5 -8l-836 -1488q0 -4 -7 -5q20 -22 33.5 -51.5t22 -60t12 -58.5t3.5 -46q0 -19 -4.5 -31.5t-12.5 -12.5q-10 0 -21.5 19.5t-26 49t-32 64t-38.5 63.5q-13 22 -33.5 40t-40.5 31.5t-35.5 21.5t-19.5 9q-16 6 -21 13h-1zM171 -34l6 6l801 1450q-33 -6 -52 -6
q-12 0 -17.5 2.5t-11.5 4.5l-707 -1275q-7 -20 -20 -36.5t-29.5 -30t-35 -24.5t-34.5 -21q12 -5 39 -23.5t56 -47.5q1 1 5 1z" />
    <glyph glyph-name="bracketright" unicode="]" horiz-adv-x="714" 
d="M1205 1337q0 6 19 6q6 0 18 -12q0 -17 -12 -17l-6 -6l-849 -1476q0 -4 -6 -6.5t-14.5 -3.5t-17 -1h-12.5q-18 0 -35.5 1.5t-35.5 1.5q-28 0 -59 -9t-61.5 -24t-60.5 -34t-55 -40q-41 -34 -60 -34q-11 0 -11 13q0 12 11 32.5t30 44t44 48t53 44.5q6 3 15.5 6.5t19.5 7.5
t17.5 8t9.5 8l836 1488q0 4 7 5q-20 22 -33.5 51.5t-22 60t-12 58.5t-3.5 46q0 19 4 31.5t13 12.5t21 -20t26.5 -49.5t32 -63.5t38.5 -63q13 -22 33.5 -40t40 -31.5t35.5 -21.5t20 -9q16 -6 21 -13h1zM1009 1360l-6 -6l-801 -1450q33 6 51 6q13 0 18.5 -2.5t11.5 -4.5
l707 1275q7 20 20 36t29.5 29.5t34.5 25t35 21.5q-13 5 -39.5 23.5t-55.5 47.5q-1 -1 -5 -1z" />
    <glyph glyph-name="greater" unicode="&#x3e;" horiz-adv-x="525" 
d="M209 572l283 -301q4 -8 4 -10q0 -5 -4 -9h-6l-461 -263q-4 -2 -5 -2q-2 0 -9 3.5t-7 8.5t8 13l339 252l-160 290q-6 6 -6 12t6 12q18 0 18 -6z" />
    <glyph glyph-name="aring" unicode="&#xe5;" horiz-adv-x="1254" 
d="M765 -11q-11 -3 -19 -3q-14 0 -14 11q0 5 2 9l62 222q-17 -7 -49 -7q-29 -44 -63 -77t-70.5 -57t-74.5 -41t-75 -28q-42 -9 -92 -14.5t-111 -5.5q-69 0 -111 37.5t-42 110.5q0 41 18 88l-190 -74q-9 0 -11 2.5t-2 8.5q0 13 7 14l460 184h12q5 0 6.5 -3t6.5 -3
q0 -12 -6 -12q-11 -23 -25 -49.5t-26.5 -53.5t-21 -55t-8.5 -54q0 -48 15.5 -75t43.5 -27q45 3 89.5 16.5t86.5 37t79.5 56t67.5 74.5q-22 6 -40 21t-31.5 34.5t-21 42.5t-7.5 47q0 70 41 103t112 33q35 0 56 -21t21 -64q0 -14 -6 -35.5t-16 -45t-22 -46t-25 -38.5
q34 7 66.5 20.5t63.5 30t60 35.5t56 37q6 3 11 3q9 0 14 -9v-12l-62 -246l394 147q1 0 1.5 0.5t2.5 0.5t6.5 -3t4.5 -9q0 -9 -9 -13zM1370 1576q0 13 -11 18q-23 30 -51.5 43t-58.5 13q-51 0 -98 -26.5t-83.5 -66t-58 -85.5t-21.5 -85q0 -28 10.5 -51t26.5 -39.5t33 -25.5
t31 -9q25 0 62.5 13.5t79.5 31.5l3 3q28 6 54.5 31t47.5 57t34 66t13 58q0 29 -13 54zM1420 1633q19 -22 19 -56q0 -38 -16.5 -78t-42.5 -78.5t-58.5 -73.5t-64.5 -62q-48 -36 -94 -51t-100 -15q-28 0 -56 8.5t-50 25t-36 41t-14 55.5q0 30 11.5 62.5t31 64.5t46 61.5
t57.5 52.5v4q115 85 244 85q37 0 69 -10.5t54 -35.5z" />
    <glyph glyph-name="ae" unicode="&#xe6;" horiz-adv-x="1635" 
d="M740 -11q-11 -3 -19 -3q-14 0 -14 11q0 5 2 9l87 222q-17 -7 -49 -7q-29 -44 -63 -77t-70.5 -57t-74.5 -41t-75 -28q-42 -9 -92 -14.5t-111 -5.5q-69 0 -111 37.5t-42 110.5q0 41 18 88l-190 -74q-9 0 -11 2.5t-2 8.5q0 13 7 14l460 184h12q5 0 6.5 -3t6.5 -3
q0 -12 -6 -12q-11 -23 -25 -49.5t-26.5 -53.5t-21 -55t-8.5 -54q0 -48 15.5 -75t43.5 -27q45 3 89.5 16.5t86.5 37t79.5 56t67.5 74.5q-22 6 -40 21t-31.5 34.5t-21 42.5t-7.5 47q0 70 41 103t112 33q35 0 56 -21t21 -64q0 -14 -6 -35.5t-16 -45t-22 -46t-25 -38.5
q34 7 66.5 20.5t63.5 30t60 35.5t56 37q6 3 11 3q9 0 14 -9v-12l-35 -104h1q94 27 184 51t178 48q8 2 9 2q8 0 16 -8v-13l-123 -276l388 151q2 1 7 1q6 0 9.5 -5t3.5 -10q0 -7 -8 -10l-431 -170q-23 -9 -55 -18.5t-63 -9.5q-29 0 -52.5 13.5t-23.5 40.5q0 26 22 66l74 154
l-146 -40l-72 -217z" />
    <glyph glyph-name="AE" unicode="&#xc6;" horiz-adv-x="2940" 
d="M3037 240l110 43q7 7 13 7q1 0 3 -4t4.5 -8.5t4.5 -8.5t2 -5q0 -6 -14 -6l-117 -49q-53 -21 -105.5 -45.5t-105 -48.5t-106 -44.5t-108.5 -33.5h-6q-72 -21 -133.5 -30.5t-115.5 -9.5q-86 0 -153.5 22t-118 57t-84 78t-51.5 85l-634 -250q-4 0 -18 11v12l111 222
q-20 -6 -56 -6l-6 -7h-6v-6h-6q-15 -18 -31.5 -33t-30.5 -28h-6l-6 -6q-58 -49 -125 -95t-137.5 -82t-141 -57.5t-136.5 -21.5q-77 0 -142 30.5t-130 95.5h-18l-31 -6l-55 -6h-80l-74 12l-68 25q-31 12 -51 25t-34 29t-24 37.5t-20 50.5q0 47 13.5 69.5t41.5 40.5
q106 69 208 69q55 0 107 -19t102.5 -50.5t99.5 -73t98 -86.5l197 111q77 53 155 107t153 108.5t145 108.5t131 107q102 82 173.5 173.5t116.5 185t65.5 184.5t20.5 172q0 50 -5.5 95.5t-20.5 85t-41.5 74t-68.5 63.5q-49 25 -109 25q-86 0 -161.5 -25.5t-153.5 -82.5
q-86 -62 -150.5 -126.5t-107.5 -126.5t-64.5 -120t-21.5 -107q0 -48 17.5 -81.5t43.5 -55t56 -31t55 -9.5q88 0 198 76.5t238 232.5v6h19v-6h6v-18q-63 -87 -135 -154t-143 -112t-136 -68t-114 -23q-20 0 -42.5 4.5t-43.5 13t-39 21t-30 29.5h-6q-23 38 -36 71t-13 74
q0 68 31.5 141.5t96 149t163.5 152.5t234 152q93 51 175.5 77t160.5 26q66 0 126.5 -19t106.5 -58t73 -98t27 -138q0 -101 -31 -198t-86.5 -190.5t-133 -183t-169.5 -175t-196.5 -166.5t-214.5 -158q-75 -57 -148.5 -110.5t-146.5 -99.5l-191 -110q110 -89 229 -89
q79 0 161 41.5t163 108.5l7 6q16 13 31 26.5t30 29.5q-61 16 -61 117v12q4 18 11 40t26 46q46 48 98 55h12q5 1 10 1.5t10 0.5q42 0 57 -17.5t15 -51.5q0 -23 -10 -47t-25.5 -46.5t-34 -43t-34.5 -36.5q16 0 32.5 4.5t16.5 8.5q42 13 97.5 37.5t130.5 66.5q8 8 12 8l2 -3
q2 -3 4.5 -6t3.5 -6l2 -2q0 -3 -6 -9l-123 -246l384 153q-19 59 -33.5 109t-32.5 107q-52 0 -85 3.5t-56.5 11t-41 20.5t-38.5 33q-17 19 -29 44t-12 53q0 37 19 60.5t47 37t60 19t58 5.5q49 0 88 -20t69.5 -52t53.5 -72.5t40 -81.5q94 26 156 49.5t103 46.5t66 45t46 45
q39 43 65 106.5t26 159.5q0 14 -2 27t-2 27q0 11 1.5 23t1.5 25q-61 -39 -117.5 -77t-102.5 -75t-78.5 -73t-45.5 -70q-11 -9 -17 -9q-8 0 -11 6t-3 15l6 6q18 41 56 81.5t90 81t114 81.5t127 82q19 74 67 153t113 153t140 138.5t148 109.5h6q167 104 258 104q25 0 39.5 -5
t22 -12t10 -14.5t2.5 -11.5q0 -25 -6 -37q-41 -71 -111 -139.5t-156 -133.5t-182.5 -126t-190.5 -117v-74q1 -8 1.5 -16.5t0.5 -16.5q0 -78 -32 -148.5t-86 -133t-126 -117.5t-151 -101q-27 -16 -85 -38t-149 -50q3 -15 6.5 -24.5t8 -20.5t11.5 -27.5t17 -44.5
q66 -180 158 -267t213 -87q30 0 61 6t66 16q115 33 221.5 81t209.5 91zM3172 1759q-14 -5 -29 -13.5t-33 -17.5h-6q-109 -54 -193.5 -130.5t-138.5 -164.5q-26 -54 -43 -96t-24 -76q70 45 139 93.5t130.5 101t112.5 108.5t85 115q11 20 21 42t11 33q0 2 -0.5 3t-0.5 2h-31z
M2932 707q-8 -8 -12 -8t-9.5 13t-5.5 28q0 12 4.5 34.5t10.5 43.5q5 38 6 62.5t1 35.5q0 6 -1.5 8.5t-7.5 2.5q-11 0 -23 -4q-25 -13 -39 -19.5t-22.5 -9.5t-14 -4t-13 -3t-19.5 -6.5t-33 -13.5q-10 -5 -19 -5q-8 0 -12 4t-4 9q0 7 12 13l146 72q37 18 75.5 35.5t78.5 31.5
q11 4 19 6.5t16 2.5q44 0 44 -75q0 -18 -3 -38.5t-6 -42t-6 -42t-3 -38.5q2 -8 2 -9q0 -5 -4.5 -13.5t-15.5 -8.5zM62 129q31 -43 98 -67l49 -13l25 -6l55 -6h43l62 6l37 6q-32 32 -74.5 71.5t-86.5 74t-87 57.5t-76 23q-43 0 -64 -41v-6q-4 -9 -4 -32q0 -8 2.5 -18t5.5 -19
t5.5 -15.5t2.5 -8.5zM1653 627q4 -12 14 -26.5t23.5 -27.5t30 -24.5t33.5 -17.5q37 -14 120 -14q-13 44 -28.5 83t-32.5 67.5t-36.5 45t-41.5 16.5q-16 0 -31 -8.5t-27 -21t-19 -28t-7 -29.5q0 -2 0.5 -6t1.5 -9z" />
    <glyph glyph-name="Aring" unicode="&#xc5;" horiz-adv-x="1802" 
d="M1316 234q-61 16 -61 117v12q4 18 11 40t26 46q46 48 98 55h12q5 1 10 1.5t10 0.5q42 0 57 -17.5t15 -51.5q0 -23 -10 -47t-25.5 -46.5t-34 -43t-34.5 -36.5q16 0 32.5 4.5t16.5 8.5q42 13 97.5 37.5t130.5 66.5q8 8 12 8l2 -3t4.5 -6t4 -5.5l1.5 -2.5q0 -3 -6 -9
l-123 -246l400 160q20 0 20 -18q0 -5 -8 -13l-652 -257q-4 0 -18 11v12l111 222q-20 -6 -56 -6l-6 -7h-6v-6h-6q-15 -18 -31.5 -33t-30.5 -28h-6l-6 -6q-58 -49 -125 -95t-137.5 -82t-141 -57.5t-136.5 -21.5q-77 0 -142 30.5t-130 95.5h-18l-31 -6l-55 -6h-80l-74 12
l-68 25q-31 12 -51 25t-34 29t-24 37.5t-20 50.5q0 47 13.5 69.5t41.5 40.5q106 69 208 69q55 0 107 -19t102.5 -50.5t99.5 -73t98 -86.5l197 111q77 53 155 107t153 108.5t145 108.5t131 107q102 82 173.5 173.5t116.5 185t65.5 184.5t20.5 172q0 50 -5.5 95.5t-20.5 85
t-41.5 74t-68.5 63.5q-49 25 -109 25q-86 0 -161.5 -25.5t-153.5 -82.5q-86 -62 -150.5 -126.5t-107.5 -126.5t-64.5 -120t-21.5 -107q0 -48 17.5 -81.5t43.5 -55t56 -31t55 -9.5q88 0 198 76.5t238 232.5v6h19v-6h6v-18q-63 -87 -135 -154t-143 -112t-136 -68t-114 -23
q-20 0 -42.5 4.5t-43.5 13t-39 21t-30 29.5h-6q-23 38 -36 71t-13 74q0 68 31.5 141.5t96 149t163.5 152.5t234 152q93 51 175.5 77t160.5 26q66 0 126.5 -19t106.5 -58t73 -98t27 -138q0 -101 -31 -198t-86.5 -190.5t-133 -183t-169.5 -175t-196.5 -166.5t-214.5 -158
q-75 -57 -148.5 -110.5t-146.5 -99.5l-191 -110q110 -89 229 -89q79 0 161 41.5t163 108.5l7 6q16 13 31 26.5t30 29.5zM62 129q31 -43 98 -67l49 -13l25 -6l55 -6h43l62 6l37 6q-32 32 -74.5 71.5t-86.5 74t-87 57.5t-76 23q-43 0 -64 -41v-6q-4 -9 -4 -32q0 -8 2.5 -18
t5.5 -19t5.5 -15.5t2.5 -8.5zM2236 2629q0 13 -11 18q-23 30 -51.5 43t-58.5 13q-51 0 -98 -26.5t-83.5 -66t-58 -85.5t-21.5 -85q0 -28 10.5 -51t26.5 -39.5t33 -25.5t31 -9q25 0 62.5 13.5t79.5 31.5l3 3q28 6 54.5 31t47.5 57t34 66t13 58q0 29 -13 54zM2286 2686
q19 -22 19 -56q0 -38 -16.5 -78t-42.5 -78.5t-58.5 -73.5t-64.5 -62q-48 -36 -94 -51t-100 -15q-28 0 -56 8.5t-50 25t-36 41t-14 55.5q0 30 11.5 62.5t31 64.5t46 61.5t57.5 52.5v4q115 85 244 85q37 0 69 -10.5t54 -35.5z" />
    <glyph glyph-name="OE" unicode="&#x152;" horiz-adv-x="2301" 
d="M1525 1734l-24 -12q-152 -51 -258.5 -96t-177.5 -87.5t-111.5 -84t-61 -85.5t-26 -91.5t-5.5 -102.5q0 -76 -28 -141t-76.5 -121t-114.5 -103t-142.5 -86t-160 -70.5t-167.5 -56.5h19q30 -5 61.5 -17t57 -36.5t41.5 -64.5t16 -100q0 -36 -4.5 -80t-4.5 -83
q0 -74 11.5 -133.5t36.5 -101.5t63 -64.5t91 -22.5h18q5 0 9.5 0.5t9.5 1.5v7q30 10 65 26.5t67 33.5t57 32t34 21q4 3 18 14t32 26.5t38 32.5t37 31.5t27.5 24l10.5 9.5q1 0 19 21t43.5 53t53.5 69.5t51 69.5q28 40 40.5 59t17.5 28.5t6.5 14.5t7.5 17q-50 0 -81.5 3.5
t-54 11.5t-40 21t-37.5 32q-17 19 -29 44t-12 53q0 37 19 60.5t47 37t60 19t58 5.5q49 0 88 -20t69 -52l5 -5q1 3 2 5.5t2 4.5q4 13 19.5 70t41.5 162q-38 3 -76.5 16.5t-70 37.5t-51.5 57t-20 75v39q0 13 1 21.5t4.5 17.5t10 19t18.5 26q29 39 51.5 49t42.5 10
q18 0 43.5 -8.5t49.5 -30.5t41 -60t17 -96q0 -24 -3.5 -50.5t-8.5 -54.5q0 -10 -3 -19t-3 -18q52 0 96 11.5t92 32.5t105 50.5t135 65.5q8 5 16 10.5t16 10.5q19 74 67 153t113 153t140 138.5t148 109.5h6q167 104 258 104q25 0 39.5 -5t22 -12t10 -14.5t2.5 -11.5
q0 -25 -6 -37q-41 -71 -111 -139.5t-156 -133.5t-182.5 -126t-190.5 -117v-74q1 -8 1.5 -16.5t0.5 -16.5q0 -78 -32 -148.5t-86 -133.5t-126 -117.5t-151 -100.5q-27 -16 -85 -38t-149 -50q3 -15 6 -24.5t8 -20.5t11.5 -27.5t17.5 -44.5q66 -181 158 -267.5t213 -86.5
q30 0 61 6t66 16q115 33 221.5 81t209.5 91l110 43q7 7 13 7q1 0 3 -4t4.5 -8.5t4.5 -8.5t2 -5q0 -6 -14 -6l-117 -49q-48 -19 -82.5 -36t-73.5 -35t-91 -38t-136 -46q-62 -19 -105 -30.5t-76 -17.5t-60 -7.5t-56 -1.5q-77 0 -138 17t-108 45.5t-81 64t-57 73.5
q-20 32 -29.5 62.5t-19.5 54.5q-11 35 -19 66.5t-19 65.5q-37 -68 -83 -133t-97.5 -123t-107 -106.5t-111.5 -83.5q-129 -108 -234 -128q-45 -20 -93 -32t-99 -12q-86 0 -146 28t-98 74t-55.5 106t-17.5 125q0 33 4.5 68.5t9.5 70t9.5 65.5t4.5 54q0 69 -24 102t-86 33
q-6 0 -18 12q0 18 12 18h13l6 6q139 32 248.5 79.5t185.5 108t116 133t40 155.5v31q0 160 145 295t433 250q60 27 130.5 55t158.5 56l19 6h12q8 8 13 8q8 0 8 -23q0 -10 -15 -10zM1607 980q-102 -42 -197 -42q-20 -79 -39.5 -145.5t-36.5 -120.5q20 -24 38 -59t31 -66
q94 26 156 49.5t102.5 46.5t66 45t46.5 45q39 43 65 106.5t26 159.5q0 14 -2 27t-2 27q0 11 1.5 22t1.5 24q-88 -43 -151.5 -72.5t-105.5 -46.5zM2522 1759q-14 -5 -29 -13.5t-33 -17.5h-6q-109 -54 -193.5 -130.5t-138.5 -164.5q-26 -54 -43 -96t-24 -76q70 45 139 93.5
t130.5 101t112.5 108.5t85 115q11 20 21 42t11 33q0 2 -0.5 3t-0.5 2h-31zM2282 707q-8 -8 -12 -8q-2 0 -4.5 4.5t-4.5 10.5t-4 11.5t-3 7.5q0 12 4.5 36.5t11.5 48.5q5 38 6 62.5t1 35.5q0 6 -1.5 8.5t-7.5 2.5q-12 0 -23 -4q-25 -13 -39 -19.5t-22.5 -9.5t-14 -4t-13 -3
t-19.5 -6.5t-33 -13.5q-12 -5 -19 -5q-16 0 -16 13q0 7 12 13l146 72l46 23t53 25t51 20t39 8q44 0 44 -75q0 -18 -3 -38.5t-6 -42t-6 -42t-3 -38.5q2 -10 2 -9q0 -5 -4.5 -13.5t-15.5 -8.5zM1003 627q4 -12 14 -26.5t23.5 -28t30 -24.5t33.5 -17q39 -14 120 -14
q-13 44 -28.5 83t-32.5 67.5t-36.5 45t-41.5 16.5q-16 0 -31 -8.5t-27 -21t-19 -28t-7 -29.5q0 -2 0.5 -6t1.5 -9z" />
    <glyph glyph-name="perthousand" unicode="&#x2030;" horiz-adv-x="2080" 
d="M1126 1291q10 9 17 9q4 0 6.5 -4.5t2.5 -8.5q-1 -2 -8 -14.5t-22 -35.5l-1000 -1492q-29 -13 -55 -13q-29 0 -47 13t-18 19l2 6q1098 1494 1122 1521zM691 1041q0 18 -14 26q-30 45 -67 63.5t-75 18.5t-76 -16t-73.5 -41.5t-66 -58t-52.5 -65.5q-30 -45 -49.5 -97
t-19.5 -101q0 -40 14 -73t34 -57t42.5 -37t39.5 -13q32 0 80.5 19.5t102.5 44.5l5 5q36 8 70 44t61 83t43.5 95.5t16.5 82.5q0 41 -16 77zM754 1124q26 -35 26 -81q0 -54 -21.5 -112t-55 -113.5t-75.5 -106t-83 -88.5q-61 -54 -121 -74.5t-129 -20.5q-36 0 -72 12.5
t-64.5 36t-46.5 58.5t-18 80q0 42 14.5 89.5t40 94t59.5 88.5t74 75v5q150 123 314 123q48 0 89.5 -15t68.5 -51zM1801 516q0 18 -14 26q-31 43 -67.5 62.5t-74.5 19.5t-76.5 -16t-73.5 -42t-65.5 -58t-52.5 -65q-30 -45 -49.5 -97t-19.5 -101q0 -40 13.5 -73.5t33.5 -57.5
t42.5 -37t40.5 -13q32 0 80.5 19.5t102.5 45.5l5 5q36 8 70 44t61 83t43.5 95.5t16.5 82.5q0 41 -16 77zM1864 599q26 -35 26 -81q0 -55 -21.5 -113t-55 -113.5t-75.5 -105.5t-83 -89q-61 -52 -121 -73.5t-129 -21.5q-36 0 -72 12.5t-64.5 36.5t-46.5 58.5t-18 79.5
q0 43 14.5 90.5t40 93.5t59.5 88.5t74 75.5v5q151 122 314 122q48 0 89.5 -14.5t68.5 -50.5zM1147 516q0 18 -14 26q-31 43 -67.5 62.5t-74.5 19.5t-76.5 -16t-73.5 -42t-65.5 -58t-52.5 -65q-30 -45 -49.5 -97t-19.5 -101q0 -40 13.5 -73.5t33.5 -57.5t42.5 -37t40.5 -13
q32 0 80.5 19.5t102.5 45.5l5 5q36 8 70 44t61 83t43.5 95.5t16.5 82.5q0 41 -16 77zM1210 599q26 -35 26 -81q0 -55 -21.5 -113t-55 -113.5t-75.5 -105.5t-83 -89q-61 -52 -121 -73.5t-129 -21.5q-36 0 -72 12.5t-64.5 36.5t-46.5 58.5t-18 79.5q0 43 14.5 90.5t40 93.5
t59.5 88.5t74 75.5v5q151 122 314 122q48 0 89.5 -14.5t68.5 -50.5z" />
    <glyph glyph-name="oe" unicode="&#x153;" horiz-adv-x="2112" 
d="M1872 363q10 2 9 2q8 0 16 -8v-13l-123 -276l388 151q1 1 7 1t9.5 -5t3.5 -10q0 -7 -8 -10l-431 -170q-23 -9 -55 -18.5t-63 -9.5q-29 0 -52.5 13.5t-23.5 40.5q0 26 22 66l74 154l-160 -43l-141 -239q0 -13 -13 -13l-147 13q-13 0 -13 11v12l117 216l-31 -10
q-87 -35 -137.5 -54t-66.5 -23q-29 -7 -66 -7q-63 0 -117 63q-51 -42 -103 -68t-112 -49q-94 -45 -154.5 -63.5t-89.5 -18.5q-23 0 -43.5 7t-35.5 24t-24 45.5t-9 72.5q0 29 5.5 59t5.5 77q-6 10 -16 10q-8 0 -15 -4l-325 -123q-2 -2 -5 -2q-5 0 -13 8q0 19 6 19l257 98
q34 14 63.5 24.5t59 19.5t61 17.5t69.5 18.5h24q17 -9 22.5 -14t6.5 -8.5t1 -6.5t7 -8q0 -49 -6 -80q-25 -87 -25 -139q0 -57 36 -57q17 0 38 12h6q36 18 74 35t75.5 35t73 38t66.5 45q-12 25 -19.5 56.5t-7.5 67.5q0 38 9.5 68.5t24.5 52t34.5 33t40.5 11.5q22 0 37 -10
t24 -25t13 -33.5t4 -35.5q-11 -66 -41.5 -110.5t-75.5 -80.5q26 -26 51.5 -38t52.5 -12q29 0 53 7q13 4 133 50t350 135q5 0 12.5 -4t7.5 -14q0 -4 -4 -12t-10 -17.5t-12.5 -19t-10.5 -16.5l-1 -2q0 -3 5 -3q7 0 42.5 9t86 23t109.5 30.5t113 31.5z" />
    <glyph glyph-name="asterisk" unicode="*" horiz-adv-x="1059" 
d="M110 836l247 -18h75v297l68 23v-302h390l-35 -78h-355l18 -284l-86 -23v307h-357zM583 692h171v-178h-176zM188 1072h171v-178h-176zM596 1062h171v-178h-176zM176 702h171v-178h-171v178z" />
    <glyph glyph-name="at" unicode="@" horiz-adv-x="1447" 
d="M949 1015q103 0 184 -17t136.5 -49t85 -77.5t29.5 -102.5q0 -75 -50.5 -154.5t-157.5 -154.5q-84 -59 -369 -159q-5 -2 -8 -2h-6q-11 0 -11 7q0 2 2 6l45 151q-15 -5 -35 -5q-35 -48 -75 -78t-85 -46.5t-94 -22t-100 -5.5q-52 0 -83 27t-31 75q2 14 4 29t10 30l13 25
l180 66h9q3 0 4 -2t5 -2q0 -8 -4 -8q-8 -16 -18.5 -33.5t-19.5 -36t-15 -37t-6 -36.5q0 -31 10.5 -50.5t32.5 -19.5q66 3 127.5 35.5t108.5 89.5q-33 8 -53 38t-20 62q0 46 30 67.5t81 21.5q26 0 41.5 -13.5t15.5 -42.5q0 -11 -4.5 -25.5t-12 -30t-16.5 -30.5t-18 -26
q51 9 95.5 33.5t84.5 49.5q6 2 8 2q5 0 10 -6v-8l-45 -167q82 34 142.5 79t100.5 94.5t59.5 100.5t19.5 98q0 58 -25 102.5t-70 75t-108 46.5t-140 16q-72 -2 -159 -33.5t-173 -87t-163.5 -133.5t-131.5 -172q-46 -81 -68 -149.5t-22 -128.5q0 -62 21 -112t63 -85.5
t105.5 -54.5t148.5 -19q91 3 189 33.5t215 90.5l5 3l24 14t24 15l14 -16q-11 -7 -21.5 -13t-21.5 -13l-3 -4h-6l-4 -3q-69 -35 -143 -64t-146.5 -49.5t-141 -32t-126.5 -11.5q-84 0 -152.5 22.5t-117 65t-74.5 103t-26 137.5q0 67 20.5 135.5t60.5 131.5q46 73 115.5 141.5
t154 125.5t179.5 99t193 63q37 8 80 13.5t94 7.5z" />
    <glyph glyph-name="Oslash" unicode="&#xd8;" horiz-adv-x="1433" 
d="M1525 1734l-24 -12q-152 -51 -258.5 -96t-177.5 -87.5t-111.5 -84t-61 -85.5t-26 -91.5t-5.5 -102.5q0 -76 -28 -141t-76.5 -121t-114.5 -103t-142.5 -86t-160 -70.5t-167.5 -56.5h19q30 -5 61.5 -17t57 -36.5t41.5 -64.5t16 -100q0 -36 -4.5 -80t-4.5 -83
q0 -158 51 -240t165 -82h11.5t11.5 2v7q64 21 132 59.5t137.5 90.5t138 114t132.5 130t122 139.5t106 141.5q63 92 117.5 190.5t102.5 204.5t91 220.5t83 239.5q-38 3 -76.5 16.5t-70 37.5t-51.5 57t-20 75q0 49 12.5 84t32 56.5t41.5 31.5t42 10q18 0 43.5 -8.5t49.5 -30.5
t41 -60t17 -96q0 -24 -3.5 -50.5t-8.5 -54.5q0 -10 -3 -19t-3 -18q43 0 90 12t95.5 31.5t96.5 45t93 52.5q3 3 8 3q6 0 17 -9q0 -18 -6 -18q-106 -64 -208 -106t-198 -42q-140 -474 -372 -830.5t-575 -602.5q-130 -109 -234 -128q-45 -20 -93 -32t-99 -12q-86 0 -146 28
t-98 74t-55.5 106t-17.5 125q0 33 4.5 68.5t9.5 70t9.5 65.5t4.5 54q0 69 -24 102t-86 33q-6 0 -18 12q0 18 12 18h13l6 6q139 32 248.5 79.5t185.5 108t116 133t40 155.5v31q0 159 146 295t432 250q60 27 130.5 55t158.5 56l19 6h12q8 8 13 8q8 0 8 -23q0 -10 -15 -10z" />
    <glyph glyph-name="Ydieresis" unicode="&#x178;" horiz-adv-x="1398" 
d="M-147 1046v18q37 93 93 171t123.5 141.5t142.5 111.5t151 80t148.5 48.5t134.5 16.5q69 0 118 -18.5t80.5 -55t48.5 -90t23 -122.5q42 32 83.5 63.5t89.5 59.5q19 8 39 17t41 20q164 70 310 70q54 0 112 -10.5t106.5 -39t80 -79.5t31.5 -132v-15.5t-1 -15.5
q-14 -140 -55.5 -280.5t-103 -278.5t-140.5 -272.5t-168 -262.5l215 86q6 0 18 -13q0 -12 -12 -18l-252 -98q-80 -112 -166 -218t-173.5 -205t-174.5 -190.5t-169 -173.5q-26 -22 -55 -49t-62 -61l-36 -37q-42 -42 -82.5 -80t-83.5 -70.5t-88.5 -58.5t-96.5 -43h-12l-6 -7
h-19q-40 -8 -66 -8q-25 0 -57 7t-60.5 27.5t-48 56.5t-19.5 95q0 42 14 89.5t40.5 95t64.5 93.5t87 86q81 66 170.5 131t178 122.5t171.5 105t151 79.5q97 45 215.5 92.5t265.5 101.5q73 119 136.5 244.5t113 254t83.5 258.5t48 258q2 16 3 31t1 30q0 55 -17 108t-48.5 95
t-75 67.5t-96.5 25.5q-9 1 -18.5 1.5t-18.5 0.5q-54 0 -100 -19t-97 -45q-51 -33 -101 -66t-96 -69q0 -62 -18 -136.5t-50 -156.5t-76.5 -167.5t-97 -169t-111.5 -161.5t-120 -144h-6q-19 -28 -37.5 -48.5t-36.5 -37.5q-58 -54 -101 -90t-75.5 -57.5t-56.5 -30t-45 -8.5
q-20 0 -37.5 10t-30.5 26.5t-20 37.5t-7 42q0 43 22 101t58 120t83 125t97 117t87 93.5t64 69t47.5 51t38.5 40.5t35 37.5t38 41.5q36 36 70 72t71 69q1 14 1 27v27q0 70 -10.5 124.5t-36 92t-67.5 57.5t-105 20q-50 0 -106 -11.5t-131 -41.5q-59 -30 -113 -71.5t-100 -91.5
t-82.5 -108t-60.5 -122v-6l-6 -13q0 -10 -7 -10q-6 0 -15.5 3.5t-9.5 6.5q0 6 7 13zM363 -319q-76 -63 -155.5 -156.5t-164.5 -224.5q-39 -57 -54 -109t-15 -107q0 -19 4 -37.5t13 -33t24 -23.5t37 -9q10 0 28 5h18l7 6h6q53 17 98 46t88.5 66.5t89 81t99.5 89.5
q27 28 58 56t59 55q149 155 290.5 330.5t268.5 369.5q-107 -42 -211.5 -82.5t-205 -87t-196.5 -103.5t-186 -132zM1153 2104q49 64 101.5 133t98.5 142t81.5 149t50.5 155q4 8 12.5 19t24.5 11h18q33 -17 37 -24v-13q-39 -98 -79 -177.5t-88 -149t-106 -134.5t-133 -135
q-2 -2 -5 -2t-10.5 5t-7.5 12q0 4 5 9zM1762 2615q-48 -88 -94 -175.5t-103 -168.5q-52 -79 -110 -156t-124 -152q-6 -6 -12 -6q-5 0 -11 4t-6 12t4 15q51 63 101 137.5t102 163.5q93 175 160 326l3 3l4 4t6 5v6q7 9 19.5 14t23.5 5q14 0 18.5 -8.5t18.5 -28.5zM332 308
l37 37t43 42q65 78 114.5 166.5t84 181t55.5 185.5t29 181l-117 -117q-31 -31 -56 -56.5t-55.5 -57t-71 -75.5t-102.5 -112q-42 -46 -75.5 -97t-57 -100.5t-36.5 -94.5t-13 -78q0 -42 24 -61h6q23 -20 57 -20q19 0 52 15.5t82 60.5z" />
    <glyph glyph-name="Eth" unicode="&#x3c;" horiz-adv-x="651" 
d="M105 271l485 301q6 4 10 4q6 0 10 -5.5t4 -10.5q0 -6 -5 -13l-357 -289l154 -252v-17q-8 -6 -13 -6q-6 0 -12 6l-276 263h-7q0 19 7 19z" />
    <glyph glyph-name="guilsinglright" unicode="&#x203a;" horiz-adv-x="525" 
d="M209 572l283 -301q4 -8 4 -10q0 -5 -4 -9h-6l-461 -263q-4 -2 -5 -2q-2 0 -9 3.5t-7 8.5t8 13l339 252l-160 290q-6 6 -6 12t6 12q18 0 18 -6z" />
    <glyph glyph-name="guillemotright" unicode="&#xbb;" horiz-adv-x="824" 
d="M483 572l283 -301q4 -7 4 -10q0 -5 -4 -9h-6l-461 -263q-6 -2 -5 -2q-2 0 -9 3.5t-7 8.5t8 13l339 252l-160 290q-6 6 -6 12t6 12q18 0 18 -6zM209 572l283 -301q4 -7 4 -10q0 -5 -4 -9h-6l-461 -263q-6 -2 -5 -2q-2 0 -9 3.5t-7 8.5t8 13l339 252l-160 290q-6 6 -6 12
t6 12q18 0 18 -6z" />
    <glyph glyph-name="guilsinglleft" unicode="&#x2039;" horiz-adv-x="651" 
d="M105 271l485 301q6 4 10 4q6 0 10 -5.5t4 -10.5q0 -6 -5 -13l-357 -289l154 -252v-17q-8 -6 -13 -6q-6 0 -12 6l-276 263h-7q0 19 7 19z" />
    <glyph glyph-name="guillemotleft" unicode="&#xab;" horiz-adv-x="925" 
d="M410 271l485 301q6 4 10 4q6 0 10 -5.5t4 -10.5q0 -6 -5 -13l-357 -289l154 -252v-17q-8 -6 -13 -6q-6 0 -12 6l-276 263h-7q0 19 7 19zM105 271l485 301q6 4 10 4q6 0 10 -5.5t4 -10.5q0 -6 -5 -13l-357 -289l154 -252v-17q-8 -6 -13 -6q-6 0 -12 6l-276 263h-7
q0 19 7 19z" />
    <glyph glyph-name="paragraph" unicode="&#xb6;" horiz-adv-x="1229" 
d="M383 -188v84h156v731h-22q-19 0 -41 1t-48 3l-45 4q-62 11 -111 38t-85.5 67.5t-59 93t-29.5 114.5q-1 5 -1.5 10.5t-0.5 10.5v16q0 100 32.5 180.5t107.5 139.5q102 57 227 57h20q1 0 3.5 -0.5l7.5 -1.5l81 4h533v-88h-123v-1380h131v-84h-733zM852 1276h-180v-1380h180
v1380z" />
    <glyph glyph-name="quoteleft" unicode="&#x2018;" horiz-adv-x="651" 
d="M778 1275q48 88 94 175.5t103 168.5q52 79 110 156t124 152q6 6 12 6q5 0 11 -4t6 -12t-4 -15q-51 -63 -101 -137.5t-102 -163.5q-93 -175 -160 -326l-3 -3l-4 -4t-6 -5v-6q-7 -9 -19.5 -14t-23.5 -5q-14 0 -18.5 8.5t-18.5 28.5z" />
    <glyph glyph-name="quoteright" unicode="&#x2019;" horiz-adv-x="720" 
d="M1317 1901q-48 -88 -94 -175.5t-103 -168.5q-52 -79 -110 -156t-124 -152q-6 -6 -12 -6q-5 0 -11 4t-6 12t4 15q51 63 101 137.5t102 163.5q93 175 160 326l3 3l4 4t6 5v6q7 9 19.5 14t23.5 5q14 0 18.5 -8.5t18.5 -28.5z" />
    <glyph glyph-name="quotedblleft" unicode="&#x201c;" 
d="M1607 1847q-49 -64 -101.5 -133t-98.5 -142t-81.5 -149t-50.5 -155q-4 -8 -12.5 -19t-24.5 -11h-18q-33 17 -37 24v13q39 98 79 177.5t88 149t106 134.5t133 135q2 2 5 2t10.5 -5t7.5 -12q0 -4 -5 -9zM998 1336q48 88 94 175.5t103 168.5q52 79 110 156t124 152q6 6 12 6
q5 0 11 -4t6 -12t-4 -15q-51 -63 -101 -137.5t-102 -163.5q-93 -175 -160 -326l-3 -3l-4 -4t-6 -5v-6q-7 -9 -19.5 -14t-23.5 -5q-14 0 -18.5 8.5t-18.5 28.5z" />
    <glyph glyph-name="quotedblright" unicode="&#x201d;" 
d="M1004 1348q49 64 101.5 133t98.5 142t81.5 149t50.5 155q4 8 12.5 19t24.5 11h18q33 -17 37 -24v-13q-39 -98 -79 -177.5t-88 -149t-106 -134.5t-133 -135q-2 -2 -5 -2t-10.5 5t-7.5 12q0 4 5 9zM1613 1859q-48 -88 -94 -175.5t-103 -168.5q-52 -79 -110 -156t-124 -152
q-6 -6 -12 -6q-5 0 -11 4t-6 12t4 15q51 63 101 137.5t102 163.5q93 175 160 326l3 3l4 4t6 5v6q7 9 19.5 14t23.5 5q14 0 18.5 -8.5t18.5 -28.5z" />
    <glyph glyph-name="emdash" unicode="&#x2014;" horiz-adv-x="1382" 
d="M1305 603q-2 -11 -3 -20.5t-17 -18t-56 -16.5t-121 -16t-211 -17.5t-327 -20.5q-45 -5 -92.5 -8t-90.5 -6t-80 -4.5t-63 -1.5q-45 0 -45 5t18 12t61 15.5t114 18.5t176 20q124 12 197.5 22t122.5 19t87 16t90 14q86 15 124 21.5t57 6.5q17 0 35.5 -9.5t23.5 -31.5z" />
    <glyph glyph-name="uni00AD" unicode="&#xad;" horiz-adv-x="920" 
d="M840 607q-1 -10 -1.5 -18.5t-10 -16t-32.5 -14.5t-70 -14.5t-122.5 -16t-189.5 -18.5q-26 -4 -53.5 -7t-52.5 -5.5t-46.5 -4t-36.5 -1.5q-26 0 -26 5q0 4 10.5 10.5t35.5 14t66 16.5t102 18q72 11 114.5 20t71 17t50.5 14.5t52 12.5q50 13 72 19t33 6q10 0 20.5 -8.5
t13.5 -28.5z" />
    <glyph glyph-name="S" unicode="S" horiz-adv-x="1534" 
d="M930 528h16q6 7 33 7q31 17 47.5 35t24 33.5t8 28.5t0.5 19q0 24 -10.5 50.5t-30 51t-47.5 46.5t-62 37q-24 -51 -44.5 -98.5t-20.5 -98.5q24 -111 86 -111zM989 504q-12 0 -22.5 -3t-20.5 -3q-36 0 -58.5 9t-37 27t-23 44.5t-16.5 60.5q0 32 6 58t15 50t19.5 47t20.5 50
q-18 6 -61 6q-26 0 -55.5 -6t-61.5 -17t-65 -26t-64 -33h-6v-4h-4l-8 -8h-6q-157 -102 -264 -231t-162 -298q-13 -30 -13 -65q0 -46 29 -88t76 -74t107 -51t122 -19q51 0 105 17h6l51 16q107 39 217 106.5t211.5 154.5t190 189.5t154.5 213t104 224.5t38 224q0 88 -26.5 169
t-71.5 153q-156 -118 -277.5 -247t-197.5 -263q56 -6 95 -21.5t65 -39t40.5 -54t20.5 -65.5v-7q0 -19 -7 -45t-26.5 -53.5t-53 -53.5t-85.5 -44zM166 1188l-12 -6l-13 6l-12 10l18 21v6l7 6h6q111 126 236.5 219t256.5 153.5t264 90.5t259 30q150 0 258 -41t178 -114
q33 16 68.5 37t70 41t65.5 35.5t54 21.5l12 6q89 31 174 31q118 0 200 -41t124 -113v-6q12 -14 12 -25q33 -90 79 -126.5t116 -36.5q52 0 112 23t123 64t128.5 97t129.5 121l27 24l16 19l27 -25l-12 -6l-15 -12l-6 -12l-16 -19h-6q-69 -69 -145 -134t-156.5 -115.5
t-162.5 -81.5t-161 -31q-96 0 -174 47t-144 161q-19 32 -38.5 62.5t-43.5 54.5t-54 38.5t-70 14.5q-35 0 -71 -12t-67 -29l-12 -12q-43 -18 -83.5 -40.5t-82.5 -45.5q30 -38 51 -90t33.5 -108.5t18.5 -113t6 -102.5q0 -102 -24 -198.5t-67.5 -186.5t-104 -172.5t-133.5 -156
t-155.5 -136t-169.5 -112.5q-133 -79 -254 -138t-233 -98h-8v-6q-8 0 -17.5 -3t-17.5 -3v-6h-8q-35 -8 -72 -13t-74 -5q-96 0 -170.5 20t-125 52.5t-77 72t-26.5 78.5q0 58 20.5 118t56 119.5t85 118t107 112.5t121.5 103t130 90h6v6h7l6 7h6l12 14q33 16 64.5 27.5
t58.5 19.5h6q43 18 83 25.5t79 13.5h53q91 155 213.5 282t280.5 246q-15 13 -32 30t-30 32q-151 127 -387 127q-147 0 -291 -54q-62 -26 -127 -61.5t-127 -79t-118 -94.5t-101 -109l-12 -14z" />
    </font>
</defs>
</svg>
